osu file format v14

[General]
AudioFilename: audio.mp3
AudioLeadIn: 0
PreviewTime: 70840
Countdown: 0
SampleSet: Soft
StackLeniency: 0.7
Mode: 0
LetterboxInBreaks: 0
WidescreenStoryboard: 1

[Editor]
Bookmarks: 6809,12331,24478,36257,42147,48036,59815,65337,81533,92576,103067
DistanceSpacing: 1.7
BeatDivisor: 4
GridSize: 16
TimelineZoom: 2.2

[Metadata]
Title:Fly far bounce
TitleUnicode:Fly far bounce
Artist:Nekomata Master
ArtistUnicode:猫叉Master
Creator:Cubby
Version:10nya's Standard
Source:ノスタルジア
Tags:DanceDanceRevolution A DDR jubeat clan MÚSECA 1+1/2 MUSECA pop'n music うさぎと猫と少年の夢 SOUND VOLTEX IV HEAVENLY HAVEN SDVX 4 seonah nostalgia BEMANI PIANO COLLECTION Naoyuki Satou 佐藤直之 milr_ 10nya cubby video game [ White Music ] [_White_Music_] Cubbby -_Frontier_- Frontier video game instrumental electronic
BeatmapID:2267054
BeatmapSetID:1083766

[Difficulty]
HPDrainRate:3
CircleSize:3.2
OverallDifficulty:4.3
ApproachRate:5
SliderMultiplier:1.26
SliderTickRate:1

[Events]
//Background and Video events
0,0,"Pixiv.Fantasia.full.1946038.jpg",0,0
//Break Periods
2,59629,64119
//Storyboard Layer 0 (Background)
//Storyboard Layer 1 (Fail)
//Storyboard Layer 2 (Pass)
//Storyboard Layer 3 (Foreground)
//Storyboard Layer 4 (Overlay)
//Storyboard Sound Samples

[TimingPoints]
166,368.098159509202,4,2,1,40,1,0
534,368.098159509202,4,2,1,40,1,0
534,-100,4,2,1,40,0,0
1086,-100,4,2,1,40,0,0
1638,-100,4,2,1,40,0,0
1822,-100,4,2,1,40,0,0
2190,-100,4,2,1,40,0,0
2374,-100,4,2,1,40,0,0
4030,-100,4,2,1,40,0,0
4951,-100,4,2,1,40,0,0
5135,-100,4,2,1,40,0,0
6791,-100,4,2,1,40,0,0
6975,-100,4,2,1,40,0,0
7343,-100,4,2,1,40,0,0
7527,-100,4,2,1,40,0,0
8079,-100,4,2,1,40,0,0
8448,-100,4,2,1,40,0,0
9368,-100,4,2,1,40,0,0
11576,-100,4,2,1,40,0,0
11945,-100,4,2,1,40,0,0
12313,-100,4,2,1,60,0,0
12497,-100,4,2,1,60,0,0
12681,-100,4,2,1,60,0,0
16362,-100,4,2,1,60,0,0
16914,-100,4,2,1,40,0,0
17098,-100,4,2,1,40,0,0
17466,-100,4,2,1,60,0,0
18202,-100,4,2,1,60,0,0
21331,-100,4,2,1,60,0,0
21699,-100,4,2,1,60,0,0
21883,-100,4,2,1,60,0,0
22251,-100,4,2,1,60,0,0
22619,-100,4,2,1,60,0,0
23355,-100,4,2,1,60,0,0
24092,-100,4,2,1,70,0,0
35871,-100,4,2,1,60,0,0
36607,-100,4,2,1,60,0,0
41760,-100,4,2,1,60,0,0
47650,-100,4,2,1,70,0,0
71208,-100,4,2,1,80,0,0
81147,-100,4,2,1,80,0,0
81331,-100,4,2,1,80,0,0
91822,387.096774193548,4,2,1,80,1,0
92209,422.535211267606,4,2,1,80,1,0
92466,-100,4,2,1,80,0,0
92631,444.444444444444,4,2,1,80,1,0
92853,512.820512820513,4,2,1,80,1,0
93109,811.90798376184,4,2,1,80,1,0
93110,-100,4,2,1,80,0,0
93294,-100,4,2,1,80,0,0

[Colours]
Combo1 : 225,225,225
Combo2 : 0,255,0
Combo3 : 255,255,128
Combo4 : 0,255,128

[HitObjects]
448,124,166,6,0,P|452:167|457:208,2,63,0|0|4,0:0|0:0|0:0,0:0:0:0:
280,35,1086,6,0,P|282:114|292:225,1,189,2|0,0:0|0:0,0:0:0:0:
317,281,1822,2,0,P|254:270|175:300,1,126,2|0,0:0|0:0,0:0:0:0:
139,316,2374,1,2,0:0:0:0:
139,316,2558,2,0,P|138:234|138:111,1,189,2|2,0:0|0:0,0:0:0:0:
244,59,3478,5,6,0:0:0:0:
352,215,4030,1,2,0:0:0:0:
259,300,4399,1,2,0:0:0:0:
259,300,4583,2,0,B|174:298|217:334|78:327,1,126,2|0,0:0|0:0,0:0:0:0:
74,327,5135,5,0,0:0:0:0:
74,327,5319,2,0,P|27:326|-2:317,1,63,0|0,0:0|0:0,0:0:0:0:
27,133,6055,1,2,0:0:0:0:
141,80,6423,6,0,P|158:156|138:214,1,126,6|0,0:0|0:0,0:0:0:0:
115,256,6975,2,0,P|184:249|244:276,1,126,2|0,0:0|0:0,0:0:0:0:
294,291,7527,5,2,0:0:0:0:
294,291,7711,2,0,P|367:291|433:296,1,126,2|0,0:0|0:0,0:0:0:0:
482,301,8264,1,0,0:0:0:0:
482,301,8448,1,2,0:0:0:0:
390,135,9000,1,2,0:0:0:0:
278,76,9368,6,0,P|216:73|196:75,2,63,6|2|2,0:0|0:0|0:0,0:0:0:0:
338,57,9920,2,0,B|320:98|320:98|332:221,1,126,2|2,0:0|0:0,0:0:0:0:
333,241,10472,1,2,0:0:0:0:
9,44,11576,5,0,0:0:0:0:
33,167,11945,1,0,1:0:0:0:
140,100,12313,6,0,P|206:95|231:104,1,63,6|0,0:2|0:0,0:0:0:0:
260,118,12681,1,10,0:0:0:0:
260,118,12865,2,0,B|247:182|247:182|273:270,1,126,2|0,0:0|0:0,0:0:0:0:
282,300,13417,5,10,0:0:0:0:
282,300,13601,1,2,0:0:0:0:
468,327,14153,1,10,0:0:0:0:
468,327,14337,2,0,B|477:257|477:257|475:181,1,126,2|0,0:0|0:0,0:0:0:0:
457,141,14889,2,0,L|453:69,1,63,10|2,0:0|0:1,0:0:0:0:
460,15,15257,6,0,P|398:56|327:40,1,126,2|10,0:0|0:0,0:0:0:0:
289,31,15810,2,0,P|304:104|280:167,1,126,2|10,0:0|0:0,0:0:0:0:
262,208,16362,1,2,0:0:0:0:
33,314,17098,5,0,0:0:0:0:
116,219,17466,2,0,L|181:217,1,63,2|2,0:0|0:0,0:0:0:0:
241,223,17834,2,0,L|306:225,1,63,2|2,0:0|0:0,0:0:0:0:
366,231,18202,5,6,0:2:0:0:
404,111,18570,1,10,0:0:0:0:
404,111,18754,2,0,P|338:98|280:131,1,126,2|0,0:0|0:0,0:0:0:0:
239,164,19307,1,10,0:0:0:0:
239,164,19491,2,0,L|93:154,1,126,2|0,0:0|0:0,0:0:0:0:
50,152,20043,5,10,0:0:0:0:
50,152,20227,2,0,B|57:221|57:221|32:278,1,126,2|0,0:0|0:0,0:0:0:0:
3,328,20779,1,8,0:0:0:0:
125,356,21147,5,2,0:0:0:0:
125,356,21331,1,2,0:0:0:0:
209,262,21699,1,2,0:0:0:0:
209,262,21883,1,2,0:0:0:0:
287,360,22251,1,2,0:0:0:0:
302,235,22619,6,0,P|302:154|303:109,2,126,0|0|2,0:0|0:0|0:1,0:0:0:0:
383,331,23724,1,2,0:1:0:0:
302,235,24092,6,0,P|219:210|107:295,1,189,4|8,1:2|0:0,0:0:0:0:
81,291,24828,2,0,B|107:222|107:222|85:90,1,189,2|8,1:0|0:0,0:0:0:0:
41,66,25564,2,0,B|170:65|100:109|251:91,1,189,2|8,1:0|0:0,0:0:0:0:
288,90,26300,5,2,1:0:0:0:
385,169,26668,1,2,1:0:0:0:
288,90,27037,6,0,P|260:167|283:244,1,126,2|2,1:0|1:0,0:0:0:0:
224,327,27773,2,0,P|307:332|353:288,1,126,2|2,1:0|1:0,0:0:0:0:
374,256,28325,1,8,0:0:0:0:
374,256,28509,6,0,P|368:161|364:105,1,126,2|2,1:0|1:0,0:0:0:0:
267,51,29245,1,2,1:0:0:0:
267,51,29429,1,2,1:0:0:0:
267,51,29613,6,0,B|209:35|209:35|110:65,1,126,2|4,1:0|1:2,0:0:0:0:
206,164,30349,1,0,1:0:0:0:
313,231,30718,2,0,B|331:169|331:169|316:93,1,126,2|0,1:0|1:0,0:0:0:0:
206,164,31454,6,0,L|81:155,1,126,2|2,1:0|1:0,0:0:0:0:
69,280,32190,2,0,L|194:289,1,126,2|2,1:0|1:0,0:0:0:0:
320,293,32926,6,0,P|293:219|310:166,1,126,2|2,1:0|1:0,0:0:0:0:
332,119,33478,1,8,0:0:0:0:
332,119,33662,2,0,P|404:118|417:123,2,63,2|8|2,1:0|0:0|1:0,0:0:0:0:
205,110,34399,6,0,P|204:38|209:25,2,63,2|8|2,1:0|0:0|1:0,0:0:0:0:
188,237,35135,1,2,1:0:0:0:
101,328,35503,1,0,1:0:0:0:
220,367,35871,6,0,B|232:346|279:341|302:369|302:369|377:308|485:356,1,252,4|2,1:2|0:0,0:0:0:0:
468,92,37343,2,0,P|380:130|414:27,1,252,2|2,0:0|0:0,0:0:0:0:
155,48,38816,6,0,P|152:139|196:220,2,126,2|2|2,0:0|0:0|0:0,0:0:0:0:
257,278,40288,2,0,B|297:278|336:308|336:308|365:256|365:256|424:325|497:281,1,252,2|2,0:0|0:0,0:0:0:0:
457,170,41392,1,2,0:0:0:0:
408,53,41760,6,0,P|322:54|256:78,2,126,4|10|10,1:2|0:0|0:0,0:0:0:0:
185,172,43233,2,0,P|271:173|337:197,2,126,10|10|10,0:0|0:0|0:0,0:0:0:0:
418,265,44705,6,0,P|343:284|283:326,1,126,10|10,0:0|0:0,0:0:0:0:
181,345,45441,2,0,P|80:333|35:320,1,126,10|10,0:0|0:0,0:0:0:0:
69,201,46178,6,0,P|170:213|215:226,1,126,10|10,0:0|0:0,0:0:0:0:
316,243,46914,1,10,0:0:0:0:
316,243,47098,1,0,1:0:0:0:
316,243,47282,2,0,P|378:234|438:217,1,126,10|4,0:0|1:2,0:0:0:0:
458,93,48018,5,2,1:0:0:0:
343,40,48386,2,0,P|299:32|267:32,2,63,2|8|2,1:0|0:0|1:0,0:0:0:0:
290,154,49122,5,0,1:2:0:0:
290,154,49307,2,0,P|285:221|286:295,1,126,8|8,0:0|0:0,0:0:0:0:
286,342,49859,2,0,P|335:338|364:349,1,63,2|8,1:0|0:0,0:0:0:0:
409,353,50227,2,0,P|458:357|487:346,1,63,2|8,1:0|0:0,0:0:0:0:
510,304,50595,6,0,B|489:240|489:240|504:142,1,126,2|2,1:0|1:0,0:0:0:0:
423,80,51331,2,0,L|411:8,2,63,2|8|2,1:0|0:0|1:0,0:0:0:0:
384,199,52067,6,0,P|301:188|251:217,1,126,2|0,1:0|1:0,0:0:0:0:
158,272,52803,2,0,P|75:283|25:254,1,126,2|2,1:0|1:0,0:0:0:0:
102,157,53540,6,0,L|97:74,2,63,4|8|2,1:2|0:0|1:0,0:0:0:0:
227,170,54276,2,0,L|222:87,2,63,2|8|2,1:0|0:0|1:0,0:0:0:0:
349,198,55012,5,2,1:0:0:0:
349,198,55196,2,0,L|338:37,1,126,8|8,0:0|0:0,0:0:0:0:
378,22,55748,2,0,P|449:33|461:43,1,63,2|8,1:0|0:0,0:0:0:0:
502,31,56116,2,0,L|502:111,1,63,2|8,1:0|0:0,0:0:0:0:
475,151,56484,6,0,P|478:229|489:319,1,126,2|2,1:0|1:0,0:0:0:0:
377,346,57221,2,0,P|314:349|296:353,1,63,2|8,1:0|0:0,0:0:0:0:
251,354,57589,2,0,P|219:358|188:357,1,63,2|8,1:0|0:0,0:0:0:0:
125,353,57957,6,0,B|144:285|144:285|122:214,1,126,2|2,1:0|1:0,0:0:0:0:
27,155,58693,2,0,P|108:104|169:137,1,126,2|2,1:0|1:0,0:0:0:0:
248,155,59429,5,4,1:2:0:0:
172,68,65319,6,0,P|186:125|166:222,1,126,6|0,1:2|0:0,0:0:0:0:
162,252,65871,1,0,1:0:0:0:
162,252,66055,2,0,B|227:234|227:234|319:266,1,126,8|0,0:0|1:0,0:0:0:0:
361,155,66791,6,0,B|296:173|296:173|204:141,1,126,2|0,1:2|0:0,0:0:0:0:
183,127,67343,1,0,1:0:0:0:
183,127,67527,2,0,L|39:136,1,126,8|0,0:0|1:0,0:0:0:0:
46,260,68264,6,0,L|171:252,1,126,2|0,1:2|0:0,0:0:0:0:
234,249,68816,1,0,1:0:0:0:
234,249,69000,2,0,L|359:241,1,126,8|0,0:0|1:0,0:0:0:0:
461,166,69736,6,0,P|488:234|458:320,1,126,0|8,1:0|0:0,0:0:0:0:
481,347,70288,2,0,P|415:322|354:358,1,126,0|8,1:0|0:0,0:0:0:0:
178,342,71208,6,0,P|120:321|64:346,1,126,4|2,1:2|1:0,0:0:0:0:
3,364,71760,2,0,B|29:299|29:299|-1:221,1,126,8|8,0:0|0:0,0:0:0:0:
16,183,72313,1,2,1:0:0:0:
16,183,72497,1,8,0:0:0:0:
159,60,73049,5,2,1:0:0:0:
159,60,73233,2,0,P|248:47|314:99,1,126,8|8,0:0|0:0,0:0:0:0:
332,93,73785,1,2,1:0:0:0:
453,126,74153,6,0,P|457:81|448:49,2,63,2|8|2,1:0|0:0|1:0,0:0:0:0:
415,176,74705,2,0,B|402:247|402:247|433:339,1,126,8|8,0:0|0:0,0:0:0:0:
445,355,75257,2,0,P|365:332|208:360,1,189,2|8,1:0|0:0,0:0:0:0:
86,265,76362,5,0,1:0:0:0:
30,151,76730,1,0,1:0:0:0:
155,158,77098,6,0,L|236:161,1,63,4|8,1:2|0:0,0:0:0:0:
277,139,77466,1,2,1:0:0:0:
277,139,77650,2,0,P|255:204|282:277,1,126,8|8,0:0|0:0,0:0:0:0:
301,311,78202,1,2,1:0:0:0:
301,311,78386,2,0,P|388:303|447:309,1,126,8|8,0:0|0:0,0:0:0:0:
488,312,78938,5,2,1:0:0:0:
488,312,79122,1,8,0:0:0:0:
414,137,79675,1,2,1:0:0:0:
304,74,80043,6,0,L|227:67,2,63,2|8|2,1:0|0:0|1:0,0:0:0:0:
362,51,80595,2,0,P|361:121|365:200,1,126,8|8,0:0|0:0,0:0:0:0:
364,239,81147,1,0,0:0:0:0:
256,192,81331,12,4,82987,1:2:0:0:
62,344,83724,6,0,B|48:273|48:273|73:184,1,126,2|2,1:0|1:0,0:0:0:0:
26,100,84460,2,0,B|98:98|98:98|181:138,1,126,2|2,1:0|1:0,0:0:0:0:
270,143,85196,2,0,B|247:191|247:191|191:237,1,126,2|2,1:0|1:0,0:0:0:0:
116,338,85932,6,0,P|222:323|302:349,2,189,2|8|2,1:0|0:0|1:0,0:0:0:0:
361,50,88141,2,0,B|367:86|367:86|362:135,1,63,2|10,1:2|0:2,0:0:0:0:
332,166,88509,2,0,B|326:202|326:202|331:251,1,63,2|10,1:2|0:2,0:0:0:0:
353,286,88877,6,0,P|261:265|223:289,1,126,4|2,1:2|1:0,0:0:0:0:
178,300,89429,2,0,B|204:242|204:242|184:136,1,126,8|8,0:2|0:2,0:0:0:0:
117,79,90165,6,0,P|215:55|306:112,1,189,8|2,0:2|1:0,0:0:0:0:
330,141,90902,2,0,P|403:160|465:135,1,126,8|8,0:2|0:2,0:0:0:0:
407,264,91638,1,8,0:2:0:0:
407,264,91822,6,0,P|362:265|330:269,1,63,2|8,1:0|0:2,0:0:0:0:
287,294,92209,2,0,B|296:235|296:235|287:158,1,126,2|2,1:0|1:0,0:0:0:0:
210,118,92853,6,0,L|134:111,1,63
256,192,93311,12,0,101025,0:0:0:0:
