osu file format v14

[General]
AudioFilename: audio.mp3
AudioLeadIn: 1000
PreviewTime: 72669
Countdown: 0
SampleSet: Soft
StackLeniency: 0.7
Mode: 0
LetterboxInBreaks: 0
WidescreenStoryboard: 0

[Editor]
DistanceSpacing: 0.9
BeatDivisor: 4
GridSize: 4
TimelineZoom: 1.380002

[Metadata]
Title:Fly far bounce
TitleUnicode:Fly far bounce
Artist:Nekomata Master
ArtistUnicode:猫叉Master
Creator:Crimmi
Version:Normal
Source:ノスタルジア
Tags:NOSTALGIA Naoyuki Sato DanceDanceRevolution A Dance Dance Revolution DDR MÚSECA 1+1/2 MUSECA pop'n music うさぎと猫と少年の夢 Usagi to neko to shounen no yume SOUND VOLTEX IV HEAVENLY HAVEN SDVXIV SDVX Konami BEMANI
BeatmapID:1303450
BeatmapSetID:618329

[Difficulty]
HPDrainRate:4
CircleSize:3
OverallDifficulty:4
ApproachRate:4
SliderMultiplier:1.1
SliderTickRate:2

[Events]
//Background and Video events
0,0,"anime-background-wallpaper-15.jpg",0,0
//Break Periods
2,37917,42287
2,61475,65477
//Storyboard Layer 0 (Background)
//Storyboard Layer 1 (Fail)
//Storyboard Layer 2 (Pass)
//Storyboard Layer 3 (Foreground)
//Storyboard Layer 4 (Overlay)
//Storyboard Sound Samples

[TimingPoints]
2380,368.098159509202,4,2,1,50,1,0
24833,-100,4,2,1,20,0,0
25202,-100,4,2,1,40,0,0
25570,-100,4,2,1,60,0,0
25938,-100,4,2,1,80,0,0
26306,-100,4,2,1,50,0,0
48392,-100,4,2,1,20,0,0
48760,-100,4,2,1,40,0,0
49128,-100,4,2,1,60,0,0
49496,-100,4,2,1,80,0,0
49864,-100,4,2,1,50,0,0
85202,-100,4,2,1,50,0,1
93300,372.670807453416,4,2,1,50,1,1
93300,-99.009900990099,4,2,1,50,0,1
93672,382.165605095541,4,2,1,50,1,1
93672,-97.0873786407767,4,2,1,50,0,1
94054,410.958904109589,4,2,1,50,1,1
94054,-93.4579439252336,4,2,1,50,0,1
94447,487.80487804878,4,2,1,50,1,1
94447,-86.9565217391304,4,2,1,50,0,1
94934,659.340659340659,4,2,1,50,1,0
94934,-65.7894736842105,4,2,1,50,0,0
95593,368.098159509202,4,2,1,50,1,0

[Colours]
Combo1 : 0,206,206
Combo2 : 255,128,0
Combo3 : 255,128,128
Combo4 : 128,0,255

[HitObjects]
40,56,2380,5,0,0:0:0:0:
184,100,2932,1,2,0:0:0:0:
32,224,3668,2,0,P|104:256|188:212,1,165
216,188,4404,2,0,P|288:156|372:200,1,165,2|0,0:0|0:0,0:0:0:0:
424,268,5324,6,0,P|456:208|424:112,2,165,0|2|0,0:0|0:0|0:0,0:0:0:0:
276,344,6981,1,2,0:0:0:0:
276,288,7165,1,0,0:0:0:0:
276,232,7349,1,2,0:0:0:0:
124,168,7901,1,0,0:0:0:0:
180,228,8269,6,0,P|92:244|44:188,2,165,0|2|0,0:0|0:0|0:0,0:0:0:0:
204,180,9558,2,0,P|236:148|356:176,1,165
388,196,10294,1,2,0:0:0:0:
340,324,10846,1,0,0:0:0:0:
340,324,11214,6,0,B|288:320|288:320|228:340|228:340|160:328,1,165,0|2,0:0|0:0,0:0:0:0:
72,336,12134,1,0,0:0:0:0:
72,336,12318,2,0,B|80:272|80:272|60:196|60:196|76:108,1,220,2|2,0:0|0:0,0:0:0:0:
48,12,13423,1,0,0:0:0:0:
152,48,13791,1,2,0:0:0:0:
248,20,14159,6,0,P|308:8|360:24,1,110,4|2,0:0|0:0,0:0:0:0:
372,72,14711,2,0,P|380:136|300:200,1,165
256,200,15447,1,2,0:0:0:0:
120,108,15999,1,0,0:0:0:0:
80,144,16183,2,0,P|44:212|72:304,1,165,2|2,0:0|0:0,0:0:0:0:
180,292,17104,6,0,P|232:276|356:300,1,165,0|2,0:0|0:0,0:0:0:0:
452,348,18024,1,0,0:0:0:0:
452,348,18208,2,0,B|472:236|472:236|448:108,1,220,0|2,0:0|0:0,0:0:0:0:
424,24,19312,1,0,0:0:0:0:
372,8,19496,1,0,0:0:0:0:
320,20,19680,1,2,0:0:0:0:
212,48,20048,6,0,P|204:108|224:168,1,110,0|2,0:0|0:0,0:0:0:0:
272,160,20600,2,0,P|296:204|260:316,1,165
224,344,21337,1,2,0:0:0:0:
208,180,21889,1,0,0:0:0:0:
208,124,22073,2,0,P|156:64|88:116,1,165,2|0,0:0|0:0,0:0:0:0:
44,200,22993,6,0,P|8:268|56:360,2,165,0|2|0,0:0|0:0|0:0,0:0:0:0:
92,100,24465,5,4,0:0:0:0:
148,192,24834,1,4,0:0:0:0:
208,100,25202,1,4,0:0:0:0:
272,188,25570,1,4,0:0:0:0:
360,124,25938,6,0,P|384:180|376:236,1,110,0|8,0:0|0:0,0:0:0:0:
300,304,26674,2,0,P|224:296|184:304,1,110,0|8,0:0|0:0,0:0:0:0:
136,296,27226,1,0,0:0:0:0:
84,280,27410,2,0,L|56:164,1,110,0|8,0:0|0:0,0:0:0:0:
164,148,28146,2,0,L|196:264,1,110,0|8,0:0|0:0,0:0:0:0:
252,344,28883,5,0,0:0:0:0:
324,272,29251,1,8,0:0:0:0:
229,245,29619,1,0,0:0:0:0:
156,312,29987,1,8,0:0:0:0:
156,312,30171,1,0,0:0:0:0:
156,312,30355,2,0,P|128:256|148:192,1,110,0|2,0:0|0:0,0:0:0:0:
228,152,31091,2,0,L|168:120,2,55,8|8|0,0:0|0:0|0:0,0:0:0:0:
320,96,31827,6,0,P|336:156|324:204,1,110,4|8,0:0|0:0,0:0:0:0:
316,256,32380,1,0,0:0:0:0:
304,304,32564,2,0,L|180:300,1,110,2|8,0:0|0:0,0:0:0:0:
100,356,33300,2,0,P|84:304|100:244,1,110,0|8,0:0|0:0,0:0:0:0:
156,160,34036,1,0,0:0:0:0:
264,176,34404,1,8,0:0:0:0:
272,68,34772,6,0,P|328:88|360:140,1,110,0|8,0:0|0:0,0:0:0:0:
360,184,35324,1,0,0:0:0:0:
360,240,35508,2,0,L|252:280,1,110,2|8,0:0|0:0,0:0:0:0:
180,196,36245,2,0,L|68:240,1,110,0|8,0:0|0:0,0:0:0:0:
8,292,36981,2,0,P|-8:216|8:176,1,110,2|8,0:0|0:0,0:0:0:0:
60,108,37717,1,4,0:0:0:0:
40,336,43607,6,0,B|96:348|96:348|160:336,1,110,0|2,0:0|0:0,0:0:0:0:
196,324,44159,1,0,0:0:0:0:
244,336,44343,2,0,B|300:328|300:328|364:340,1,110,0|2,0:0|0:0,0:0:0:0:
452,352,45079,2,0,P|464:288|448:236,1,110,0|2,0:0|0:0,0:0:0:0:
424,204,45631,1,0,0:0:0:0:
396,164,45815,2,0,P|384:104|400:52,1,110,0|2,0:0|0:0,0:0:0:0:
480,116,46551,5,0,0:0:0:0:
500,212,46919,1,2,0:0:0:0:
500,308,47288,2,0,P|424:296|384:304,1,110,0|2,0:0|0:0,0:0:0:0:
344,300,47840,1,0,0:0:0:0:
292,308,48024,2,0,L|176:316,1,110,0|2,0:0|0:0,0:0:0:0:
80,360,48760,2,0,P|72:304|100:248,1,110,0|2,0:0|0:0,0:0:0:0:
144,164,49496,6,0,P|156:96|124:48,1,110,4|8,0:0|0:0,0:0:0:0:
56,116,50232,2,0,P|44:184|76:232,1,110,2|8,0:0|0:0,0:0:0:0:
144,272,50969,2,0,B|200:268|200:268|264:272,1,110,0|8,0:0|0:0,0:0:0:0:
340,320,51705,2,0,P|352:260|328:208,1,110,2|8,0:0|0:0,0:0:0:0:
300,180,52257,1,0,0:0:0:0:
264,148,52441,6,0,P|312:92|352:80,1,110,0|8,0:0|0:0,0:0:0:0:
440,136,53177,1,0,0:0:0:0:
428,248,53545,1,8,0:0:0:0:
428,248,53913,2,0,B|396:260|396:260|360:320|288:292|288:292|232:320,1,220,0|2,0:0|0:0,0:0:0:0:
140,356,55018,1,8,0:0:0:0:
152,256,55386,6,0,B|160:200|160:200|144:136,1,110,4|8,0:0|0:0,0:0:0:0:
68,92,56122,2,0,B|60:148|60:148|76:212,1,110,2|8,0:0|0:0,0:0:0:0:
76,256,56674,1,0,0:0:0:0:
84,312,56858,2,0,P|152:324|200:312,1,110,0|8,0:0|0:0,0:0:0:0:
292,280,57594,2,0,P|352:272|416:284,1,110,2|8,0:0|0:0,0:0:0:0:
492,324,58331,6,0,P|496:256|472:216,1,110,0|8,0:0|0:0,0:0:0:0:
440,188,58883,1,0,0:0:0:0:
400,160,59067,2,0,L|272:176,1,110,0|8,0:0|0:0,0:0:0:0:
204,124,59803,2,0,P|200:192|216:236,1,110,0|8,0:0|0:0,0:0:0:0:
292,288,60539,2,0,P|224:328|188:320,1,110,0|2,0:0|0:0,0:0:0:0:
144,308,61091,1,0,0:0:0:0:
92,288,61275,1,4,0:0:0:0:
464,332,66797,5,2,0:0:0:0:
416,320,66981,1,0,0:0:0:0:
368,332,67165,2,0,P|256:368|160:324,1,220,4|8,0:0|0:0,0:0:0:0:
32,224,68453,1,0,0:0:0:0:
32,224,68637,2,0,P|64:176|216:192,1,220,2|8,0:0|0:0,0:0:0:0:
268,340,69926,1,0,0:0:0:0:
268,340,70110,6,0,P|320:276|328:132,1,220,2|8,0:0|0:0,0:0:0:0:
248,72,71214,1,2,0:0:0:0:
164,140,71582,2,0,P|156:220|188:324,2,165,0|2|0,0:0|0:0|0:0,0:0:0:0:
248,68,73054,6,0,L|368:68,1,110,4|8,0:0|0:0,0:0:0:0:
416,68,73607,2,0,P|444:132|416:232,1,165,0|8,0:0|0:0,0:0:0:0:
388,264,74343,1,2,0:0:0:0:
296,324,74711,1,0,0:0:0:0:
252,360,74895,1,8,0:0:0:0:
208,328,75079,2,0,L|232:140,1,165,0|8,0:0|0:0,0:0:0:0:
296,76,75999,6,0,P|224:52|136:112,2,165,0|2|0,0:0|0:0|0:0,0:0:0:0:
228,164,77472,1,2,0:0:0:0:
152,244,77840,1,8,0:0:0:0:
196,276,78024,1,0,0:0:0:0:
240,308,78208,2,0,L|368:320,1,110,2|8,0:0|0:0,0:0:0:0:
460,336,78944,6,0,P|456:280|420:224,1,110,4|8,0:0|0:0,0:0:0:0:
392,192,79496,2,0,P|360:148|280:212,1,165,0|8,0:0|0:0,0:0:0:0:
276,248,80232,2,0,P|256:288|144:272,1,165,0|8,0:0|0:0,0:0:0:0:
112,244,80969,1,0,0:0:0:0:
268,196,81521,1,8,0:0:0:0:
324,188,81705,1,0,0:0:0:0:
376,176,81889,6,0,B|360:124|360:124|364:68|364:68|348:4,2,165,0|2|4,0:0|0:0|0:0,0:0:0:0:
268,196,83361,2,0,L|140:208,1,110,8|2,0:0|0:0,0:0:0:0:
80,268,84097,2,0,P|60:224|80:148,1,110,8|0,0:0|0:0,0:0:0:0:
152,92,84834,6,0,L|264:80,1,110,4|8,0:0|0:0,0:0:0:0:
316,76,85386,2,0,P|352:164|320:244,1,165,0|8,0:0|0:0,0:0:0:0:
244,164,86306,1,2,0:0:0:0:
236,272,86674,1,8,0:0:0:0:
160,352,87042,1,2,0:0:0:0:
84,284,87410,1,8,0:0:0:0:
84,284,87778,6,0,B|96:224|96:224|80:168|80:168|88:112,1,165,0|2,0:0|0:0,0:0:0:0:
20,40,88699,1,0,0:0:0:0:
20,40,88883,2,0,P|80:16|192:120,1,220,4|8,0:0|0:0,0:0:0:0:
176,216,89987,2,0,P|216:208|244:212,1,55,8|2,0:0|0:0,0:0:0:0:
280,212,90355,2,0,P|316:216|344:212,1,55,8|2,0:0|0:0,0:0:0:0:
384,212,90723,5,4,0:0:0:0:
408,116,91091,1,8,0:0:0:0:
408,116,91275,2,0,L|296:112,1,110,0|2,0:0|0:0,0:0:0:0:
216,56,92011,2,0,P|200:112|228:176,1,110,2|0,0:0|0:0,0:0:0:0:
284,240,92748,2,0,P|224:264|128:220,1,165,2|8,0:0|0:0,0:0:0:0:
40,168,93672,6,0,P|92:124|156:120,1,113.299999049149,0|2,0:0|0:0,0:0:0:0:
236,120,94464,2,0,P|292:148|380:128,1,126.500002412796,0|12,0:0|0:0,0:0:0:0:
256,192,95098,12,2,97571,0:0:0:0:
256,192,98169,12,2,102954,0:0:0:0:
256,192,104887,5,2,0:0:0:0:
