osu file format v14

[General]
AudioFilename: audio.mp3
AudioLeadIn: 1000
PreviewTime: 72669
Countdown: 0
SampleSet: Normal
StackLeniency: 0.6
Mode: 1
LetterboxInBreaks: 0
WidescreenStoryboard: 0

[Editor]
DistanceSpacing: 1
BeatDivisor: 4
GridSize: 4
TimelineZoom: 5.38

[Metadata]
Title:Fly far bounce
TitleUnicode:Fly far bounce
Artist:Nekomata Master
ArtistUnicode:猫叉Master
Creator:Crimmi
Version:Muzukashii
Source:ノスタルジア
Tags:NOSTALGIA Naoyuki Sato DanceDanceRevolution A Dance Dance Revolution DDR MÚSECA 1+1/2 MUSECA pop'n music うさぎと猫と少年の夢 Usagi to neko to shounen no yume SOUND VOLTEX IV HEAVENLY HAVEN SDVXIV SDVX Konami BEMANI
BeatmapID:2495572
BeatmapSetID:618329

[Difficulty]
HPDrainRate:6
CircleSize:5
OverallDifficulty:5
ApproachRate:5
SliderMultiplier:1.4
SliderTickRate:2

[Events]
//Background and Video events
0,0,"anime-background-wallpaper-15.jpg",0,0
//Break Periods
//Storyboard Layer 0 (Background)
//Storyboard Layer 1 (Fail)
//Storyboard Layer 2 (Pass)
//Storyboard Layer 3 (Foreground)
//Storyboard Layer 4 (Overlay)
//Storyboard Sound Samples

[TimingPoints]
2380,368.098159509202,4,2,1,50,1,0
24833,-100,4,2,1,20,0,0
25202,-100,4,2,1,40,0,0
25570,-100,4,2,1,60,0,0
25938,-100,4,2,1,80,0,0
26306,-100,4,2,1,50,0,0
48392,-100,4,2,1,20,0,0
48760,-100,4,2,1,40,0,0
49128,-100,4,2,1,60,0,0
49496,-100,4,2,1,80,0,0
49864,-100,4,2,1,50,0,0
85202,-100,4,2,1,50,0,1
93300,372.670807453416,4,2,1,50,1,1
93300,-99.009900990099,4,2,1,50,0,1
93672,382.165605095541,4,2,1,50,1,1
93672,-97.0873786407767,4,2,1,50,0,1
94054,410.958904109589,4,2,1,50,1,1
94054,-93.4579439252336,4,2,1,50,0,1
94447,487.80487804878,4,2,1,50,1,1
94447,-86.9565217391304,4,2,1,50,0,1
94934,659.340659340659,4,2,1,50,1,0
94934,-65.7894736842105,4,2,1,50,0,0
95593,368.098159509202,4,2,1,50,1,0

[Colours]
Combo1 : 198,255,255
Combo2 : 255,128,0
Combo3 : 192,192,192
Combo4 : 255,255,255

[HitObjects]
256,192,2011,5,0,0:0:0:0:
256,192,2380,1,0,0:0:0:0:
256,192,2932,1,2,0:0:0:0:
256,192,3484,1,0,0:0:0:0:
256,192,3668,1,0,0:0:0:0:
256,192,4220,1,0,0:0:0:0:
256,192,4404,1,2,0:0:0:0:
256,192,4956,1,0,0:0:0:0:
256,192,5048,1,0,0:0:0:0:
256,192,5140,1,0,0:0:0:0:
256,192,5324,1,2,0:0:0:0:
256,192,5692,1,0,0:0:0:0:
256,192,5877,1,2,0:0:0:0:
256,192,6245,1,2,0:0:0:0:
256,192,6429,1,0,0:0:0:0:
256,192,6981,1,0,0:0:0:0:
256,192,7165,1,0,0:0:0:0:
256,192,7349,1,2,0:0:0:0:
256,192,7901,1,0,0:0:0:0:
256,192,7993,1,0,0:0:0:0:
256,192,8085,1,0,0:0:0:0:
256,192,8269,1,2,0:0:0:0:
256,192,8637,1,0,0:0:0:0:
256,192,8821,1,0,0:0:0:0:
256,192,9373,1,0,0:0:0:0:
256,192,9558,1,2,0:0:0:0:
256,192,10110,1,0,0:0:0:0:
256,192,10294,1,2,0:0:0:0:
256,192,10846,1,0,0:0:0:0:
256,192,10938,1,0,0:0:0:0:
256,192,11030,1,0,0:0:0:0:
256,192,11214,1,2,0:0:0:0:
256,192,11582,1,0,0:0:0:0:
256,192,11766,1,2,0:0:0:0:
256,192,12134,1,2,0:0:0:0:
256,192,12318,1,0,0:0:0:0:
256,192,13423,1,0,0:0:0:0:
256,192,13791,1,2,0:0:0:0:
256,192,14159,1,6,0:0:0:0:
256,192,14527,1,2,0:0:0:0:
256,192,14711,1,0,0:0:0:0:
256,192,15079,1,0,0:0:0:0:
256,192,15263,1,0,0:0:0:0:
256,192,15447,1,2,0:0:0:0:
256,192,15815,1,2,0:0:0:0:
256,192,15999,1,0,0:0:0:0:
256,192,16183,1,0,0:0:0:0:
256,192,16735,1,0,0:0:0:0:
256,192,16827,1,0,0:0:0:0:
256,192,16919,1,0,0:0:0:0:
256,192,17104,1,2,0:0:0:0:
256,192,17472,1,0,0:0:0:0:
256,192,17656,1,2,0:0:0:0:
256,192,18024,1,2,0:0:0:0:
256,192,18208,1,0,0:0:0:0:
256,192,18576,1,0,0:0:0:0:
256,192,18760,1,0,0:0:0:0:
256,192,18852,1,0,0:0:0:0:
256,192,18944,1,2,0:0:0:0:
256,192,19128,1,0,0:0:0:0:
256,192,19312,1,0,0:0:0:0:
256,192,19680,1,2,0:0:0:0:
256,192,19864,1,0,0:0:0:0:
256,192,20048,1,2,0:0:0:0:
256,192,20416,1,0,0:0:0:0:
256,192,20600,1,2,0:0:0:0:
256,192,20969,1,0,0:0:0:0:
256,192,21153,1,0,0:0:0:0:
256,192,21337,1,2,0:0:0:0:
256,192,21705,1,0,0:0:0:0:
256,192,21889,1,0,0:0:0:0:
256,192,22073,1,2,0:0:0:0:
256,192,22441,1,0,0:0:0:0:
256,192,22625,1,0,0:0:0:0:
256,192,22717,1,0,0:0:0:0:
256,192,22809,1,0,0:0:0:0:
256,192,22993,1,2,0:0:0:0:
256,192,23361,1,0,0:0:0:0:
256,192,23545,1,2,0:0:0:0:
256,192,23913,1,0,0:0:0:0:
256,192,24097,1,6,0:0:0:0:
256,192,24465,1,4,0:0:0:0:
256,192,24834,1,6,0:0:0:0:
256,192,25202,1,4,0:0:0:0:
256,192,25570,1,6,0:0:0:0:
256,192,25938,1,4,0:0:0:0:
256,192,26306,1,8,0:0:0:0:
256,192,26490,1,0,0:0:0:0:
256,192,26858,1,0,0:0:0:0:
256,192,26950,1,0,0:0:0:0:
256,192,27042,1,8,0:0:0:0:
256,192,27410,1,0,0:0:0:0:
256,192,27594,1,0,0:0:0:0:
256,192,27686,1,0,0:0:0:0:
256,192,27778,1,8,0:0:0:0:
256,192,27962,1,0,0:0:0:0:
256,192,28331,1,0,0:0:0:0:
256,192,28515,1,8,0:0:0:0:
256,192,28883,1,0,0:0:0:0:
256,192,29251,1,8,0:0:0:0:
256,192,29619,1,0,0:0:0:0:
256,192,29803,1,0,0:0:0:0:
256,192,29987,1,8,0:0:0:0:
256,192,30171,1,0,0:0:0:0:
256,192,30355,1,2,0:0:0:0:
256,192,30723,1,0,0:0:0:0:
256,192,31091,1,2,0:0:0:0:
256,192,31275,1,0,0:0:0:0:
256,192,31459,1,8,0:0:0:0:
256,192,31827,1,4,0:0:0:0:
256,192,32011,1,0,0:0:0:0:
256,192,32196,1,8,0:0:0:0:
256,192,32564,1,0,0:0:0:0:
256,192,32748,1,0,0:0:0:0:
256,192,32840,1,0,0:0:0:0:
256,192,32932,1,8,0:0:0:0:
256,192,33116,1,0,0:0:0:0:
256,192,33484,1,0,0:0:0:0:
256,192,33668,1,8,0:0:0:0:
256,192,33852,1,2,0:0:0:0:
256,192,34036,1,2,0:0:0:0:
256,192,34404,1,8,0:0:0:0:
256,192,34772,1,0,0:0:0:0:
256,192,35140,1,8,0:0:0:0:
256,192,35508,1,0,0:0:0:0:
256,192,35692,1,0,0:0:0:0:
256,192,35785,1,0,0:0:0:0:
256,192,35877,1,8,0:0:0:0:
256,192,36061,1,0,0:0:0:0:
256,192,36245,1,8,0:0:0:0:
256,192,36613,1,8,0:0:0:0:
256,192,36797,1,0,0:0:0:0:
256,192,36889,1,0,0:0:0:0:
256,192,36981,1,8,0:0:0:0:
256,192,37165,1,0,0:0:0:0:
256,192,37257,1,0,0:0:0:0:
256,192,37349,1,8,0:0:0:0:
256,192,37717,1,0,0:0:0:0:
256,192,37901,1,0,0:0:0:0:
256,192,38085,1,2,0:0:0:0:
256,192,38453,1,2,0:0:0:0:
256,192,38637,1,0,0:0:0:0:
256,192,38821,1,0,0:0:0:0:
256,192,39373,1,0,0:0:0:0:
256,192,39558,1,2,0:0:0:0:
256,192,39742,1,0,0:0:0:0:
256,192,39926,1,2,0:0:0:0:
256,192,40294,1,2,0:0:0:0:
256,192,40478,1,0,0:0:0:0:
256,192,40662,1,2,0:0:0:0:
256,192,41030,1,2,0:0:0:0:
256,192,41214,1,0,0:0:0:0:
256,192,41398,1,2,0:0:0:0:
256,192,41582,1,0,0:0:0:0:
256,192,41766,1,0,0:0:0:0:
256,192,42134,1,2,0:0:0:0:
256,192,42502,1,0,0:0:0:0:
256,192,42686,1,0,0:0:0:0:
256,192,42870,1,2,0:0:0:0:
256,192,43054,1,0,0:0:0:0:
256,192,43238,1,2,0:0:0:0:
256,192,43607,1,12,0:0:0:0:
256,192,43791,1,0,0:0:0:0:
256,192,43975,1,2,0:0:0:0:
256,192,44159,1,0,0:0:0:0:
256,192,44251,1,0,0:0:0:0:
256,192,44343,1,2,0:0:0:0:
256,192,44711,1,2,0:0:0:0:
256,192,45079,1,0,0:0:0:0:
256,192,45263,1,0,0:0:0:0:
256,192,45447,1,2,0:0:0:0:
256,192,45631,1,0,0:0:0:0:
256,192,45815,1,2,0:0:0:0:
256,192,46183,1,2,0:0:0:0:
256,192,46367,1,2,0:0:0:0:
256,192,46551,1,8,0:0:0:0:
256,192,46919,1,8,0:0:0:0:
256,192,47104,1,0,0:0:0:0:
256,192,47196,1,0,0:0:0:0:
256,192,47288,1,8,0:0:0:0:
256,192,47656,1,8,0:0:0:0:
256,192,47840,1,2,0:0:0:0:
256,192,47932,1,2,0:0:0:0:
256,192,48024,1,8,0:0:0:0:
256,192,48392,1,0,0:0:0:0:
256,192,48760,1,8,0:0:0:0:
256,192,49128,1,0,0:0:0:0:
256,192,49496,1,6,0:0:0:0:
256,192,49680,1,0,0:0:0:0:
256,192,49864,1,8,0:0:0:0:
256,192,50048,1,2,0:0:0:0:
256,192,50140,1,0,0:0:0:0:
256,192,50232,1,0,0:0:0:0:
256,192,50416,1,2,0:0:0:0:
256,192,50600,1,8,0:0:0:0:
256,192,51153,1,0,0:0:0:0:
256,192,51337,1,8,0:0:0:0:
256,192,51521,1,0,0:0:0:0:
256,192,51705,1,2,0:0:0:0:
256,192,51889,1,0,0:0:0:0:
256,192,52073,1,8,0:0:0:0:
256,192,52441,1,8,0:0:0:0:
256,192,52809,1,2,0:0:0:0:
256,192,52993,1,0,0:0:0:0:
256,192,53177,1,8,0:0:0:0:
256,192,53361,1,0,0:0:0:0:
256,192,53453,1,0,0:0:0:0:
256,192,53545,1,0,0:0:0:0:
256,192,53913,1,0,0:0:0:0:
256,192,54097,1,2,0:0:0:0:
256,192,54281,1,0,0:0:0:0:
256,192,54465,1,2,0:0:0:0:
256,192,54650,1,10,0:0:0:0:
256,192,55018,1,8,0:0:0:0:
256,192,55386,1,12,0:0:0:0:
256,192,55570,1,0,0:0:0:0:
256,192,55754,1,8,0:0:0:0:
256,192,55938,1,2,0:0:0:0:
256,192,56030,1,0,0:0:0:0:
256,192,56122,1,0,0:0:0:0:
256,192,56306,1,0,0:0:0:0:
256,192,56490,1,8,0:0:0:0:
256,192,56858,1,0,0:0:0:0:
256,192,57042,1,2,0:0:0:0:
256,192,57226,1,8,0:0:0:0:
256,192,57410,1,0,0:0:0:0:
256,192,57594,1,2,0:0:0:0:
256,192,57962,1,8,0:0:0:0:
256,192,58054,1,0,0:0:0:0:
256,192,58146,1,0,0:0:0:0:
256,192,58331,1,8,0:0:0:0:
256,192,58699,1,8,0:0:0:0:
256,192,59067,1,8,0:0:0:0:
256,192,59251,1,2,0:0:0:0:
256,192,59435,1,8,0:0:0:0:
256,192,59619,1,0,0:0:0:0:
256,192,59803,1,8,0:0:0:0:
256,192,60171,1,8,0:0:0:0:
256,192,60539,1,8,0:0:0:0:
256,192,60631,1,0,0:0:0:0:
256,192,60723,1,0,0:0:0:0:
256,192,60907,1,8,0:0:0:0:
256,192,61091,1,0,0:0:0:0:
256,192,61275,1,12,0:0:0:0:
256,192,61643,1,2,0:0:0:0:
256,192,61827,1,0,0:0:0:0:
256,192,62011,1,2,0:0:0:0:
256,192,62380,1,0,0:0:0:0:
256,192,62564,1,2,0:0:0:0:
256,192,62656,1,0,0:0:0:0:
256,192,62748,1,0,0:0:0:0:
256,192,63116,1,2,0:0:0:0:
256,192,63300,1,0,0:0:0:0:
256,192,63484,1,2,0:0:0:0:
256,192,63852,1,0,0:0:0:0:
256,192,64036,1,2,0:0:0:0:
256,192,64128,1,0,0:0:0:0:
256,192,64220,1,0,0:0:0:0:
256,192,64588,1,0,0:0:0:0:
256,192,64772,1,0,0:0:0:0:
256,192,64956,1,2,0:0:0:0:
256,192,65324,1,0,0:0:0:0:
256,192,65508,1,2,0:0:0:0:
256,192,65692,1,0,0:0:0:0:
256,192,66061,1,0,0:0:0:0:
256,192,66245,1,2,0:0:0:0:
256,192,66613,1,0,0:0:0:0:
256,192,66797,1,2,0:0:0:0:
256,192,66889,1,0,0:0:0:0:
256,192,66981,1,0,0:0:0:0:
256,192,67165,1,12,0:0:0:0:
256,192,67533,1,2,0:0:0:0:
256,192,67717,1,0,0:0:0:0:
256,192,67901,1,8,0:0:0:0:
256,192,68269,1,0,0:0:0:0:
256,192,68453,1,0,0:0:0:0:
256,192,68545,1,0,0:0:0:0:
256,192,68637,1,2,0:0:0:0:
256,200,69005,1,2,0:0:0:0:
256,200,69189,1,0,0:0:0:0:
256,200,69373,1,8,0:0:0:0:
256,200,69742,1,0,0:0:0:0:
256,200,69926,1,0,0:0:0:0:
256,200,70018,1,0,0:0:0:0:
256,200,70110,1,2,0:0:0:0:
256,200,70478,1,0,0:0:0:0:
256,200,70662,1,0,0:0:0:0:
256,200,70846,1,8,0:0:0:0:
256,200,71214,1,2,0:0:0:0:
256,200,71398,1,0,0:0:0:0:
256,200,71582,1,8,0:0:0:0:
256,200,71950,1,0,0:0:0:0:
256,200,72042,1,0,0:0:0:0:
256,200,72134,1,8,0:0:0:0:
256,200,72318,1,0,0:0:0:0:
256,200,72502,1,2,0:0:0:0:
256,200,72686,1,0,0:0:0:0:
256,200,72778,1,0,0:0:0:0:
256,200,72870,1,2,0:0:0:0:
256,200,73054,1,4,0:0:0:0:
256,200,73423,1,8,0:0:0:0:
256,200,73607,1,0,0:0:0:0:
256,200,73975,1,0,0:0:0:0:
256,200,74067,1,0,0:0:0:0:
256,200,74159,1,8,0:0:0:0:
256,200,74343,1,0,0:0:0:0:
256,200,74711,1,2,0:0:0:0:
256,200,74803,1,2,0:0:0:0:
256,200,74895,1,0,0:0:0:0:
256,200,75079,1,2,0:0:0:0:
256,200,75447,1,2,0:0:0:0:
256,200,75631,1,0,0:0:0:0:
256,200,75723,1,0,0:0:0:0:
256,200,75815,1,0,0:0:0:0:
256,200,75907,1,0,0:0:0:0:
256,200,75999,1,8,0:0:0:0:
256,200,76367,1,0,0:0:0:0:
256,200,76551,1,8,0:0:0:0:
256,200,76919,1,0,0:0:0:0:
256,200,77104,1,8,0:0:0:0:
256,200,77472,1,0,0:0:0:0:
256,200,77656,1,2,0:0:0:0:
256,200,77840,1,0,0:0:0:0:
256,200,78024,1,0,0:0:0:0:
256,200,78116,1,0,0:0:0:0:
256,200,78208,1,2,0:0:0:0:
256,200,78576,1,2,0:0:0:0:
256,200,78760,1,0,0:0:0:0:
256,200,78944,1,12,0:0:0:0:
256,200,79312,1,8,0:0:0:0:
256,200,79496,1,0,0:0:0:0:
256,200,79864,1,2,0:0:0:0:
256,200,80048,1,0,0:0:0:0:
256,200,80232,1,2,0:0:0:0:
256,200,80600,1,0,0:0:0:0:
256,200,80785,1,2,0:0:0:0:
256,200,80969,1,0,0:0:0:0:
256,200,81337,1,0,0:0:0:0:
256,200,81521,1,2,0:0:0:0:
256,200,81613,1,0,0:0:0:0:
256,200,81705,1,0,0:0:0:0:
256,200,81797,1,0,0:0:0:0:
256,200,81889,1,0,0:0:0:0:
256,200,82257,1,2,0:0:0:0:
256,200,82441,1,0,0:0:0:0:
256,200,82809,1,2,0:0:0:0:
256,200,82993,1,4,0:0:0:0:
256,200,83361,1,0,0:0:0:0:
256,200,83545,1,0,0:0:0:0:
256,200,83729,1,2,0:0:0:0:
256,200,84097,1,2,0:0:0:0:
256,200,84281,1,0,0:0:0:0:
256,200,84465,1,2,0:0:0:0:
256,200,84834,1,12,0:0:0:0:
256,200,85018,1,0,0:0:0:0:
256,200,85202,1,2,0:0:0:0:
256,200,85386,1,2,0:0:0:0:
256,200,85754,1,0,0:0:0:0:
256,200,85938,1,8,0:0:0:0:
256,200,86122,1,0,0:0:0:0:
256,200,86306,1,8,0:0:0:0:
256,200,86674,1,2,0:0:0:0:
256,200,86858,1,0,0:0:0:0:
256,200,87042,1,2,0:0:0:0:
256,200,87226,1,0,0:0:0:0:
256,200,87410,1,8,0:0:0:0:
256,200,87778,1,2,0:0:0:0:
256,200,87962,1,0,0:0:0:0:
256,200,88146,1,0,0:0:0:0:
256,200,88331,1,2,0:0:0:0:
256,200,88699,1,0,0:0:0:0:
256,200,88883,1,12,0:0:0:0:
256,200,89251,1,8,0:0:0:0:
256,200,89435,1,0,0:0:0:0:
256,200,89619,1,8,0:0:0:0:
256,200,89803,1,0,0:0:0:0:
256,200,89895,1,0,0:0:0:0:
256,196,89987,1,8,0:0:0:0:
256,196,90355,1,0,0:0:0:0:
256,196,90539,1,0,0:0:0:0:
256,200,90723,1,12,0:0:0:0:
256,196,91091,1,0,0:0:0:0:
256,196,91275,1,2,0:0:0:0:
256,196,91643,1,2,0:0:0:0:
256,196,91827,1,0,0:0:0:0:
256,196,92011,1,2,0:0:0:0:
256,196,92380,1,2,0:0:0:0:
256,196,92564,1,0,0:0:0:0:
256,196,92748,1,2,0:0:0:0:
256,196,93116,1,0,0:0:0:0:
256,196,93300,1,8,0:0:0:0:
256,192,93486,1,0,0:0:0:0:
256,192,93579,1,0,0:0:0:0:
256,192,93672,1,2,0:0:0:0:
256,192,94054,1,0,0:0:0:0:
256,192,94259,1,2,0:0:0:0:
256,192,94690,1,0,0:0:0:0:
256,192,94934,1,12,0:0:0:0:
256,192,95098,12,0,97901,0:0:0:0:
256,192,98169,12,0,102954,0:0:0:0:
256,192,104427,5,2,0:0:0:0:
256,192,104703,1,0,0:0:0:0:
256,192,104795,1,0,0:0:0:0:
256,192,104887,1,2,0:0:0:0:
256,192,104979,12,0,106451,0:0:0:0:
