osu file format v14

[General]
AudioFilename: audio.mp3
AudioLeadIn: 0
PreviewTime: 86726
Countdown: 1
SampleSet: Normal
StackLeniency: 0.3
Mode: 0
LetterboxInBreaks: 0
WidescreenStoryboard: 0

[Editor]
DistanceSpacing: 0.3
BeatDivisor: 4
GridSize: 16
TimelineZoom: 1

[Metadata]
Title:Far east nightbird
TitleUnicode:Far east nightbird
Artist:Nekomata Master
ArtistUnicode:Nekomata Master
Creator:Markden
Version:Extra 2018
Source:jubeat knit
Tags:quickiez
BeatmapID:1874242
BeatmapSetID:897124

[Difficulty]
HPDrainRate:6
CircleSize:5
OverallDifficulty:8
ApproachRate:9
SliderMultiplier:1.7
SliderTickRate:1

[Events]
//Background and Video events
0,0,"372693.png",0,0
//Break Periods
//Storyboard Layer 0 (Background)
//Storyboard Layer 1 (Fail)
//Storyboard Layer 2 (Pass)
//Storyboard Layer 3 (Foreground)
//Storyboard Layer 4 (Overlay)
//Storyboard Sound Samples

[TimingPoints]
393,333.333333333333,4,1,0,30,1,0
1726,-100,4,1,0,50,0,0
2226,-200,4,1,0,50,0,0
2476,-200,4,1,0,10,0,0
2559,-200,4,1,0,50,0,0
3809,-200,4,1,0,10,0,0
3892,-200,4,1,0,50,0,0
5142,-200,4,1,0,10,0,0
5226,-200,4,1,0,50,0,0
5726,-100,4,1,0,50,0,0
7559,-166.666666666667,4,1,0,50,0,0
8892,-250,4,1,0,50,0,0
9726,-250,4,1,0,10,0,0
10059,-100,4,1,0,10,0,0
12392,-100,4,1,0,50,0,0
30226,-71.4285714285714,4,1,0,50,0,0
31726,-100,4,1,0,50,0,0
42726,-166.666666666667,4,1,0,50,0,0
43059,-100,4,1,0,50,0,0
45726,-90.9090909090909,4,1,0,50,0,0
54392,-133.333333333333,4,1,0,50,0,0
69226,-222.222222222222,4,1,0,50,0,0
69892,-133.333333333333,4,1,0,30,0,0
70392,-133.333333333333,4,1,0,50,0,0
72059,-100,4,1,0,50,0,0
74559,-285.714285714284,4,1,0,50,0,0
75226,-133.333333333333,4,1,0,30,0,0
75726,-133.333333333333,4,1,0,50,0,0
87059,-76.9230769230769,4,1,0,50,0,0
87392,-90.9090909090909,4,1,0,50,0,0
88059,-111.111111111111,4,1,0,50,0,0
89726,-76.9230769230769,4,1,0,50,0,0
90059,-83.3333333333333,4,1,0,50,0,0
92892,-76.9230769230769,4,1,0,50,0,0

[HitObjects]
52,184,1392,5,0,0:0:0:0:
111,217,1559,1,0,0:0:0:0:
55,350,1726,1,0,0:0:0:0:
493,158,2059,1,0,0:0:0:0:
493,158,2226,2,0,P|486:123|465:103,1,63.75
368,122,2559,1,0,0:0:0:0:
368,190,2726,5,0,0:0:0:0:
427,157,2892,1,0,0:0:0:0:
424,323,3059,1,0,0:0:0:0:
87,142,3392,1,0,0:0:0:0:
87,142,3559,2,0,P|94:107|115:87,1,63.75
212,106,3892,1,0,0:0:0:0:
153,141,4059,5,0,0:0:0:0:
212,174,4226,1,0,0:0:0:0:
156,307,4392,1,0,0:0:0:0:
491,117,4726,1,0,0:0:0:0:
491,117,4892,2,0,P|484:82|463:62,1,63.75
366,149,5226,1,0,0:0:0:0:
366,81,5392,5,0,0:0:0:0:
425,116,5559,1,0,0:0:0:0:
370,284,5726,2,0,P|416:266|460:275,1,85
359,357,6059,1,0,0:0:0:0:
210,325,6226,1,0,0:0:0:0:
366,149,6476,1,0,0:0:0:0:
366,149,6559,1,0,0:0:0:0:
286,100,6726,2,0,P|295:134|269:180,1,85
210,325,7059,5,0,0:0:0:0:
84,171,7392,1,0,0:0:0:0:
84,171,7559,2,0,P|70:120|17:90,1,101.999996887207
66,242,8059,5,0,0:0:0:0:
138,219,8226,1,0,0:0:0:0:
269,351,8392,1,0,0:0:0:0:
356,179,8726,1,0,0:0:0:0:
356,179,8892,2,0,P|366:142|388:111,1,68
415,213,9392,5,0,0:0:0:0:
397,283,9559,1,0,0:0:0:0:
336,245,9726,5,0,0:0:0:0:
335,257,9809,1,0,0:0:0:0:
330,269,9892,1,0,0:0:0:0:
323,279,9976,1,0,0:0:0:0:
314,287,10059,2,0,L|256:282,1,42.5
215,222,10226,5,0,0:0:0:0:
203,223,10309,1,0,0:0:0:0:
191,228,10392,1,0,0:0:0:0:
181,235,10476,1,0,0:0:0:0:
173,244,10559,2,0,L|178:302,1,42.5
271,283,10726,5,0,0:0:0:0:
283,282,10809,1,0,0:0:0:0:
295,277,10892,1,0,0:0:0:0:
305,270,10976,1,0,0:0:0:0:
313,261,11059,2,0,L|308:203,1,42.5
261,109,11226,5,0,0:0:0:0:
249,110,11309,1,0,0:0:0:0:
237,115,11392,1,0,0:0:0:0:
227,122,11476,1,0,0:0:0:0:
219,131,11559,2,0,L|224:189,1,42.5
269,243,11726,5,0,0:0:0:0:
262,236,11809,1,0,0:0:0:0:
255,230,11892,1,0,0:0:0:0:
248,224,11976,1,0,0:0:0:0:
248,211,12059,1,0,0:0:0:0:
241,204,12142,1,0,0:0:0:0:
235,197,12226,1,0,0:0:0:0:
229,190,12309,1,0,0:0:0:0:
223,174,12392,2,0,P|282:123|333:147,2,127.5
166,230,13059,1,0,0:0:0:0:
156,303,13226,1,0,0:0:0:0:
14,151,13392,5,0,0:0:0:0:
36,163,13476,1,0,0:0:0:0:
48,182,13559,1,0,0:0:0:0:
58,222,13642,1,0,0:0:0:0:
50,264,13726,1,0,0:0:0:0:
498,141,14059,5,0,0:0:0:0:
310,231,14226,1,0,0:0:0:0:
343,169,14392,2,0,L|356:295,2,127.5
408,342,15059,1,0,0:0:0:0:
61,140,15392,5,0,0:0:0:0:
133,259,15559,1,0,0:0:0:0:
179,206,15726,2,0,P|190:153|172:104,1,85
328,123,16059,2,0,P|321:165|333:206,1,85
390,324,16392,2,0,L|406:191,1,127.5
405,197,16726,1,0,0:0:0:0:
400,130,16892,1,0,0:0:0:0:
196,35,17059,5,0,0:0:0:0:
280,171,17309,1,0,0:0:0:0:
173,292,17559,1,0,0:0:0:0:
91,104,17726,5,0,0:0:0:0:
129,172,17892,1,0,0:0:0:0:
199,207,18059,1,0,0:0:0:0:
404,190,18226,1,0,0:0:0:0:
348,148,18392,1,0,0:0:0:0:
306,204,18559,1,0,0:0:0:0:
362,246,18726,2,0,L|446:251,1,85
453,270,18976,1,0,0:0:0:0:
461,290,19059,1,0,0:0:0:0:
498,149,19226,6,0,P|477:124|455:62,1,85
54,75,19559,2,0,P|39:115|14:149,1,85
75,266,19892,1,0,0:0:0:0:
130,228,20059,1,0,0:0:0:0:
264,284,20226,1,0,0:0:0:0:
319,246,20392,1,0,0:0:0:0:
319,246,20559,1,0,0:0:0:0:
425,117,20726,5,0,0:0:0:0:
336,162,20892,1,0,0:0:0:0:
191,115,21059,2,0,P|149:78|141:46,1,85
141,332,21392,2,0,P|156:293|191:269,1,85
294,177,21726,2,0,L|315:308,1,127.5
314,302,22059,1,0,0:0:0:0:
381,273,22226,1,0,0:0:0:0:
34,244,22392,5,0,0:0:0:0:
168,184,22642,1,0,0:0:0:0:
302,124,22892,1,0,0:0:0:0:
361,170,23059,5,0,0:0:0:0:
61,176,23226,1,0,0:0:0:0:
119,122,23392,1,0,0:0:0:0:
137,114,23476,1,0,0:0:0:0:
158,116,23559,1,0,0:0:0:0:
176,126,23642,1,0,0:0:0:0:
189,143,23726,5,0,0:0:0:0:
190,174,23809,1,0,0:0:0:0:
179,204,23892,1,0,0:0:0:0:
158,228,23976,1,0,0:0:0:0:
127,242,24059,5,0,0:0:0:0:
85,234,24142,1,0,0:0:0:0:
58,202,24226,1,0,0:0:0:0:
60,160,24309,1,0,0:0:0:0:
60,160,24392,5,0,0:0:0:0:
291,153,24615,1,0,0:0:0:0:
122,174,24837,1,0,0:0:0:0:
299,224,25059,5,0,0:0:0:0:
363,253,25226,1,0,0:0:0:0:
358,182,25392,1,0,0:0:0:0:
174,33,25559,1,0,0:0:0:0:
223,94,25726,2,0,L|211:189,1,85
431,67,26059,5,0,0:0:0:0:
334,120,26226,1,0,0:0:0:0:
318,239,26392,2,0,P|345:270|387:277,1,85
125,277,26726,2,0,P|166:270|193:239,1,85
100,60,27059,1,0,0:0:0:0:
95,126,27226,2,0,P|136:119|163:88,1,85
37,88,27559,1,0,0:0:0:0:
97,240,27726,5,0,0:0:0:0:
243,269,27976,1,0,0:0:0:0:
389,298,28226,1,0,0:0:0:0:
406,93,28392,5,0,0:0:0:0:
434,156,28559,1,0,0:0:0:0:
462,219,28726,1,0,0:0:0:0:
239,202,28892,5,0,0:0:0:0:
286,145,29059,1,0,0:0:0:0:
312,212,29226,1,0,0:0:0:0:
65,21,29392,2,0,L|71:121,1,85
100,127,29642,1,0,0:0:0:0:
77,157,29726,1,0,0:0:0:0:
77,167,29809,1,0,0:0:0:0:
78,178,29892,1,0,0:0:0:0:
70,187,29976,1,0,0:0:0:0:
84,188,30059,1,0,0:0:0:0:
30,222,30226,6,0,P|137:204|224:232,1,178.499994552612
203,221,30559,1,0,0:0:0:0:
445,126,30726,1,0,0:0:0:0:
378,135,30892,1,0,0:0:0:0:
421,189,31059,1,0,0:0:0:0:
206,303,31392,5,0,0:0:0:0:
138,324,31559,1,0,0:0:0:0:
150,253,31726,2,0,P|193:231|236:233,1,85
378,135,32059,2,0,P|335:113|292:115,1,85
140,88,32392,2,0,P|72:138|70:197,1,127.5
65,176,32726,1,0,0:0:0:0:
93,245,32892,1,0,0:0:0:0:
437,229,33059,5,0,0:0:0:0:
285,302,33309,1,0,0:0:0:0:
297,133,33559,1,0,0:0:0:0:
468,169,33726,5,0,0:0:0:0:
455,104,33892,1,0,0:0:0:0:
218,324,34059,1,0,0:0:0:0:
231,259,34226,1,0,0:0:0:0:
13,98,34392,1,0,0:0:0:0:
35,121,34476,1,0,0:0:0:0:
47,147,34559,1,0,0:0:0:0:
50,171,34642,1,0,0:0:0:0:
45,191,34726,1,0,0:0:0:0:
43,208,34809,1,0,0:0:0:0:
45,221,34892,1,0,0:0:0:0:
53,234,34976,1,0,0:0:0:0:
53,234,35059,1,0,0:0:0:0:
486,115,35392,5,0,0:0:0:0:
436,260,35559,1,0,0:0:0:0:
436,260,35726,2,0,P|421:220|418:177,1,85
387,97,36059,1,0,0:0:0:0:
512,203,36226,1,0,0:0:0:0:
512,203,36392,1,0,0:0:0:0:
110,69,36726,5,0,0:0:0:0:
136,232,36892,1,0,0:0:0:0:
137,232,37059,2,0,P|134:172|142:134,1,85
187,90,37392,1,0,0:0:0:0:
292,277,37559,1,0,0:0:0:0:
312,201,37726,1,0,0:0:0:0:
488,80,38059,5,0,0:0:0:0:
463,200,38226,1,0,0:0:0:0:
463,200,38392,2,0,P|468:258|466:300,1,85
312,201,38726,2,0,P|347:159|363:117,1,85
234,128,39059,2,0,P|251:73|249:28,1,85
127,91,39392,2,0,P|118:151|128:195,1,85
77,300,39726,1,0,0:0:0:0:
197,337,39892,1,0,0:0:0:0:
297,261,40059,1,0,0:0:0:0:
417,298,40226,5,0,0:0:0:0:
408,302,40309,1,0,0:0:0:0:
398,306,40392,1,0,0:0:0:0:
362,159,40559,2,0,P|397:117|413:75,1,85
102,89,40892,2,0,P|121:127|150:159,1,85
297,261,41226,1,0,0:0:0:0:
152,236,41392,1,0,0:0:0:0:
234,128,41559,5,0,0:0:0:0:
246,101,41642,1,0,0:0:0:0:
250,74,41726,1,0,0:0:0:0:
304,195,41892,1,0,0:0:0:0:
434,115,42059,1,0,0:0:0:0:
391,62,42226,1,0,0:0:0:0:
500,244,42392,1,0,0:0:0:0:
374,267,42559,1,0,0:0:0:0:
249,291,42726,2,0,P|205:258|207:223,1,76.4999976654053
249,291,43059,6,0,P|183:286|101:293,1,127.500004863739
121,290,43392,1,0,0:0:0:0:
75,135,43559,1,0,0:0:0:0:
139,156,43726,2,0,P|205:151|279:131,2,127.5
89,204,44392,1,0,0:0:0:0:
153,228,44559,1,0,0:0:0:0:
338,81,44726,1,0,0:0:0:0:
389,145,44892,6,0,P|393:181|397:188,3,28.3333333333333
123,145,45226,2,0,P|119:181|115:188,3,28.3333333333333
256,216,45559,1,0,0:0:0:0:
488,64,45726,6,0,P|416:112|360:104,1,140.25000428009
366,106,46059,1,0,0:0:0:0:
481,245,46226,1,0,0:0:0:0:
481,245,46392,2,0,P|439:224|393:225,1,93.5000028533936
183,277,46726,1,0,0:0:0:0:
217,92,46892,1,0,0:0:0:0:
259,151,47059,1,0,0:0:0:0:
259,151,47226,1,0,0:0:0:0:
465,70,47392,5,0,0:0:0:0:
481,245,47559,1,0,0:0:0:0:
481,245,47726,2,0,P|439:265|393:264,1,93.5000028533936
123,111,48059,1,0,0:0:0:0:
179,301,48226,1,0,0:0:0:0:
204,235,48392,1,0,0:0:0:0:
430,76,48726,5,0,0:0:0:0:
463,200,48892,1,0,0:0:0:0:
463,200,49059,2,0,P|458:258|460:300,1,85
321,219,49392,2,0,P|372:179|396:142,1,93.5000028533936
241,158,49726,2,0,P|280:108|295:57,1,93.5000028533936
140,134,50059,2,0,P|163:61|160:24,1,93.5000028533936
24,230,50392,1,0,0:0:0:0:
137,259,50559,1,0,0:0:0:0:
250,288,50726,1,0,0:0:0:0:
341,364,50892,5,0,0:0:0:0:
337,355,50976,1,0,0:0:0:0:
332,346,51059,1,0,0:0:0:0:
350,179,51226,2,0,P|342:79|344:66,1,93.5000028533936
170,86,51559,2,0,P|170:133|162:179,1,93.5000028533936
256,240,51892,1,0,0:0:0:0:
412,66,52059,5,0,0:0:0:0:
380,250,52226,1,0,0:0:0:0:
448,210,52392,1,0,0:0:0:0:
448,210,52559,1,0,0:0:0:0:
161,179,52726,5,0,0:0:0:0:
196,325,52892,1,0,0:0:0:0:
127,306,53059,1,0,0:0:0:0:
127,306,53226,1,0,0:0:0:0:
310,229,53392,5,0,0:0:0:0:
380,250,53559,1,0,0:0:0:0:
361,176,53726,2,0,P|343:105|279:82,1,140.25000428009
285,81,54059,1,0,0:0:0:0:
231,127,54226,1,0,0:0:0:0:
174,171,54392,2,0,P|126:165|82:148,2,95.6250036478044
464,167,55059,1,0,0:0:0:0:
464,167,55226,1,0,0:0:0:0:
504,222,55392,5,0,0:0:0:0:
482,236,55476,1,0,0:0:0:0:
457,237,55559,1,0,0:0:0:0:
430,226,55642,1,0,0:0:0:0:
408,208,55726,5,0,0:0:0:0:
370,184,55809,1,0,0:0:0:0:
328,174,55892,1,0,0:0:0:0:
283,178,55976,1,0,0:0:0:0:
239,197,56059,5,0,0:0:0:0:
196,232,56142,1,0,0:0:0:0:
137,245,56226,1,0,0:0:0:0:
78,230,56309,1,0,0:0:0:0:
32,191,56392,5,0,0:0:0:0:
139,148,56559,1,0,0:0:0:0:
62,315,56726,1,0,0:0:0:0:
311,273,56892,1,0,0:0:0:0:
283,341,57059,1,0,0:0:0:0:
237,283,57226,1,0,0:0:0:0:
480,191,57392,5,0,0:0:0:0:
373,230,57559,2,0,L|373:254,3,15.9375006079674
373,230,57726,1,0,0:0:0:0:
373,230,57892,1,0,0:0:0:0:
99,120,58059,1,0,0:0:0:0:
182,199,58226,1,0,0:0:0:0:
182,199,58309,1,0,0:0:0:0:
182,199,58392,1,0,0:0:0:0:
367,126,58559,1,0,0:0:0:0:
285,111,58726,1,0,0:0:0:0:
205,96,58892,1,0,0:0:0:0:
96,288,59059,5,0,0:0:0:0:
60,169,59226,1,0,0:0:0:0:
249,230,59392,1,0,0:0:0:0:
285,111,59559,1,0,0:0:0:0:
153,72,59726,1,0,0:0:0:0:
153,72,59809,1,0,0:0:0:0:
153,72,59892,1,0,0:0:0:0:
153,202,60059,5,0,0:0:0:0:
373,230,60226,2,0,L|373:254,3,15.9375006079674
373,230,60392,1,0,0:0:0:0:
373,230,60559,1,0,0:0:0:0:
285,111,60726,1,0,0:0:0:0:
417,72,60892,1,0,0:0:0:0:
417,72,60976,1,0,0:0:0:0:
417,72,61059,1,0,0:0:0:0:
431,165,61226,1,0,0:0:0:0:
58,145,61392,1,0,0:0:0:0:
121,68,61559,1,0,0:0:0:0:
156,161,61726,1,0,0:0:0:0:
510,282,62059,5,0,0:0:0:0:
453,328,62226,1,0,0:0:0:0:
460,76,62392,1,0,0:0:0:0:
442,258,62559,1,0,0:0:0:0:
301,324,62726,1,0,0:0:0:0:
298,308,62809,1,0,0:0:0:0:
296,292,62892,1,0,0:0:0:0:
294,276,62976,1,0,0:0:0:0:
291,260,63059,5,0,0:0:0:0:
365,217,63226,1,0,0:0:0:0:
141,185,63392,1,0,0:0:0:0:
112,253,63559,1,0,0:0:0:0:
112,253,63642,1,0,0:0:0:0:
112,253,63726,1,0,0:0:0:0:
223,339,63892,1,0,0:0:0:0:
301,324,64059,1,0,0:0:0:0:
379,309,64226,1,0,0:0:0:0:
406,234,64392,5,0,0:0:0:0:
25,135,64726,1,0,0:0:0:0:
112,253,64892,1,0,0:0:0:0:
101,322,65059,1,0,0:0:0:0:
171,119,65226,1,0,0:0:0:0:
282,197,65392,5,0,0:0:0:0:
284,212,65476,1,0,0:0:0:0:
286,228,65559,1,0,0:0:0:0:
288,244,65642,1,0,0:0:0:0:
291,260,65726,1,0,0:0:0:0:
365,217,65892,1,0,0:0:0:0:
399,49,66059,1,0,0:0:0:0:
370,117,66226,1,0,0:0:0:0:
370,117,66309,1,0,0:0:0:0:
370,117,66392,1,0,0:0:0:0:
356,294,66559,1,0,0:0:0:0:
218,259,66726,1,0,0:0:0:0:
264,168,66892,1,0,0:0:0:0:
126,133,67059,1,0,0:0:0:0:
370,117,67226,5,0,0:0:0:0:
370,117,67309,1,0,0:0:0:0:
370,159,67392,1,0,0:0:0:0:
370,202,67476,1,0,0:0:0:0:
370,244,67559,1,0,0:0:0:0:
169,181,67726,5,0,0:0:0:0:
169,181,67809,1,0,0:0:0:0:
169,223,67892,1,0,0:0:0:0:
169,266,67976,1,0,0:0:0:0:
169,308,68059,1,0,0:0:0:0:
466,203,68226,5,0,0:0:0:0:
466,203,68309,1,0,0:0:0:0:
466,245,68392,1,0,0:0:0:0:
466,288,68476,1,0,0:0:0:0:
466,330,68559,1,0,0:0:0:0:
269,141,68726,5,0,0:0:0:0:
269,141,68809,1,0,0:0:0:0:
269,183,68892,1,0,0:0:0:0:
269,226,68976,1,0,0:0:0:0:
269,268,69059,1,0,0:0:0:0:
72,336,69226,2,0,L|176:336,1,95.6249970817567
440,336,69892,6,0,L|328:336,1,95.6250036478044
271,280,70392,5,0,0:0:0:0:
271,280,70476,1,0,0:0:0:0:
254,246,70559,1,0,0:0:0:0:
271,213,70642,1,0,0:0:0:0:
254,180,70726,1,0,0:0:0:0:
120,243,70892,5,0,0:0:0:0:
120,243,70976,1,0,0:0:0:0:
136,209,71059,1,0,0:0:0:0:
120,175,71142,1,0,0:0:0:0:
136,142,71226,1,0,0:0:0:0:
408,323,71392,5,0,0:0:0:0:
408,323,71476,1,0,0:0:0:0:
391,289,71559,1,0,0:0:0:0:
408,255,71642,1,0,0:0:0:0:
391,221,71726,1,0,0:0:0:0:
452,114,71892,5,0,0:0:0:0:
452,114,72059,2,0,L|356:114,1,85
26,116,72392,1,0,0:0:0:0:
110,212,72559,5,0,0:0:0:0:
110,212,72642,1,0,0:0:0:0:
94,235,72726,1,0,0:0:0:0:
88,262,72809,1,0,0:0:0:0:
92,290,72892,1,0,0:0:0:0:
189,90,73059,5,0,0:0:0:0:
189,90,73142,1,0,0:0:0:0:
160,89,73226,1,0,0:0:0:0:
134,98,73309,1,0,0:0:0:0:
112,116,73392,1,0,0:0:0:0:
340,90,73559,5,0,0:0:0:0:
340,90,73642,1,0,0:0:0:0:
325,64,73726,1,0,0:0:0:0:
304,47,73809,1,0,0:0:0:0:
277,38,73892,1,0,0:0:0:0:
420,218,74059,5,0,0:0:0:0:
420,218,74142,1,0,0:0:0:0:
434,191,74226,1,0,0:0:0:0:
437,164,74309,1,0,0:0:0:0:
430,137,74392,1,0,0:0:0:0:
256,246,74559,2,0,L|256:340,1,89.2499972763062
256,138,75226,6,0,L|256:40,1,95.6250036478044
348,243,75726,5,0,0:0:0:0:
348,243,75809,1,0,0:0:0:0:
352,275,75892,1,0,0:0:0:0:
346,306,75975,1,0,0:0:0:0:
332,335,76058,1,0,0:0:0:0:
254,86,76226,5,0,0:0:0:0:
254,86,76309,1,0,0:0:0:0:
280,67,76392,1,0,0:0:0:0:
309,55,76475,1,0,0:0:0:0:
341,53,76558,1,0,0:0:0:0:
165,246,76726,5,0,0:0:0:0:
165,246,76809,1,0,0:0:0:0:
135,233,76892,1,0,0:0:0:0:
111,213,76975,1,0,0:0:0:0:
93,187,77058,1,0,0:0:0:0:
256,86,77226,5,0,0:0:0:0:
256,86,77392,2,0,L|256:166,1,63.7500024318696
256,360,77726,1,0,0:0:0:0:
192,192,78170,5,0,0:0:0:0:
480,299,78392,1,0,0:0:0:0:
415,261,78615,1,0,0:0:0:0:
362,340,78837,1,0,0:0:0:0:
272,384,79059,1,0,0:0:0:0:
180,280,79281,1,0,0:0:0:0:
67,223,79504,1,0,0:0:0:0:
137,141,79726,1,0,0:0:0:0:
427,60,79948,1,0,0:0:0:0:
427,60,80059,1,0,0:0:0:0:
440,93,80170,1,0,0:0:0:0:
440,130,80281,1,0,0:0:0:0:
427,164,80392,5,0,0:0:0:0:
358,115,80615,1,0,0:0:0:0:
320,180,80838,1,0,0:0:0:0:
295,276,81060,1,0,0:0:0:0:
251,186,81282,1,0,0:0:0:0:
242,80,81504,1,0,0:0:0:0:
185,193,81727,1,0,0:0:0:0:
160,290,81948,1,0,0:0:0:0:
116,200,82170,1,0,0:0:0:0:
8,221,82392,1,0,0:0:0:0:
376,110,82615,1,0,0:0:0:0:
376,110,82726,1,0,0:0:0:0:
366,145,82837,1,0,0:0:0:0:
347,176,82948,1,0,0:0:0:0:
317,197,83059,5,0,0:0:0:0:
280,113,83281,1,0,0:0:0:0:
187,153,83504,1,0,0:0:0:0:
172,243,83726,1,0,0:0:0:0:
326,249,83948,1,0,0:0:0:0:
355,113,84170,1,0,0:0:0:0:
140,102,84392,1,0,0:0:0:0:
229,287,84615,1,0,0:0:0:0:
294,77,84837,1,0,0:0:0:0:
157,211,85059,1,0,0:0:0:0:
72,41,85281,1,0,0:0:0:0:
72,41,85392,1,0,0:0:0:0:
101,24,85503,1,0,0:0:0:0:
133,18,85614,1,0,0:0:0:0:
166,23,85725,5,0,0:0:0:0:
256,192,85976,1,0,0:0:0:0:
256,192,86059,1,0,0:0:0:0:
304,144,86226,1,0,0:0:0:0:
348,342,86392,1,0,0:0:0:0:
348,342,86559,1,0,0:0:0:0:
140,102,86726,5,0,0:0:0:0:
155,110,86810,1,0,0:0:0:0:
168,131,86893,1,0,0:0:0:0:
181,175,86976,1,0,0:0:0:0:
171,226,87059,2,0,P|126:268|60:264,1,110.499994941712
343,184,87392,2,0,P|380:211|431:215,1,93.5000028533936
239,72,87726,1,0,0:0:0:0:
162,34,87892,1,0,0:0:0:0:
98,56,88059,2,0,P|68:83|21:89,1,76.4999976654053
156,165,88392,5,0,0:0:0:0:
156,165,88559,1,0,0:0:0:0:
408,143,88726,1,0,0:0:0:0:
339,108,88892,1,0,0:0:0:0:
310,21,89059,1,0,0:0:0:0:
448,20,89226,1,0,0:0:0:0:
415,128,89392,1,0,0:0:0:0:
326,146,89559,1,0,0:0:0:0:
70,111,89726,6,0,P|89:173|89:227,1,110.499994941712
222,188,90059,2,0,P|217:252|198:303,1,101.999996887207
440,279,90392,1,0,0:0:0:0:
404,220,90559,1,0,0:0:0:0:
370,280,90726,2,0,P|348:341|317:385,1,101.999996887207
361,89,91059,5,0,0:0:0:0:
361,89,91226,1,0,0:0:0:0:
316,232,91392,1,0,0:0:0:0:
253,256,91559,1,0,0:0:0:0:
122,197,91726,1,0,0:0:0:0:
296,115,91892,1,0,0:0:0:0:
349,158,92059,1,0,0:0:0:0:
344,226,92226,1,0,0:0:0:0:
394,329,92392,6,0,P|419:272|424:213,1,101.999996887207
223,305,92726,1,0,0:0:0:0:
281,245,92892,2,0,P|289:183|277:125,1,110.499994941712
35,275,93226,1,0,0:0:0:0:
149,195,93392,2,0,P|139:133|112:80,1,110.499994941712
326,304,93726,5,0,0:0:0:0:
326,304,93892,1,0,0:0:0:0:
486,303,94059,1,0,0:0:0:0:
506,237,94226,1,0,0:0:0:0:
404,335,94392,1,0,0:0:0:0:
377,194,94559,1,0,0:0:0:0:
183,153,94726,1,0,0:0:0:0:
448,14,94892,5,0,0:0:0:0:
408,68,95059,1,0,0:0:0:0:
340,71,95226,1,0,0:0:0:0:
183,153,95392,1,0,0:0:0:0:
203,219,95559,1,0,0:0:0:0:
79,236,95726,1,0,0:0:0:0:
88,263,95892,1,0,0:0:0:0:
84,290,96059,1,0,0:0:0:0:
387,132,96226,5,0,0:0:0:0:
320,141,96393,1,0,0:0:0:0:
270,95,96560,1,0,0:0:0:0:
138,126,96726,1,0,0:0:0:0:
138,126,96892,1,0,0:0:0:0:
263,256,97059,5,0,0:0:0:0:
202,289,97226,1,0,0:0:0:0:
203,219,97392,1,0,0:3:0:0:
264,184,97559,1,0,0:3:0:0:
90,26,97726,6,0,P|65:83|60:142,1,101.999996887207
203,110,98059,2,0,P|194:171|206:229,1,110.499994941712
403,148,98392,1,0,0:0:0:0:
444,94,98559,1,0,0:0:0:0:
335,160,98726,2,0,P|344:221|371:274,1,110.499994941712
163,49,99059,5,0,0:0:0:0:
163,49,99226,1,0,0:0:0:0:
120,310,99392,1,0,0:0:0:0:
147,237,99559,1,0,0:0:0:0:
252,125,99726,1,0,0:0:0:0:
289,309,99892,1,0,0:0:0:0:
73,104,100059,1,0,0:0:0:0:
135,157,100226,1,0,0:0:0:0:
409,265,100392,6,0,P|420:195|417:134,1,110.499994941712
239,334,100726,2,0,P|267:270|280:210,1,110.499994941712
0,310,101059,1,0,0:0:0:0:
6,240,101226,1,0,0:0:0:0:
56,356,101392,2,0,P|100:301|127:247,1,110.499994941712
392,303,101726,5,0,0:0:0:0:
392,303,101892,1,0,0:0:0:0:
271,72,102059,1,0,0:0:0:0:
272,85,102142,1,0,0:0:0:0:
273,99,102225,1,0,0:0:0:0:
274,113,102308,1,0,0:0:0:0:
276,129,102392,2,0,P|265:173|252:191,1,55.2499974708558
329,194,102559,2,0,P|306:234|289:247,1,55.2499974708558
199,314,102726,5,0,0:0:0:0:
175,235,102892,1,0,0:0:0:0:
72,145,103059,1,0,0:0:0:0:
91,156,103142,1,0,0:0:0:0:
112,162,103225,1,0,0:0:0:0:
134,163,103308,1,0,0:0:0:0:
156,158,103392,2,0,P|194:141|217:109,1,55.2499974708558
245,207,103559,5,0,0:0:0:0:
264,196,103642,1,0,0:0:0:0:
285,190,103726,1,0,0:0:0:0:
307,189,103809,1,0,0:0:0:0:
329,194,103892,2,0,P|367:211|390:243,1,55.2499974708558
461,332,104059,5,0,0:0:0:0:
129,82,104392,5,0,0:0:0:0:
129,82,104559,1,0,0:0:0:0:
103,314,104726,1,0,0:0:0:0:
182,287,104892,1,0,0:0:0:0:
99,195,105059,1,0,0:0:0:0:
257,256,105226,1,0,0:0:0:0:
408,179,105392,1,0,0:0:0:0:
214,71,105559,5,0,0:0:0:0:
285,104,105725,1,0,0:0:0:0:
294,183,105892,1,0,0:0:0:0:
119,235,106059,1,0,0:0:0:0:
130,159,106226,1,0,0:0:0:0:
161,332,106392,1,0,0:0:0:0:
194,311,106559,1,0,0:0:0:0:
233,313,106726,1,0,0:0:0:0:
352,141,106892,5,0,0:0:0:0:
406,186,107058,1,0,0:0:0:0:
395,257,107225,1,0,0:0:0:0:
190,252,107392,1,0,0:0:0:0:
180,183,107559,1,0,0:0:0:0:
338,212,107726,1,0,0:0:0:0:
65,115,107892,5,0,0:0:0:0:
41,35,108059,1,0,0:0:0:0:
121,11,108226,1,0,0:0:0:0:
145,91,108392,5,0,0:0:0:0:
215,111,108615,1,0,0:0:0:0:
223,182,108837,1,0,0:0:0:0:
289,224,109059,1,0,0:0:0:0:
314,61,109281,1,0,0:0:0:0:
180,39,109504,1,0,0:0:0:0:
217,258,109726,1,0,0:0:0:0:
280,300,109948,1,0,0:0:0:0:
379,28,110170,1,0,0:0:0:0:
256,64,110392,1,0,0:0:0:0:
256,144,110559,5,0,0:0:0:0:
256,160,110726,6,0,L|256:192,6,27.6249987354279
256,288,111059,5,0,0:0:0:0:
256,256,111559,1,0,0:0:0:0:
256,224,112059,1,0,0:0:0:0:
