osu file format v14

[General]
AudioFilename: audio.mp3
AudioLeadIn: 0
PreviewTime: 117271
Countdown: 0
SampleSet: None
StackLeniency: 0.3
Mode: 0
LetterboxInBreaks: 0
WidescreenStoryboard: 1

[Editor]
Bookmarks: 16471,22771,23671,38071,47071,52471,74071,88471,171271,185671,236596,242671
DistanceSpacing: 1.8
BeatDivisor: 4
GridSize: 8
TimelineZoom: 1.800005

[Metadata]
Title:Despair of ELFERIA
TitleUnicode:Despair of ELFERIA
Artist:Nekomata Master
ArtistUnicode:猫叉Master
Creator:UnNVus
Version:Extra
Source:beatmania IIDX 22 PENDUAL
Tags:
BeatmapID:1465979
BeatmapSetID:692785

[Difficulty]
HPDrainRate:8
CircleSize:4
OverallDifficulty:7
ApproachRate:9.3
SliderMultiplier:2
SliderTickRate:1

[Events]
//Background and Video events
0,0,"40214982_p0.jpg",0,0
//Break Periods
//Storyboard Layer 0 (Background)
//Storyboard Layer 1 (Fail)
//Storyboard Layer 2 (Pass)
//Storyboard Layer 3 (Foreground)
//Storyboard Sound Samples

[TimingPoints]
2071,300,4,3,0,14,1,0
2071,-166.666666666667,4,3,0,14,0,0
9271,300,4,3,0,32,1,0
9271,-166.666666666667,4,3,0,32,0,0
30871,-142.857142857143,4,3,0,38,0,0
45271,-125,4,3,0,46,0,0
59671,-100,4,3,0,56,0,0
102871,-125,4,3,0,46,0,0
117271,-83.3333333333333,4,3,0,64,0,1
146071,-100,4,3,0,56,0,0
156871,-100,4,3,0,38,0,0
178471,-100,4,3,0,56,0,0
200071,-83.3333333333333,4,3,0,64,0,1
228871,-125,4,3,0,46,0,0

[Colours]
Combo1 : 0,57,115
Combo2 : 143,143,143
Combo3 : 72,72,72
Combo4 : 215,107,0
Combo5 : 128,64,0
Combo6 : 0,149,37
Combo7 : 0,77,0
Combo8 : 0,128,128

[HitObjects]
24,32,1846,5,0,0:0:0:0:
24,32,1921,1,0,0:0:0:0:
24,32,1996,1,0,0:0:0:0:
24,32,2071,2,0,L|44:109,2,59.9999981689454
48,120,2521,1,0,0:0:0:0:
216,24,2971,6,0,L|195:101,1,59.9999981689454
192,112,3421,1,0,0:0:0:0:
296,48,3871,2,0,L|316:125,1,59.9999981689454
320,136,4321,1,0,0:0:0:0:
216,72,4771,6,0,L|195:149,1,59.9999981689454
192,160,5221,1,0,0:0:0:0:
296,96,5671,2,0,L|316:173,1,59.9999981689454
320,184,6121,1,0,0:0:0:0:
216,120,6571,6,0,L|195:197,1,59.9999981689454
192,208,7021,1,0,0:0:0:0:
296,144,7471,2,0,L|316:221,1,59.9999981689454
320,232,7921,1,0,0:0:0:0:
216,168,8371,6,0,L|195:245,1,59.9999981689454
192,256,8821,1,0,0:0:0:0:
256,360,9046,5,0,0:0:0:0:
256,352,9121,1,0,0:0:0:0:
256,344,9196,1,0,0:0:0:0:
256,336,9271,2,0,B|285:324|285:324|341:313,1,59.9999981689454
168,360,9571,1,0,0:0:0:0:
128,232,9721,2,0,L|42:254,1,59.9999981689454
216,208,10021,1,0,0:0:0:0:
168,32,10171,6,0,L|183:89,1,59.9999981689454
360,136,10471,2,0,L|302:120,1,59.9999981689454
448,160,10771,1,0,0:0:0:0:
272,112,10921,1,0,0:0:0:0:
224,264,11071,6,0,L|246:178,1,59.9999981689454,0|0,0:3|0:3,0:3:0:0:
200,352,11371,1,0,0:3:0:0:
344,344,11521,2,0,L|258:321,1,59.9999981689454,0|0,0:3|0:3,0:3:0:0:
432,368,11821,1,0,0:3:0:0:
256,320,11971,5,0,0:0:0:0:
128,352,12121,1,0,0:0:0:0:
0,312,12271,1,0,0:0:0:0:
96,224,12421,2,0,P|113:255|119:297,1,59.9999981689454,0|0,0:3|0:3,0:3:0:0:
16,176,12721,1,0,0:3:0:0:
192,128,12871,6,0,L|106:150,1,59.9999981689454,0|0,0:3|0:3,0:3:0:0:
280,104,13171,1,0,0:3:0:0:
320,232,13321,2,0,L|405:209,1,59.9999981689454,0|0,0:3|0:3,0:3:0:0:
232,256,13621,1,0,0:3:0:0:
104,288,13771,6,0,L|81:202,1,59.9999981689454,0|0,0:3|0:3,0:3:0:0:
232,88,14071,2,0,L|169:150,1,59.9999981689454,0|0,0:3|0:3,0:3:0:0:
304,24,14371,1,0,0:0:0:0:
352,160,14521,1,0,0:0:0:0:
352,160,14596,1,0,0:0:0:0:
352,160,14671,6,0,L|367:217,1,59.9999981689454,0|0,0:3|0:3,0:3:0:0:
320,72,14971,1,0,0:0:0:0:
288,240,15121,2,0,L|272:182,1,59.9999981689454,0|0,0:3|0:3,0:3:0:0:
320,328,15421,1,0,0:0:0:0:
264,152,15571,5,0,0:0:0:0:
208,272,15721,2,0,P|179:279|153:294,1,59.9999981689454,0|0,0:3|0:3,0:3:0:0:
312,296,16021,1,0,0:0:0:0:
248,120,16171,1,0,0:0:0:0:
276,127,16246,1,0,0:0:0:0:
305,135,16321,1,0,0:0:0:0:
334,143,16396,1,0,0:0:0:0:
360,152,16471,6,0,B|350:180|350:180|347:231,1,59.9999981689454
432,80,16771,1,0,0:0:0:0:
264,48,16921,2,0,B|294:47|338:19,1,59.9999981689454
168,24,17221,1,0,0:0:0:0:
288,208,17371,6,0,B|272:182|226:157,1,59.9999981689454
320,360,17671,2,0,B|350:359|394:331,1,59.9999981689454
176,312,17971,2,0,B|161:338|162:391,1,59.9999981689454
288,208,18271,6,0,B|318:207|362:179,1,59.9999981689454
192,176,18571,1,0,0:0:0:0:
416,160,18721,2,0,B|400:134|354:109,1,59.9999981689454
432,264,19021,1,0,0:0:0:0:
448,72,19171,5,0,0:0:0:0:
344,190,19321,1,0,0:0:0:0:
440,40,19471,1,0,0:0:0:0:
480,200,19621,1,0,0:0:0:0:
362,96,19771,1,0,0:0:0:0:
512,192,19921,1,0,0:0:0:0:
288,168,20071,6,0,B|273:194|274:246,1,59.9999981689454
362,96,20371,1,0,0:0:0:0:
152,112,20521,2,0,B|182:111|226:83,1,59.9999981689454
48,80,20821,1,0,0:0:0:0:
296,32,20971,6,0,B|281:58|282:110,1,59.9999981689454
472,152,21271,2,0,B|456:126|410:101,1,59.9999981689454
272,248,21571,2,0,B|302:247|346:219,1,59.9999981689454
168,192,21871,6,0,B|152:166|106:141,1,59.9999981689454
184,296,22171,1,0,0:0:0:0:
64,104,22321,2,0,B|49:130|50:182,1,59.9999981689454
144,32,22621,1,0,0:0:0:0:
272,56,22771,5,0,0:0:0:0:
408,24,22921,1,0,0:0:0:0:
456,152,23071,1,0,0:0:0:0:
384,256,23221,5,0,0:0:0:0:
381,227,23296,1,0,0:0:0:0:
377,196,23371,1,0,0:0:0:0:
368,168,23446,1,0,0:0:0:0:
355,140,23521,1,0,0:0:0:0:
338,115,23596,1,0,0:0:0:0:
312,88,23671,6,0,B|342:86|342:86|370:76,1,59.9999981689454
216,48,23971,1,0,0:0:0:0:
296,224,24121,2,0,B|282:198|256:179,1,59.9999981689454
304,328,24421,1,0,0:0:0:0:
408,192,24571,6,0,B|437:192|466:180,1,59.9999981689454
352,40,24871,2,0,B|336:65|333:96,1,59.9999981689454
504,64,25171,2,0,B|490:38|464:19,1,59.9999981689454
408,192,25471,6,0,B|392:217|389:248,1,59.9999981689454
496,136,25771,1,0,0:0:0:0:
256,224,25921,2,0,B|285:224|314:212,1,59.9999981689454
160,176,26221,1,0,0:0:0:0:
304,288,26371,5,0,0:0:0:0:
264,136,26521,1,0,0:0:0:0:
336,296,26671,1,0,0:0:0:0:
424,176,26821,1,0,0:0:0:0:
272,216,26971,1,0,0:0:0:0:
432,144,27121,1,0,0:0:0:0:
200,248,27271,6,0,B|186:222|160:203,1,59.9999981689454
200,352,27571,1,0,0:0:0:0:
248,88,27721,2,0,B|232:113|229:144,1,59.9999981689454
328,24,28021,1,0,0:0:0:0:
144,120,28171,6,0,B|130:94|104:75,1,59.9999981689454
304,184,28471,2,0,B|333:184|362:172,1,59.9999981689454
160,280,28771,2,0,B|144:305|141:336,1,59.9999981689454
216,208,29071,1,0,0:0:0:0:
120,192,29221,5,0,0:0:0:0:
197,122,29371,1,0,0:0:0:0:
27,136,29521,1,0,0:0:0:0:
157,23,29671,1,0,0:0:0:0:
51,32,29821,1,0,0:0:0:0:
263,14,29971,5,0,0:0:0:0:
296,144,30121,1,0,0:0:0:0:
157,23,30271,1,0,0:0:0:0:
328,128,30421,1,0,0:0:0:0:
192,224,30571,5,0,0:0:0:0:
182,252,30646,1,0,0:0:0:0:
173,280,30721,1,0,0:0:0:0:
163,309,30796,1,0,0:0:0:0:
155,336,30871,6,0,B|205:335|205:335|283:353,1,104.999996795654
258,347,31171,1,0,0:0:0:0:
408,280,31321,2,0,L|421:201,2,69.9999978637696
280,112,31771,6,0,L|384:130,1,104.999996795654
321,175,32071,2,0,L|216:176,1,104.999996795654
168,248,32371,2,0,L|271:229,1,104.999996795654
352,288,32671,6,0,L|365:366,2,69.9999978637696
264,304,33121,1,0,0:0:0:0:
176,320,33271,1,0,0:0:0:0:
88,336,33421,1,0,0:0:0:0:
120,248,33571,6,0,L|101:144,1,104.999996795654
101,144,33871,1,0,0:0:0:0:
184,192,34021,1,0,0:0:0:0:
40,224,34171,1,0,0:0:0:0:
176,112,34321,1,0,0:0:0:0:
200,280,34471,6,0,B|249:270|249:270|329:274,1,104.999996795654
303,272,34771,1,0,0:0:0:0:
360,128,34921,2,0,L|347:57,2,69.9999978637696
480,240,35371,6,0,L|369:220,1,104.999996795654
288,176,35671,2,0,L|184:194,1,104.999996795654
104,248,35971,2,0,L|0:229,1,104.999996795654
72,152,36271,6,0,L|88:56,2,69.9999978637696
160,120,36721,1,0,0:0:0:0:
248,88,36871,1,0,0:0:0:0:
336,48,37021,1,0,0:0:0:0:
316,147,37171,6,0,P|306:184|304:216,1,69.9999978637696
304,312,37471,1,0,0:0:0:0:
416,200,37621,1,0,0:0:0:0:
208,168,37771,2,0,L|113:151,1,69.9999978637696
303,215,38071,6,0,B|328:168|328:168|389:112,1,104.999996795654
344,288,38371,2,0,B|280:288|280:288|211:264,1,104.999996795654
241,274,38671,1,0,0:0:0:0:
96,360,38821,2,0,B|128:296|128:296|182:257,1,104.999996795654
155,276,39121,1,0,0:0:0:0:
16,360,39271,1,0,0:0:0:0:
303,197,39571,1,0,0:0:0:0:
16,288,39871,6,0,B|14:234|14:234|39:155,1,104.999996795654
64,96,40171,2,0,B|113:147|113:147|131:212,1,104.999996795654
121,179,40471,1,0,0:0:0:0:
200,280,40621,2,0,B|249:228|249:228|267:163,1,104.999996795654
258,195,40921,1,0,0:0:0:0:
344,95,41071,2,0,B|344:229,1,104.999996795654
424,296,41371,2,0,B|420:243|420:243|423:162,1,104.999996795654
472,368,41671,6,0,B|418:370|418:370|339:345,1,104.999996795654
369,354,41971,1,0,0:0:0:0:
273,322,42121,1,0,0:0:0:0:
185,354,42271,1,0,0:0:0:0:
97,314,42421,1,0,0:0:0:0:
0,200,42571,6,0,B|54:198|54:198|133:223,1,104.999996795654
103,214,42871,1,0,0:0:0:0:
208,160,43021,1,0,0:0:0:0:
320,200,43171,1,0,0:0:0:0:
425,146,43321,1,0,0:0:0:0:
416,264,43471,6,0,B|409:314|420:366,1,69.9999978637696,0|0,2:0|2:0,2:0:0:0:
488,200,43771,1,0,0:0:0:0:
328,280,43921,1,0,0:0:0:0:
425,146,44071,1,0,0:0:0:0:
320,200,44221,1,0,0:0:0:0:
259,60,44371,6,0,B|296:72|320:96,1,69.9999978637696,0|0,2:0|2:0,2:0:0:0:
160,80,44671,1,0,0:0:0:0:
156,45,44746,1,0,0:0:0:0:
160,10,44821,1,0,0:0:0:0:
232,160,44971,5,0,0:0:0:0:
200,183,45046,1,0,0:0:0:0:
163,200,45121,1,0,0:0:0:0:
124,209,45196,1,0,0:0:0:0:
84,210,45271,6,0,B|97:172|97:172|101:100,1,80
0,288,45571,1,0,0:0:0:0:
168,280,45721,1,0,0:0:0:0:
16,376,45871,1,0,0:0:0:0:
8,208,46021,1,0,0:0:0:0:
200,296,46171,6,0,L|294:279,1,80
88,320,46471,1,0,0:0:0:0:
256,360,46621,1,0,0:0:0:0:
312,184,46771,2,0,L|390:198,1,80
176,184,47071,6,0,L|65:203,1,80
280,160,47371,1,0,0:0:0:0:
200,24,47521,1,0,0:0:0:0:
352,24,47671,1,0,0:0:0:0:
216,104,47821,1,0,0:0:0:0:
360,192,47971,6,0,L|446:207,1,80
368,64,48271,1,0,0:0:0:0:
272,192,48421,1,0,0:0:0:0:
312,344,48571,5,0,0:0:0:0:
295,307,48646,1,0,0:0:0:0:
269,277,48721,1,0,0:0:0:0:
234,257,48796,1,0,0:0:0:0:
192,248,48871,6,0,B|193:208|193:208|204:169,1,80
208,360,49171,1,0,0:0:0:0:
88,256,49321,1,0,0:0:0:0:
204,169,49471,1,0,0:0:0:0:
88,280,49621,1,0,0:0:0:0:
248,256,49771,6,0,L|350:274,1,80
200,376,50071,1,0,0:0:0:0:
144,224,50221,1,0,0:0:0:0:
288,160,50371,2,0,L|185:141,1,80
336,40,50671,5,0,0:0:0:0:
392,192,50821,1,0,0:0:0:0:
416,32,50971,1,0,0:0:0:0:
264,88,51121,1,0,0:0:0:0:
424,104,51271,2,0,L|321:122,1,80
512,136,51571,1,0,0:0:0:0:
328,40,51721,1,0,0:0:0:0:
336,247,51871,1,0,0:0:0:0:
216,136,52021,5,0,0:0:0:0:
192,168,52096,1,0,0:0:0:0:
163,195,52171,1,0,0:0:0:0:
129,217,52246,1,0,0:0:0:0:
92,232,52321,1,0,0:0:0:0:
53,240,52396,1,0,0:0:0:0:
16,236,52471,6,0,B|15:196|15:196|3:157,1,80
0,352,52771,1,0,0:0:0:0:
200,264,52921,2,0,B|165:284|138:313,1,80
320,240,53221,1,0,0:0:0:0:
232,96,53371,6,0,B|230:55|219:17,1,80
352,152,53671,2,0,B|387:171|425:180,1,80
240,224,53971,2,0,B|205:244|178:273,1,80
157,67,54271,6,0,B|192:86|230:95,1,80
88,8,54571,1,0,0:0:0:0:
160,184,54721,2,0,B|125:204|98:233,1,80
280,160,55021,1,0,0:0:0:0:
168,24,55171,6,0,B|203:43|241:52,1,80
64,40,55471,2,0,B|29:60|2:89,1,80
152,248,55771,2,0,B|150:207|139:169,1,80
72,352,56071,6,0,B|107:371|145:380,1,80
8,240,56371,1,0,0:0:0:0:
128,80,56521,2,0,B|93:100|66:129,1,80
248,80,56821,1,0,0:0:0:0:
136,232,56971,6,0,B|171:251|209:260,1,80
40,272,57271,2,0,B|38:231|27:193,1,80
128,328,57571,2,0,B|93:348|66:377,1,80
232,360,57871,5,0,0:0:0:0:
128,240,58021,1,0,0:0:0:0:
296,320,58171,1,0,0:0:0:0:
177,182,58321,2,0,B|175:141|164:103,1,80
192,304,58621,1,0,0:0:0:0:
352,152,58771,1,0,0:0:0:0:
141,90,58921,5,0,0:0:0:0:
112,80,58996,1,0,0:0:0:0:
88,72,59071,1,0,0:0:0:0:
112,224,59221,1,0,0:0:0:0:
117,254,59296,1,0,0:0:0:0:
122,278,59371,1,0,0:0:0:0:
248,184,59521,1,0,0:0:0:0:
271,164,59596,1,0,0:0:0:0:
289,145,59671,6,0,B|288:196|288:196|308:255,1,100
344,48,59971,1,0,0:0:0:0:
160,136,60121,5,0,0:0:0:0:
203,112,60196,1,0,0:0:0:0:
238,76,60271,1,0,0:0:0:0:
56,32,60421,1,0,0:0:0:0:
108,211,60571,5,0,0:0:0:0:
24,24,60721,1,0,0:0:0:0:
195,144,60871,1,0,0:3:0:0:
16,196,61021,1,0,0:3:0:0:
203,112,61171,1,0,0:3:0:0:
203,112,61621,5,0,0:3:0:0:
182,315,61771,2,0,P|232:328|304:312,1,100
64,168,62071,2,0,P|93:208|106:256,1,100
0,88,62371,5,0,0:0:0:0:
168,176,62521,1,0,0:0:0:0:
0,312,62671,2,0,P|19:266|55:231,1,100
296,200,62971,2,0,L|162:176,1,100,0|0,0:3|0:3,0:3:0:0:
112,168,63196,1,0,0:0:0:0:
112,168,63271,6,0,P|106:118|119:70,1,100
168,280,63571,1,0,0:0:0:0:
0,189,63721,1,0,0:0:0:0:
26,146,63796,1,0,0:0:0:0:
63,114,63871,1,0,0:0:0:0:
88,320,64021,1,0,0:0:0:0:
144,120,64171,5,0,0:0:0:0:
168,280,64321,1,0,0:0:0:0:
224,128,64471,1,0,0:0:0:0:
240,240,64621,1,0,0:0:0:0:
256,352,64771,5,0,0:0:0:0:
344,224,64921,1,0,0:0:0:0:
224,32,65071,2,0,P|269:51|304:87,1,100
160,296,65371,2,0,P|154:246|167:198,1,100
424,264,65671,5,0,0:0:0:0:
232,128,65821,1,0,0:0:0:0:
253,173,65896,1,0,0:0:0:0:
260,221,65971,1,0,0:0:0:0:
112,80,66121,1,0,0:0:0:0:
308,22,66271,5,0,0:0:0:0:
260,221,66421,1,0,0:0:0:0:
192,0,66571,2,0,L|224:104,1,100
144,288,66871,6,0,B|145:237|145:237|129:190,1,100
88,376,67171,1,0,0:0:0:0:
240,248,67321,1,0,0:0:0:0:
235,297,67396,1,0,0:0:0:0:
217,342,67471,1,0,0:0:0:0:
232,144,67621,1,0,0:0:0:0:
408,232,67771,5,0,0:0:0:0:
224,112,67921,1,0,0:0:0:0:
416,112,68071,1,0,0:0:0:0:
328,288,68221,1,0,0:0:0:0:
448,104,68371,1,0,0:0:0:0:
448,104,68821,5,0,0:0:0:0:
256,256,68971,2,0,P|303:243|343:213,1,100
112,200,69271,2,0,P|99:248|105:297,1,100
200,104,69571,5,0,0:0:0:0:
8,136,69721,1,0,0:0:0:0:
192,208,69871,2,0,P|239:195|279:165,1,100
88,176,70171,2,0,L|70:77,1,100
144,64,70396,1,0,0:0:0:0:
151,63,70471,6,0,P|199:74|248:66,1,100
32,16,70771,1,0,0:0:0:0:
160,240,70921,1,0,0:0:0:0:
162,191,70996,1,0,0:0:0:0:
151,144,71071,1,0,0:0:0:0:
120,352,71221,1,0,0:0:0:0:
280,248,71371,5,0,0:0:0:0:
88,272,71521,1,0,0:0:0:0:
232,176,71671,1,0,0:0:0:0:
64,192,71821,1,0,0:0:0:0:
368,88,71971,6,0,P|334:124|316:170,1,100
464,376,72271,2,0,P|449:328|418:289,1,100
160,312,72571,2,0,P|208:323|257:315,1,100
432,176,72871,1,0,0:0:0:0:
288,296,73021,1,0,0:0:0:0:
424,88,73171,1,0,0:0:0:0:
216,256,73321,5,0,0:0:0:0:
254,223,73396,1,0,0:0:0:0:
292,191,73471,1,0,0:0:0:0:
120,240,73621,1,0,0:0:0:0:
126,289,73696,1,0,0:0:0:0:
150,332,73771,1,0,0:0:0:0:
192,160,73921,1,0,0:0:0:0:
145,142,73996,1,0,0:0:0:0:
98,125,74071,6,0,B|109:75|109:75|104:8,1,100
32,216,74371,1,0,0:0:0:0:
200,88,74521,1,0,0:0:0:0:
16,152,74671,2,0,P|50:187|96:207,1,100
352,192,74971,2,0,P|303:204|264:234,1,100
152,352,75271,5,0,0:0:0:0:
161,302,75346,1,0,0:0:0:0:
171,253,75421,1,0,0:0:0:0:
181,204,75496,1,0,0:0:0:0:
190,155,75571,2,0,P|144:135|110:100,1,100
367,109,75871,2,0,P|319:122|280:152,1,100
480,104,76171,5,0,0:0:0:0:
446,141,76246,1,0,0:0:0:0:
413,179,76321,1,0,0:0:0:0:
380,217,76396,1,0,0:0:0:0:
347,255,76471,2,0,P|376:294|389:342,1,100
240,224,76771,5,0,0:0:0:0:
464,320,76921,1,0,0:0:0:0:
296,176,77071,1,0,0:0:0:0:
464,248,77221,1,0,0:0:0:0:
352,120,77371,1,0,0:0:0:0:
280,288,77521,1,0,0:0:0:0:
432,72,77671,6,0,B|389:45|389:45|320:24,1,100
488,160,77971,1,0,0:0:0:0:
296,176,78121,1,0,0:0:0:0:
496,120,78271,1,0,0:0:0:0:
512,312,78421,1,0,0:0:0:0:
302,242,78571,6,0,P|321:196|357:161,1,100
336,336,78871,1,0,0:0:0:0:
312,72,79021,1,0,0:0:0:0:
208,240,79171,2,0,P|237:279|250:327,1,100
96,192,79471,5,0,0:0:0:0:
288,152,79621,1,0,0:0:0:0:
238,157,79696,1,0,0:0:0:0:
190,144,79771,1,0,0:0:0:0:
376,88,79921,1,0,0:0:0:0:
272,296,80071,6,0,P|291:250|327:215,1,100
365,294,80296,1,0,0:0:0:0:
365,294,80371,2,0,L|464:312,1,100
392,192,80671,5,0,0:0:0:0:
362,153,80746,1,0,0:0:0:0:
314,145,80821,1,0,0:0:0:0:
273,171,80896,1,0,0:0:0:0:
221,230,80971,5,0,0:0:0:0:
190,268,81046,1,0,0:0:0:0:
143,282,81121,1,0,0:0:0:0:
96,264,81196,1,0,0:0:0:0:
74,227,81271,6,0,B|81:175|81:175|72:114,1,100
16,320,81571,1,0,0:0:0:0:
152,184,81721,1,0,0:0:0:0:
184,360,81871,2,0,P|134:366|86:352,1,100
304,240,82171,2,0,P|334:279|346:328,1,100
152,184,82471,5,0,0:0:0:0:
194,157,82546,1,0,0:0:0:0:
236,130,82621,1,0,0:0:0:0:
278,103,82696,1,0,0:0:0:0:
320,75,82771,2,0,P|355:110|402:127,1,100
472,312,83071,2,0,P|483:263|475:214,1,100
368,368,83371,5,0,0:0:0:0:
318,359,83446,1,0,0:0:0:0:
269,350,83521,1,0,0:0:0:0:
220,341,83596,1,0,0:0:0:0:
171,333,83671,2,0,P|163:283|176:235,1,100
240,32,83971,6,0,L|259:142,1,100
160,16,84271,1,0,0:0:0:0:
336,152,84421,1,0,0:0:0:0:
192,56,84571,1,0,0:0:0:0:
56,232,84721,1,0,0:0:0:0:
304,192,84871,6,0,B|298:242|298:242|304:320,1,100
384,96,85171,1,0,0:0:0:0:
224,208,85321,1,0,0:0:0:0:
392,344,85471,2,0,P|399:294|386:246,1,100
136,256,85771,2,0,P|174:287|222:300,1,100
128,152,86071,5,0,0:0:0:0:
144,360,86221,1,0,0:0:0:0:
296,152,86371,2,0,P|249:170|214:204,1,100
400,152,86671,5,0,0:0:0:0:
472,328,86821,1,0,0:0:0:0:
479,278,86896,1,0,0:0:0:0:
466,230,86971,1,0,0:0:0:0:
360,384,87121,1,0,0:0:0:0:
392,192,87271,1,0,0:0:0:0:
312,328,87421,1,0,0:0:0:0:
264,346,87496,1,0,0:0:0:0:
213,344,87571,6,0,P|224:295|216:247,1,100
136,292,87796,1,0,0:0:0:0:
136,292,87871,2,0,L|17:268,1,100
42,195,88096,1,0,0:0:0:0:
42,195,88171,2,0,P|89:205|138:197,1,100
280,104,88471,6,0,B|272:160|272:160|280:224,1,100
352,32,88771,1,0,0:0:0:0:
96,112,88921,1,0,0:0:0:0:
144,122,88996,1,0,0:0:0:0:
193,113,89071,1,0,0:0:0:0:
16,56,89221,1,0,0:0:0:0:
112,216,89371,5,0,0:0:0:0:
48,32,89521,1,0,0:0:0:0:
64,272,89671,1,0,0:0:0:0:
224,176,89821,1,0,0:0:0:0:
40,240,89971,1,0,0:0:0:0:
40,240,90421,5,0,0:0:0:0:
168,56,90571,2,0,P|135:91|118:138,1,100
280,224,90871,2,0,P|265:178|233:139,1,100
256,336,91171,1,0,0:0:0:0:
328,144,91321,1,0,0:0:0:0:
80,232,91471,6,0,B|112:224|112:224|144:232|144:232|184:224,1,100
456,280,91771,2,0,L|361:311,1,100
392,216,91996,1,0,0:0:0:0:
392,216,92071,6,0,P|435:195|485:192,1,100
336,328,92371,1,0,0:0:0:0:
360,80,92521,1,0,0:0:0:0:
355,129,92596,1,0,0:0:0:0:
332,173,92671,1,0,0:0:0:0:
312,0,92821,1,0,0:0:0:0:
248,208,92971,5,0,0:0:0:0:
224,24,93121,1,0,0:0:0:0:
160,192,93271,1,0,0:0:0:0:
136,24,93421,1,0,0:0:0:0:
72,160,93571,1,0,0:0:0:0:
8,296,93721,1,0,0:0:0:0:
248,200,93871,6,0,P|227:243|191:277,1,100
216,64,94171,2,0,P|263:59|311:73,1,100
120,128,94471,1,0,0:0:0:0:
392,72,94621,1,0,0:0:0:0:
370,116,94696,1,0,0:0:0:0:
334,150,94771,1,0,0:0:0:0:
424,0,94921,1,0,0:0:0:0:
400,192,95071,5,0,0:0:0:0:
376,344,95221,1,0,0:0:0:0:
280,216,95371,1,0,0:0:0:0:
304,368,95521,1,0,0:0:0:0:
216,80,95671,6,0,B|205:130|205:130|208:200,1,100
296,16,95971,1,0,0:0:0:0:
83,197,96121,1,0,0:0:0:0:
124,169,96196,1,0,0:0:0:0:
152,128,96271,1,0,0:0:0:0:
8,248,96421,1,0,0:0:0:0:
88,64,96571,5,0,0:0:0:0:
32,272,96721,1,0,0:0:0:0:
208,176,96871,1,0,0:0:0:0:
24,96,97021,1,0,0:0:0:0:
232,152,97171,1,0,0:0:0:0:
232,152,97621,5,0,0:0:0:0:
384,296,97771,2,0,P|337:301|289:287,1,100
304,64,98071,2,0,P|331:102|343:150,1,100
192,16,98371,1,0,0:0:0:0:
384,32,98521,1,0,0:0:0:0:
200,224,98671,6,0,P|219:180|255:146,1,100
512,144,98971,2,0,L|378:167,1,100
344,96,99196,1,0,0:0:0:0:
344,96,99271,6,0,P|298:83|259:52,1,100
448,72,99571,1,0,0:0:0:0:
280,264,99721,1,0,0:0:0:0:
296,217,99796,1,0,0:0:0:0:
329,180,99871,1,0,0:0:0:0:
312,376,100021,1,0,0:0:0:0:
176,248,100171,5,0,0:0:0:0:
368,256,100321,1,0,0:0:0:0:
224,192,100471,1,0,0:0:0:0:
96,136,100621,1,0,0:0:0:0:
96,136,100696,1,0,0:0:0:0:
96,136,100771,6,0,P|115:93|152:59,1,100
256,328,101071,2,0,P|208:332|161:317,1,100
328,88,101371,2,0,P|355:126|366:175,1,100
368,384,101671,6,0,L|348:273,1,100
280,216,101896,1,0,0:0:0:0:
280,216,101971,2,0,L|186:181,1,100
272,128,102196,1,0,0:0:0:0:
272,128,102271,2,0,L|348:63,1,100
360,176,102496,1,0,0:0:0:0:
360,176,102571,2,0,L|377:274,1,100
