osu file format v14

[General]
AudioFilename: audio.mp3
AudioLeadIn: 0
PreviewTime: 43330
Countdown: 1
SampleSet: Normal
StackLeniency: 0.2
Mode: 0
LetterboxInBreaks: 0
WidescreenStoryboard: 0

[Editor]
DistanceSpacing: 0.5
BeatDivisor: 4
GridSize: 32
TimelineZoom: 2.3

[Metadata]
Title:Despair of ELFERIA
TitleUnicode:Despair of ELFERIA
Artist:Nekomata Master
ArtistUnicode:猫叉Master
Creator:Perseus
Version:Misery
Source:
Tags:
BeatmapID:1033939
BeatmapSetID:484724

[Difficulty]
HPDrainRate:4
CircleSize:4.1
OverallDifficulty:8.5
ApproachRate:9.7
SliderMultiplier:2
SliderTickRate:1

[Events]
//Background and Video events
0,0,"bg.jpg",0,0
//Break Periods
//Storyboard Layer 0 (Background)
//Storyboard Layer 1 (Fail)
//Storyboard Layer 2 (Pass)
//Storyboard Layer 3 (Foreground)
//Storyboard Layer 4 (Overlay)
//Storyboard Sound Samples

[TimingPoints]
1257,292.682926829268,4,2,1,100,1,0
15013,-100,4,1,1,100,0,0
15305,-133.333333333333,4,1,3,100,0,0
17061,-133.333333333333,4,1,3,5,0,0
18817,-133.333333333333,4,1,3,100,0,0
20574,-133.333333333333,4,1,3,5,0,0
21891,-133.333333333333,4,1,1,100,0,0
22330,-133.333333333333,4,1,1,100,0,0
22403,-133.333333333333,4,1,1,100,0,0
22622,-133.333333333333,4,1,2,100,0,0
22696,-133.333333333333,4,1,1,100,0,0
23500,-133.333333333333,4,1,2,100,0,0
23574,-133.333333333333,4,1,1,100,0,0
24378,-133.333333333333,4,1,2,100,0,0
24452,-133.333333333333,4,1,1,100,0,0
25256,-133.333333333333,4,1,2,100,0,0
25330,-133.333333333333,4,1,1,100,0,0
26135,-133.333333333333,4,1,2,100,0,0
26208,-133.333333333333,4,1,1,100,0,0
27013,-133.333333333333,4,1,2,100,0,0
27086,-133.333333333333,4,1,1,100,0,0
27159,-100,4,1,1,100,0,0
29354,-83.3333333333333,4,1,1,100,0,0
31696,-83.3333333333333,4,1,1,100,0,0
31769,-83.3333333333333,4,1,1,5,0,0
31842,-83.3333333333333,4,1,1,100,0,0
31915,-83.3333333333333,4,1,1,5,0,0
31988,-83.3333333333333,4,1,1,100,0,0
32061,-83.3333333333333,4,1,1,5,0,0
32135,-83.3333333333333,4,1,1,100,0,0
32208,-83.3333333333333,4,1,1,5,0,0
32281,-83.3333333333333,4,1,1,100,0,0
32354,-83.3333333333333,4,1,1,5,0,0
32427,-83.3333333333333,4,1,1,100,0,0
32500,-83.3333333333333,4,1,1,5,0,0
32574,-83.3333333333333,4,1,1,100,0,0
32647,-83.3333333333333,4,1,1,5,0,0
32720,-83.3333333333333,4,1,1,100,0,0
32793,-83.3333333333333,4,1,1,5,0,0
32866,-83.3333333333333,4,1,1,100,0,0
35500,-83.3333333333333,4,1,1,100,0,0
35574,-83.3333333333333,4,1,1,5,0,0
35647,-83.3333333333333,4,1,1,100,0,0
35720,-83.3333333333333,4,1,1,5,0,0
35793,-83.3333333333333,4,1,1,100,0,0
35866,-83.3333333333333,4,1,1,5,0,0
35939,-83.3333333333333,4,1,1,100,0,0
36013,-83.3333333333333,4,1,1,5,0,0
36086,-117.647058823529,4,1,1,100,0,0
36378,-83.3333333333333,4,1,1,100,0,0
38720,-83.3333333333333,4,1,1,100,0,0
38793,-83.3333333333333,4,1,1,5,0,0
38866,-83.3333333333333,4,1,1,100,0,0
38939,-83.3333333333333,4,1,1,5,0,0
39012,-83.3333333333333,4,1,1,100,0,0
39085,-83.3333333333333,4,1,1,5,0,0
39159,-83.3333333333333,4,1,1,100,0,0
39232,-83.3333333333333,4,1,1,5,0,0
39305,-83.3333333333333,4,1,1,100,0,0
39378,-83.3333333333333,4,1,1,5,0,0
39451,-83.3333333333333,4,1,1,100,0,0
39524,-83.3333333333333,4,1,1,5,0,0
39598,-83.3333333333333,4,1,1,100,0,0
39671,-83.3333333333333,4,1,1,5,0,0
39744,-83.3333333333333,4,1,1,100,0,0
39817,-83.3333333333333,4,1,1,5,0,0
39890,-83.3333333333333,4,1,1,100,0,0
42232,-83.3333333333333,4,1,1,100,0,0
42305,-83.3333333333333,4,1,1,5,0,0
42378,-83.3333333333333,4,1,1,100,0,0
42451,-83.3333333333333,4,1,1,5,0,0
42524,-83.3333333333333,4,1,1,100,0,0
42597,-83.3333333333333,4,1,1,5,0,0
42671,-83.3333333333333,4,1,1,100,0,0
42744,-83.3333333333333,4,1,1,5,0,0
42817,-83.3333333333333,4,1,1,100,0,0
42963,-83.3333333333333,4,1,1,100,0,0
43036,-83.3333333333333,4,1,1,5,0,0
43110,-83.3333333333333,4,1,1,100,0,0
43183,-83.3333333333333,4,1,1,5,0,0
43256,-83.3333333333333,4,1,1,100,0,0
43329,-83.3333333333333,4,1,1,5,0,0
43402,-83.3333333333333,4,1,1,100,0,0
46403,-83.3333333333333,4,1,1,5,0,0
46476,-83.3333333333333,4,1,1,100,0,0
46549,-83.3333333333333,4,1,1,5,0,0
46622,-83.3333333333333,4,1,1,100,0,0
55696,-74.0740740740741,4,1,1,100,0,0
56866,-74.0740740740741,4,1,1,100,0,0
56939,-74.0740740740741,4,1,1,5,0,0
57013,-74.0740740740741,4,1,1,100,0,0
57086,-74.0740740740741,4,1,1,5,0,0
57159,-74.0740740740741,4,1,1,100,0,0
57232,-74.0740740740741,4,1,1,5,0,0
57305,-74.0740740740741,4,1,1,100,0,0
57378,-74.0740740740741,4,1,1,5,0,0
57452,-66.6666666666667,4,1,1,100,0,0
59500,-83.3333333333333,4,1,1,100,0,0
59573,-83.3333333333333,4,1,1,5,0,0
59646,-83.3333333333333,4,1,1,100,0,0
59719,-83.3333333333333,4,1,1,5,0,0
59792,-83.3333333333333,4,1,1,100,0,0
59865,-83.3333333333333,4,1,1,5,0,0
59939,-83.3333333333333,4,1,1,100,0,0
60012,-83.3333333333333,4,1,1,5,0,0
60085,-83.3333333333333,4,1,1,100,0,0
60158,-83.3333333333333,4,1,1,5,0,0
60231,-83.3333333333333,4,1,1,100,0,0
60304,-83.3333333333333,4,1,1,5,0,0
60378,-83.3333333333333,4,1,1,100,0,0
60451,-83.3333333333333,4,1,1,5,0,0
60524,-83.3333333333333,4,1,1,100,0,0
60597,-83.3333333333333,4,1,1,5,0,0
60670,-83.3333333333333,4,1,1,100,0,0
63891,-83.3333333333333,4,1,1,100,0,0
63964,-83.3333333333333,4,1,1,5,0,0
64037,-83.3333333333333,4,1,1,100,0,0
64110,-83.3333333333333,4,1,1,5,0,0
64183,-83.3333333333333,4,1,1,100,0,0
64256,-83.3333333333333,4,1,1,5,0,0
64330,-83.3333333333333,4,1,1,100,0,0
64403,-83.3333333333333,4,1,1,5,0,0
64476,-83.3333333333333,4,1,1,100,0,0
66525,-83.3333333333333,4,1,1,100,0,0
66598,-83.3333333333333,4,1,1,5,0,0
66671,-83.3333333333333,4,1,1,100,0,0
66744,-83.3333333333333,4,1,1,5,0,0
66817,-83.3333333333333,4,1,1,100,0,0
66890,-83.3333333333333,4,1,1,5,0,0
66964,-83.3333333333333,4,1,1,100,0,0
67037,-83.3333333333333,4,1,1,5,0,0
67110,-83.3333333333333,4,1,1,100,0,0
67183,-83.3333333333333,4,1,1,5,0,0
67256,-83.3333333333333,4,1,1,100,0,0
67329,-83.3333333333333,4,1,1,5,0,0
67403,-83.3333333333333,4,1,1,100,0,0
67476,-83.3333333333333,4,1,1,5,0,0
67549,-83.3333333333333,4,1,1,100,0,0
67622,-83.3333333333333,4,1,1,5,0,0
67695,-83.3333333333333,4,1,1,100,0,0
69454,-83.3333333333333,4,1,1,100,0,0
69525,-83.3333333333333,4,1,1,5,0,0
69598,-83.3333333333333,4,1,1,100,0,0
69671,-83.3333333333333,4,1,1,5,0,0
69744,-83.3333333333333,4,1,1,100,0,0
69817,-83.3333333333333,4,1,1,5,0,0
69891,-74.0740740740741,4,1,1,100,0,0
69964,-74.0740740740741,4,1,1,5,0,0
70037,-74.0740740740741,4,1,1,100,0,0
70110,-74.0740740740741,4,1,1,5,0,0
70183,-74.0740740740741,4,1,1,100,0,0
70256,-74.0740740740741,4,1,1,5,0,0
70330,-66.6666666666667,4,1,1,100,0,0
70403,-66.6666666666667,4,1,1,5,0,0
70476,-66.6666666666667,4,1,1,100,0,0
70549,-66.6666666666667,4,1,1,5,0,0
70622,-66.6666666666667,4,1,1,100,0,0
70696,-66.6666666666667,4,1,1,5,0,0
70769,-60.6060606060606,4,1,1,100,0,0
70842,-60.6060606060606,4,1,1,5,0,0
70915,-60.6060606060606,4,1,1,100,0,0
70988,-60.6060606060606,4,1,1,5,0,0
71061,-60.6060606060606,4,1,1,100,0,0
71135,-60.6060606060606,4,1,1,5,0,0
71208,-50,4,1,1,100,0,0
71500,-83.3333333333333,4,1,1,100,0,0
72964,-83.3333333333333,4,1,1,5,0,0
73037,-83.3333333333333,4,1,1,100,0,0
74720,-83.3333333333333,4,1,1,5,0,0
74793,-83.3333333333333,4,1,1,100,0,0
76476,-83.3333333333333,4,1,1,100,0,0
76622,-83.3333333333333,4,1,1,5,0,0
76769,-83.3333333333333,4,1,1,100,0,0
79988,-83.3333333333333,4,1,1,5,0,0
80061,-83.3333333333333,4,1,1,100,0,0
82915,-83.3333333333333,4,1,1,46,0,0
83061,-83.3333333333333,4,1,1,57,0,0
83208,-83.3333333333333,4,1,1,68,0,0
83354,-83.3333333333333,4,1,1,79,0,0
83500,-83.3333333333333,4,1,1,90,0,0
85549,-66.6666666666667,4,1,1,100,0,1
87452,-66.6666666666667,4,1,1,100,0,1
87525,-66.6666666666667,4,1,1,5,0,1
87598,-66.6666666666667,4,1,1,100,0,1
87671,-66.6666666666667,4,1,1,5,0,1
87744,-66.6666666666667,4,1,1,100,0,1
87817,-66.6666666666667,4,1,1,5,0,1
87891,-66.6666666666667,4,1,1,100,0,1
87964,-66.6666666666667,4,1,1,5,0,1
88037,-66.6666666666667,4,1,1,100,0,1
88110,-66.6666666666667,4,1,1,5,0,1
88183,-66.6666666666667,4,1,1,100,0,1
88256,-66.6666666666667,4,1,1,5,0,1
88330,-66.6666666666667,4,1,1,100,0,1
88403,-66.6666666666667,4,1,1,5,0,1
88476,-66.6666666666667,4,1,1,100,0,1
88549,-66.6666666666667,4,1,1,5,0,1
88622,-66.6666666666667,4,1,1,100,0,1
88696,-66.6666666666667,4,1,1,5,0,1
88769,-66.6666666666667,4,1,1,100,0,1
91256,-66.6666666666667,4,1,1,100,0,1
91330,-66.6666666666667,4,1,1,5,0,1
91403,-66.6666666666667,4,1,1,100,0,1
91476,-66.6666666666667,4,1,1,5,0,1
91549,-66.6666666666667,4,1,1,100,0,1
91622,-66.6666666666667,4,1,1,5,0,1
91696,-66.6666666666667,4,1,1,100,0,1
91769,-66.6666666666667,4,1,1,5,0,1
91842,-66.6666666666667,4,1,1,100,0,1
91915,-66.6666666666667,4,1,1,5,0,1
91988,-66.6666666666667,4,1,1,100,0,1
92061,-66.6666666666667,4,1,1,5,0,1
92135,-66.6666666666667,4,1,1,100,0,1
92208,-66.6666666666667,4,1,1,5,0,1
92281,-66.6666666666667,4,1,1,100,0,1
92354,-66.6666666666667,4,1,1,5,0,1
92427,-66.6666666666667,4,1,1,100,0,1
94476,-66.6666666666667,4,1,1,100,0,1
94549,-66.6666666666667,4,1,1,5,0,1
94622,-66.6666666666667,4,1,1,100,0,1
94696,-66.6666666666667,4,1,1,5,0,1
94769,-66.6666666666667,4,1,1,100,0,1
94842,-66.6666666666667,4,1,1,5,0,1
94915,-66.6666666666667,4,1,1,100,0,1
94988,-66.6666666666667,4,1,1,5,0,1
95061,-66.6666666666667,4,1,1,100,0,1
95135,-66.6666666666667,4,1,1,5,0,1
95208,-66.6666666666667,4,1,1,100,0,1
95281,-66.6666666666667,4,1,1,5,0,1
95354,-66.6666666666667,4,1,1,100,0,1
95427,-66.6666666666667,4,1,1,5,0,1
95500,-66.6666666666667,4,1,1,100,0,1
95574,-66.6666666666667,4,1,1,5,0,1
95647,-66.6666666666667,4,1,1,100,0,1
95720,-66.6666666666667,4,1,1,5,0,1
95793,-66.6666666666667,4,1,1,100,0,1
95866,-66.6666666666667,4,1,1,5,0,1
95939,-66.6666666666667,4,1,1,100,0,1
96086,-66.6666666666667,4,1,1,100,0,0
96159,-66.6666666666667,4,1,69,100,0,0
96964,-66.6666666666667,4,1,1,100,0,0
97037,-66.6666666666667,4,1,69,100,0,0
97769,-66.6666666666667,4,1,69,100,0,0
97842,-66.6666666666667,4,1,1,100,0,0
97915,-66.6666666666667,4,1,69,100,0,0
98427,-66.6666666666667,4,1,1,100,0,0
98574,-66.6666666666667,4,1,1,100,0,0
98939,-66.6666666666667,4,1,1,5,0,0
99013,-66.6666666666667,4,1,1,100,0,0
99232,-66.6666666666667,4,1,1,5,0,0
99305,-66.6666666666667,4,1,1,100,0,0
99525,-66.6666666666667,4,1,1,5,0,0
99598,-50,4,1,1,100,0,1
101500,-50,4,1,1,100,0,1
101573,-50,4,1,1,5,0,1
101646,-50,4,1,1,100,0,1
101720,-50,4,1,1,5,0,1
101793,-50,4,1,1,100,0,1
101866,-50,4,1,1,5,0,1
101939,-50,4,1,1,100,0,1
102012,-50,4,1,1,5,0,1
102085,-50,4,1,1,100,0,1
102159,-50,4,1,1,5,0,1
102232,-50,4,1,1,100,0,1
102305,-50,4,1,1,5,0,1
102378,-50,4,1,1,100,0,1
102451,-50,4,1,1,5,0,1
102524,-50,4,1,1,100,0,1
102598,-50,4,1,1,5,0,1
102671,-50,4,1,1,100,0,1
102744,-50,4,1,1,5,0,1
102817,-50,4,1,1,100,0,1
103074,-50,4,1,1,5,0,1
103110,-50,4,1,1,100,0,1
105305,-50,4,1,1,100,0,1
105378,-50,4,1,1,5,0,1
105451,-50,4,1,1,100,0,1
105525,-50,4,1,1,5,0,1
105598,-50,4,1,1,100,0,1
105671,-50,4,1,1,5,0,1
105744,-50,4,1,1,100,0,1
105817,-50,4,1,1,5,0,1
105890,-50,4,1,1,100,0,1
105964,-50,4,1,1,5,0,1
106037,-50,4,1,1,100,0,1
106110,-50,4,1,1,5,0,1
106183,-50,4,1,1,100,0,1
106256,-50,4,1,1,5,0,1
106329,-50,4,1,1,100,0,1
106403,-50,4,1,1,5,0,1
106476,-50,4,1,1,100,0,1
106549,-50,4,1,1,5,0,1
106622,-50,4,1,1,100,0,1
108525,-50,4,1,1,100,0,1
108598,-50,4,1,1,5,0,1
108671,-50,4,1,1,100,0,1
108745,-50,4,1,1,5,0,1
108818,-50,4,1,1,100,0,1
108891,-50,4,1,1,5,0,1
108964,-50,4,1,1,100,0,1
109037,-50,4,1,1,5,0,1
109110,-50,4,1,1,100,0,1
109184,-50,4,1,1,5,0,1
109257,-50,4,1,1,100,0,1
109330,-50,4,1,1,5,0,1
109403,-50,4,1,1,100,0,1
109476,-50,4,1,1,5,0,1
109549,-50,4,1,1,100,0,1
109623,-50,4,1,1,5,0,1
109696,-50,4,1,1,100,0,1
109769,-50,4,1,1,5,0,1
109842,-151.515151515152,4,1,1,100,0,1
110099,-50,4,1,1,5,0,1
110135,-50,4,1,1,100,0,1
112037,-50,4,1,1,100,0,1
112110,-50,4,1,1,5,0,1
112183,-50,4,1,1,100,0,1
112256,-50,4,1,1,5,0,1
112330,-50,4,1,1,100,0,1
112403,-50,4,1,1,5,0,1
112476,-50,4,1,1,100,0,1
112549,-50,4,1,1,5,0,1
112622,-50,4,1,1,100,0,1
112696,-50,4,1,1,5,0,1
112769,-50,4,1,1,100,0,1
112842,-50,4,1,1,5,0,1
112915,-50,4,1,1,100,0,1
112988,-50,4,1,1,5,0,1
113061,-50,4,1,1,100,0,1
113135,-50,4,1,1,5,0,1
113208,-50,4,1,1,100,0,1
113281,-50,4,1,1,5,0,1
113354,-50,4,1,1,100,0,1
113427,-50,4,1,1,5,0,1
113500,-50,4,1,1,100,0,1
113574,-50,4,1,1,5,0,1
113647,-66.6666666666667,4,1,3,100,0,0
114964,-66.6666666666667,4,1,1,100,0,0
115110,-66.6666666666667,4,1,3,5,0,0
115183,-66.6666666666667,4,1,3,100,0,0
116720,-66.6666666666667,4,1,1,100,0,0
116866,-66.6666666666667,4,1,1,5,0,0
116939,-66.6666666666667,4,1,3,100,0,0
118476,-66.6666666666667,4,1,1,100,0,0
118622,-66.6666666666667,4,1,1,5,0,0
118696,-66.6666666666667,4,1,3,100,0,0
120671,-200,4,1,3,100,0,0
120817,-200,4,1,3,96,0,0
120964,-200,4,1,3,92,0,0
121110,-200,4,1,3,88,0,0
121256,-200,4,1,3,84,0,0
121403,-200,4,1,3,80,0,0
121549,-200,4,1,3,76,0,0
121696,-200,4,1,3,72,0,0
121842,-200,4,1,3,68,0,0
121988,-200,4,1,3,64,0,0
122135,-200,4,1,3,60,0,0
122281,-200,4,1,3,56,0,0
122427,-200,4,1,3,52,0,0
122574,-200,4,1,3,48,0,0
122720,-200,4,1,3,44,0,0
122866,-200,4,1,3,40,0,0
123013,-200,4,1,3,36,0,0
123159,-200,4,1,3,32,0,0
123305,-200,4,1,3,28,0,0
123452,-200,4,1,3,24,0,0
123598,-200,4,1,3,20,0,0
123744,-200,4,1,3,16,0,0
123891,-200,4,1,3,12,0,0
124037,-200,4,2,1,5,0,0

[HitObjects]
184,280,1257,6,0,L|192:152,1,100,2|0,0:0|0:0,0:0:0:0:
274,79,1549,1,0,0:0:0:0:
163,258,1696,2,0,L|204:136,1,100,2|0,0:0|0:0,0:0:0:0:
274,79,1988,1,0,0:0:0:0:
149,232,2135,6,0,L|220:125,1,100,2|0,0:0|0:0,0:0:0:0:
274,79,2427,6,0,L|331:194,1,100,2|0,0:0|0:0,0:0:0:0:
344,264,2720,6,0,L|216:256,1,100,2|0,0:0|0:0,0:0:0:0:
40,240,3013,6,0,P|64:168|84:152,1,100,2|0,0:0|0:0,0:0:0:0:
216,64,3305,1,0,0:0:0:0:
34,182,3452,2,0,P|76:119|100:108,1,100,2|0,0:0|0:0,0:0:0:0:
216,64,3744,1,0,0:0:0:0:
44,125,3891,6,0,P|101:75|127:71,1,100,2|0,0:0|0:0,0:0:0:0:
216,64,4183,6,0,P|231:138|221:162,1,100,2|0,0:0|0:0,0:0:0:0:
192,264,4476,6,0,P|119:240|104:220,1,100,2|0,0:0|0:0,0:0:0:0:
132,16,4769,6,0,L|248:32,1,100,2|0,0:0|0:0,0:0:0:0:
480,112,5061,1,0,0:0:0:0:
336,128,5208,2,0,L|220:144,1,100,2|0,0:0|0:0,0:0:0:0:
20,209,5500,1,0,0:0:0:0:
163,196,5647,6,0,L|283:184,1,100,2|0,0:0|0:0,0:0:0:0:
355,286,5939,6,0,L|235:274,1,100,2|0,0:0|0:0,0:0:0:0:
163,376,6232,6,0,L|283:364,1,100,2|0,0:0|0:0,0:0:0:0:
512,369,6525,6,0,B|459:355|459:355|425:318,1,100,2|0,0:0|0:0,0:0:0:0:
400,56,6817,1,0,0:0:0:0:
428,212,6964,2,0,B|376:197|376:197|320:216,1,100,2|0,0:0|0:0,0:0:0:0:
160,312,7256,1,0,0:0:0:0:
68,160,7403,6,0,B|120:175|120:175|176:156,1,100,2|0,0:0|0:0,0:0:0:0:
392,16,7696,6,0,B|340:1|340:1|284:20,1,100,2|0,0:0|0:0,0:0:0:0:
319,283,7988,5,2,0:0:0:0:
355,258,8061,1,0,0:0:0:0:
377,216,8135,1,0,0:0:0:0:
381,170,8208,1,0,0:0:0:0:
366,128,8281,1,4,0:0:0:0:
56,332,8574,5,0,0:0:0:0:
200,356,8720,2,0,L|328:380,1,100,2|0,0:0|0:0,0:0:0:0:
108,312,9013,5,0,0:0:0:0:
252,336,9159,6,0,L|380:360,1,100,2|0,0:0|0:0,0:0:0:0:
160,292,9452,6,0,L|32:268,1,100,2|0,0:0|0:0,0:0:0:0:
240,236,9744,6,0,L|368:212,1,100,2|0,0:0|0:0,0:0:0:0:
512,184,10037,6,0,P|474:152|470:103,1,100,2|0,0:0|0:0,0:0:0:0:
320,304,10330,1,0,0:0:0:0:
504,244,10476,2,0,P|476:203|485:155,1,100,2|0,0:0|0:0,0:0:0:0:
320,304,10769,1,0,0:0:0:0:
480,300,10915,6,0,P|463:254|484:209,1,100,2|0,0:0|0:0,0:0:0:0:
320,304,11208,6,0,P|367:312|395:352,1,100,2|0,0:0|0:0,0:0:0:0:
400,164,11500,6,0,P|368:201|319:205,1,100,2|0,0:0|0:0,0:0:0:0:
123,151,11793,6,0,B|167:151|167:151|191:159|191:159|239:159,1,100,2|0,0:0|0:0,0:0:0:0:
264,260,12086,1,0,0:0:0:0:
128,268,12232,2,0,B|84:268|84:268|60:276|60:276|12:276,1,100,2|0,0:0|0:0,0:0:0:0:
67,368,12525,1,0,0:0:0:0:
203,376,12671,6,0,B|247:376|247:376|271:384|271:384|319:384,1,100,2|0,0:0|0:0,0:0:0:0:
469,301,12964,6,0,B|425:301|425:301|401:309|401:309|353:309,1,100,2|0,0:0|0:0,0:0:0:0:
115,255,13256,6,0,B|159:255|159:255|183:263|183:263|231:263,1,100,2|0,0:0|0:0,0:0:0:0:
428,212,13549,6,0,P|360:164|336:172,1,100,2|0,0:0|0:0,0:0:0:0:
214,263,13842,1,0,0:0:0:0:
214,120,13988,1,2,0:0:0:0:
339,192,14135,1,0,0:0:0:0:
314,90,14281,5,0,0:0:0:0:
314,293,14427,1,2,0:0:0:0:
138,192,14574,1,0,0:0:0:0:
167,345,14720,5,2,0:0:0:0:
167,38,14866,1,2,0:0:0:0:
433,192,15013,5,2,0:0:0:0:
404,266,15086,1,0,0:0:0:0:
344,319,15159,1,0,0:0:0:0:
267,342,15232,1,0,0:0:0:0:
188,336,15305,6,0,P|128:218|223:356,1,900.000034332277,12|0,0:0|0:0,0:0:0:0:
240,361,18817,6,0,P|348:77|188:336,1,900.000034332277,12|0,0:0|0:0,0:0:0:0:
376,248,21891,5,0,0:0:0:0:
187,276,22037,1,0,3:0:0:0:
408,120,22183,5,0,3:0:0:0:
220,149,22330,2,0,L|124:163,2,75.0000028610231,8|0|0,0:0|0:0|0:0,0:0:0:0:
0,299,22769,2,0,L|96:285,2,75.0000028610231
332,244,23208,6,0,P|305:196|316:160,1,75.0000028610231
176,113,23500,2,0,P|231:113|256:141,1,75.0000028610231
367,44,23793,2,0,P|338:91|302:99,1,75.0000028610231,0|0,3:0|0:0,0:0:0:0:
93,245,24086,6,0,L|113:168,1,75.0000028610231,8|0,0:0|0:0,0:0:0:0:
265,384,24378,5,0,0:0:0:0:
190,277,24525,1,0,0:0:0:0:
320,265,24671,2,0,P|382:259|404:273,1,75.0000028610231
502,306,24964,2,0,B|506:267|506:267|495:223,1,75.0000028610231
490,88,25256,2,0,B|454:104|454:104|421:135,1,75.0000028610231
293,337,25549,1,0,3:0:0:0:
280,112,25696,1,0,0:0:0:0:
92,236,25842,6,0,P|106:187|94:152,1,75.0000028610231,8|0,0:0|0:0,0:0:0:0:
15,0,26135,2,0,P|1:49|13:84,1,75.0000028610231
236,88,26427,1,0,3:0:0:0:
0,165,26574,1,0,0:0:0:0:
185,330,26720,5,8,0:0:0:0:
142,194,26866,1,0,0:0:0:0:
301,384,27013,1,0,0:0:0:0:
344,248,27159,6,0,P|417:245|450:264,1,100,0|0,3:0|0:0,0:0:0:0:
512,108,27452,2,0,P|439:111|406:92,1,100,0|8,3:0|0:0,0:0:0:0:
201,17,27744,1,0,0:0:0:0:
214,264,27891,1,0,0:0:0:0:
214,119,28037,5,8,3:3:0:0:
339,192,28183,1,0,0:0:0:0:
341,43,28330,1,0,0:0:0:0:
341,340,28476,5,8,3:3:0:0:
84,191,28622,1,0,0:0:0:0:
140,384,28769,5,8,3:3:0:0:
289,127,28915,1,0,0:0:0:0:
54,307,29061,5,8,3:3:0:0:
380,219,29207,1,0,0:0:0:0:
112,141,29354,6,0,P|103:181|176:182,1,119.999996337891,12|0,0:0|0:0,0:0:0:0:
283,24,29647,1,8,0:0:0:0:
244,354,29793,1,0,0:0:0:0:
244,354,29866,1,0,0:0:0:0:
244,354,29939,1,8,0:0:0:0:
280,130,30086,1,0,0:0:0:0:
143,369,30232,5,8,0:0:0:0:
179,145,30379,1,0,0:0:0:0:
42,384,30525,5,8,0:0:0:0:
78,160,30671,1,0,0:0:0:0:
143,369,30817,6,0,B|190:349|190:349|332:369,1,179.999994506836,8|0,0:0|0:0,0:0:0:0:
433,384,31110,5,8,0:0:0:0:
304,206,31256,1,0,0:0:0:0:
512,274,31403,1,8,0:0:0:0:
304,342,31549,1,0,0:0:0:0:
433,164,31696,6,0,L|364:149,1,59.9999981689454,10|0,0:0|0:0,0:0:0:0:
229,124,31842,2,0,L|298:109,1,59.9999981689454,2|0,0:0|0:0,0:0:0:0:
429,56,31988,6,0,L|360:41,1,59.9999981689454,10|0,0:0|0:0,0:0:0:0:
288,29,32135,2,0,L|219:44,1,59.9999981689454,2|0,0:0|0:0,0:0:0:0:
150,65,32281,6,0,L|81:50,1,59.9999981689454,10|0,0:0|0:0,0:0:0:0:
0,28,32427,2,0,L|15:97,1,59.9999981689454,2|0,0:0|0:0,0:0:0:0:
44,168,32574,6,0,L|29:237,1,59.9999981689454,10|0,0:0|0:0,0:0:0:0:
11,326,32720,2,0,L|80:311,1,59.9999981689454
232,282,32866,6,0,P|192:273|191:346,1,119.999996337891,10|0,0:0|0:0,0:0:0:0:
351,384,33159,1,8,0:0:0:0:
445,248,33305,5,0,0:0:0:0:
445,248,33378,1,0,0:0:0:0:
445,248,33452,1,8,0:0:0:0:
252,180,33598,1,0,0:0:0:0:
445,248,33744,5,8,0:0:0:0:
348,68,33891,1,0,0:0:0:0:
445,248,34037,5,8,0:0:0:0:
512,56,34183,1,0,0:0:0:0:
445,248,34330,6,0,B|455:232|468:224|468:224|368:222,1,119.999996337891,8|0,0:0|0:0,0:0:0:0:
247,110,34622,5,8,0:0:0:0:
270,290,34769,1,0,0:0:0:0:
261,108,34915,5,8,0:0:0:0:
252,288,35062,1,0,0:0:0:0:
275,106,35208,5,8,0:0:0:0:
234,281,35354,1,0,0:0:0:0:
289,104,35500,6,0,L|299:173,1,59.9999981689454,10|0,0:0|0:0,0:0:0:0:
341,311,35647,2,0,L|331:242,1,59.9999981689454,2|0,0:0|0:0,0:0:0:0:
296,96,35793,6,0,L|306:165,1,59.9999981689454,10|0,3:0|0:0,3:0:0:0:
348,303,35940,2,0,L|338:234,1,59.9999981689454,2|0,0:0|0:0,0:0:0:0:
304,88,36086,6,0,P|365:70|425:90,1,127.50000243187,10|0,0:0|3:0,0:0:0:0:
512,264,36378,6,0,P|454:279|398:261,1,119.999996337891,12|0,0:0|0:0,0:0:0:0:
320,54,36671,1,8,0:0:0:0:
289,270,36817,1,0,0:0:0:0:
289,270,36891,1,0,0:0:0:0:
289,270,36964,1,8,0:0:0:0:
320,54,37110,1,0,0:0:0:0:
380,204,37256,5,8,0:0:0:0:
320,54,37403,1,0,0:0:0:0:
229,202,37549,5,8,0:0:0:0:
193,244,37622,1,0,0:0:0:0:
178,299,37696,1,0,0:0:0:0:
194,352,37769,1,0,0:0:0:0:
239,384,37842,1,8,0:0:0:0:
242,329,37915,1,0,0:0:0:0:
209,284,37988,1,0,0:0:0:0:
157,261,38062,1,0,0:0:0:0:
101,263,38135,1,8,0:0:0:0:
45,38,38281,5,0,0:0:0:0:
16,277,38427,1,8,0:0:0:0:
159,0,38574,5,0,0:0:0:0:
130,239,38720,6,0,L|190:252,1,59.9999981689454,10|0,0:0|0:0,0:0:0:0:
326,272,38866,2,0,L|262:284,1,59.9999981689454,2|0,0:0|0:0,0:0:0:0:
133,334,39012,6,0,L|193:347,1,59.9999981689454,10|0,0:0|0:0,0:0:0:0:
274,380,39159,2,0,L|334:366,1,59.9999981689454,2|0,0:0|0:0,0:0:0:0:
425,349,39305,6,0,L|438:288,1,59.9999981689454,10|0,0:0|0:0,0:0:0:0:
472,210,39451,2,0,L|458:149,1,59.9999981689454,2|0,0:0|0:0,0:0:0:0:
421,15,39598,6,0,L|407:75,1,59.9999981689454,10|0,0:0|0:0,0:0:0:0:
381,162,39744,2,0,L|320:175,1,59.9999981689454
173,192,39891,6,0,P|208:199|208:135,1,119.999996337891,10|0,0:0|0:0,0:0:0:0:
88,24,40183,1,8,0:0:0:0:
68,312,40330,1,0,0:0:0:0:
68,312,40403,1,0,0:0:0:0:
68,312,40476,2,0,P|128:344|104:380,1,119.999996337891,8|0,0:0|0:0,0:0:0:0:
336,248,40769,2,0,P|276:280|300:316,1,119.999996337891,8|0,0:0|0:0,0:0:0:0:
192,168,41061,2,0,P|160:228|124:204,1,119.999996337891,8|0,0:0|0:0,0:0:0:0:
56,64,41354,5,10,0:0:0:0:
308,136,41500,1,0,0:0:0:0:
184,32,41647,5,8,0:0:0:0:
311,261,41793,1,2,0:0:0:0:
297,99,41939,5,8,0:0:0:0:
224,351,42086,1,0,0:0:0:0:
329,226,42232,6,0,L|248:244,1,59.9999981689454,10|0,0:0|0:0,0:0:0:0:
121,271,42378,2,0,L|202:289,1,59.9999981689454,2|0,0:0|0:0,0:0:0:0:
269,306,42525,2,0,L|350:324,1,59.9999981689454,14|0,0:0|0:0,0:0:0:0:
455,354,42671,2,0,L|396:367,1,59.9999981689454,2|0,0:0|0:0,0:0:0:0:
316,384,42817,5,10,0:0:0:0:
240,16,42964,6,0,P|283:6|301:19,1,59.9999981689454,6|0,0:0|0:0,0:0:0:0:
353,69,43110,2,0,P|362:112|349:130,1,59.9999981689454,10|0,0:0|0:0,0:0:0:0:
322,192,43256,2,0,P|278:201|260:188,1,59.9999981689454,2|0,0:0|0:0,0:0:0:0:
204,148,43403,6,0,P|129:131|77:174,1,119.999996337891,14|0,0:0|0:0,0:0:0:0:
133,384,43696,1,8,0:0:0:0:
152,208,43842,1,0,0:0:0:0:
292,272,43988,2,0,B|328:248|328:248|436:256,1,119.999996337891,8|0,0:0|0:0,0:0:0:0:
476,336,44281,1,8,0:0:0:0:
424,96,44427,1,0,0:0:0:0:
336,360,44574,5,8,0:0:0:0:
288,362,44647,1,0,0:0:0:0:
241,364,44720,1,0,0:0:0:0:
193,367,44793,1,0,0:0:0:0:
146,369,44866,1,8,3:0:0:0:
320,184,45013,1,0,0:0:0:0:
104,200,45159,6,0,P|63:147|15:153,1,119.999996337891,8|0,0:0|0:0,0:0:0:0:
146,360,45452,5,8,0:0:0:0:
194,362,45525,1,0,0:0:0:0:
241,364,45598,1,0,0:0:0:0:
289,367,45671,1,0,0:0:0:0:
336,369,45744,1,8,0:0:0:0:
192,200,45891,1,0,0:0:0:0:
448,168,46037,2,0,L|319:183,1,119.999996337891,8|0,0:0|0:0,0:0:0:0:
0,304,46330,6,0,P|40:304|68:288,1,59.9999981689454,10|0,0:0|0:0,0:0:0:0:
72,216,46476,2,0,P|112:216|140:232,1,59.9999981689454,2|0,3:0|0:0,0:0:0:0:
144,304,46622,2,0,B|176:288|208:304|208:304|240:320|272:304,1,119.999996337891,8|0,0:0|0:0,0:0:0:0:
260,48,46915,6,0,B|228:64|196:48|196:48|164:32|132:48,1,119.999996337891,8|0,0:0|0:0,0:0:0:0:
292,384,47208,1,8,0:0:0:0:
230,157,47354,1,0,0:0:0:0:
456,218,47500,1,8,0:0:0:0:
217,174,47647,1,0,0:0:0:0:
466,200,47793,6,0,B|486:184|486:184|351:194,1,119.999996337891,8|0,0:0|0:0,0:0:0:0:
132,211,48086,1,8,0:0:0:0:
313,272,48233,1,0,3:0:0:0:
142,189,48378,1,8,0:0:0:0:
303,294,48525,1,0,0:0:0:0:
152,167,48671,6,0,B|228:147|228:147|286:153,1,119.999996337891,10|0,0:0|0:0,0:0:0:0:
377,165,48891,1,0,0:0:0:0:
348,150,48964,2,0,B|272:130|272:130|214:136,1,119.999996337891,10|0,0:0|0:0,0:0:0:0:
0,145,49256,6,0,P|26:61|61:38,1,119.999996337891,10|0,0:0|0:0,0:0:0:0:
144,0,49476,1,0,0:0:0:0:
152,40,49549,2,0,P|146:98|103:139,1,119.999996337891,10|0,0:0|3:0,0:0:0:0:
0,333,49842,5,10,0:0:0:0:
44,316,49915,1,0,0:0:0:0:
91,315,49988,1,0,3:0:0:0:
133,336,50061,1,0,0:0:0:0:
167,369,50135,1,10,0:0:0:0:
212,384,50208,1,0,0:0:0:0:
259,384,50281,1,0,3:0:0:0:
299,359,50354,1,0,0:0:0:0:
319,315,50427,2,0,B|323:255|323:255|317:252|317:252|323:186,1,119.999996337891,14|0,0:0|0:0,0:0:0:0:
143,244,50720,5,8,0:0:0:0:
402,217,50866,1,0,0:0:0:0:
194,217,51013,5,8,0:0:0:0:
453,244,51159,1,0,0:0:0:0:
245,190,51305,6,0,L|237:325,1,119.999996337891,8|0,0:0|0:0,0:0:0:0:
0,136,51598,5,10,0:0:0:0:
36,96,51671,1,0,0:0:0:0:
85,74,51744,1,0,3:0:0:0:
138,74,51817,1,0,0:0:0:0:
189,93,51891,2,0,P|238:144|245:197,1,119.999996337891,10|0,0:0|0:0,0:0:0:0:
145,287,52183,5,8,0:0:0:0:
342,192,52330,1,0,0:0:0:0:
334,330,52476,5,10,0:0:0:0:
298,290,52549,1,0,0:0:0:0:
249,268,52622,1,0,0:0:0:0:
196,268,52695,1,0,0:0:0:0:
145,287,52769,2,0,P|96:338|89:391,1,119.999996337891,10|0,0:0|0:0,0:0:0:0:
239,50,53061,6,0,B|250:77|250:77|227:168,1,119.999996337891,10|0,0:0|0:0,0:0:0:0:
180,305,53354,1,10,0:0:0:0:
93,103,53500,1,2,3:0:0:0:
282,216,53647,1,10,0:0:0:0:
63,235,53793,1,0,0:0:0:0:
229,91,53939,6,0,B|289:77|289:77|353:87,1,119.999996337891,10|0,0:0|0:0,0:0:0:0:
512,120,54232,1,8,0:0:0:0:
169,197,54378,6,0,B|229:183|229:183|293:193,1,119.999996337891,2|8,0:0|0:0,0:0:0:0:
451,226,54671,1,0,0:0:0:0:
108,303,54817,6,0,B|168:289|168:289|232:299,1,119.999996337891,10|0,0:0|0:0,0:0:0:0:
390,332,55110,1,10,0:0:0:0:
267,120,55256,1,0,3:0:0:0:
512,119,55403,1,10,0:0:0:0:
380,345,55549,1,0,0:0:0:0:
94,384,55696,6,0,B|65:372|65:372|175:334,1,135.000000514984,10|0,0:0|0:0,0:0:0:0:
287,305,55915,1,0,0:0:0:0:
276,336,55988,6,0,B|264:365|264:365|226:255,1,135.000000514984,8|2,0:0|0:0,0:0:0:0:
172,100,56281,6,0,B|207:91|207:91|271:119|271:119|308:112,1,135.000000514984,8|0,0:0|0:0,0:0:0:0:
369,102,56500,1,0,0:0:0:0:
437,92,56574,1,10,0:0:0:0:
312,326,56720,1,0,3:0:0:0:
143,355,56866,6,0,L|208:369,1,67.5000002574921,10|0,0:0|0:0,0:0:0:0:
305,384,57013,2,0,L|370:368,1,67.5000002574921,2|0,3:0|0:0,0:0:0:0:
467,369,57159,6,0,L|481:302,1,67.5000002574921,10|0,0:0|0:0,0:0:0:0:
512,216,57305,2,0,L|496:149,1,67.5000002574921,2|0,3:0|0:0,0:0:0:0:
460,0,57452,6,0,B|442:68|442:68|444:75|444:75|425:146,1,150.000005722046,12|0,0:0|0:0,0:0:0:0:
393,293,57744,1,8,0:0:0:0:
333,19,57891,1,0,0:0:0:0:
333,19,57964,1,0,0:0:0:0:
333,19,58037,2,0,P|358:104|327:152,1,150.000005722046,8|0,0:0|0:0,0:0:0:0:
312,384,58330,2,0,P|225:363|199:312,1,150.000005722046,8|0,3:0|0:0,0:0:0:0:
6,183,58622,2,0,P|67:118|124:121,1,150.000005722046,8|0,0:0|0:0,0:0:0:0:
308,227,58915,6,0,B|316:68,1,150.000005722046,8|0,0:0|0:0,0:0:0:0:
369,323,59208,1,8,0:0:0:0:
269,47,59354,1,0,0:0:0:0:
32,132,59500,6,0,L|92:145,1,59.9999981689454,10|0,0:0|0:0,0:0:0:0:
142,291,59646,2,0,L|201:280,1,59.9999981689454,2|0,0:0|0:0,0:0:0:0:
24,179,59793,6,0,L|84:192,1,59.9999981689454,10|0,0:0|0:0,0:0:0:0:
150,244,59939,2,0,L|209:233,1,59.9999981689454,2|0,0:0|0:0,0:0:0:0:
16,226,60086,6,0,L|76:239,1,59.9999981689454,10|0,3:0|0:0,0:0:0:0:
158,197,60231,2,0,L|217:186,1,59.9999981689454,2|0,0:0|0:0,0:0:0:0:
8,273,60378,6,0,L|68:286,1,59.9999981689454,10|0,0:0|0:0,0:0:0:0:
166,150,60524,2,0,L|225:139,1,59.9999981689454,2|0,0:0|0:0,0:0:0:0:
0,319,60671,6,0,P|66:364|112:358,1,119.999996337891,10|0,0:0|0:0,0:0:0:0:
370,375,60964,6,0,P|304:330|258:336,1,119.999996337891,10|0,0:0|0:0,0:0:0:0:
260,86,61256,1,8,0:0:0:0:
427,273,61403,1,0,0:0:0:0:
427,273,61476,1,0,0:0:0:0:
427,273,61549,2,0,B|345:261|345:261|314:285,1,119.999996337891,8|0,0:0|0:0,0:0:0:0:
99,299,61842,2,0,B|150:234|150:234|145:195,1,119.999996337891,8|0,3:0|0:0,0:0:0:0:
240,2,62135,2,0,B|271:79|271:79|307:94,1,119.999996337891,8|0,0:0|0:0,0:0:0:0:
173,374,62428,5,10,0:0:0:0:
245,122,62573,1,0,0:0:0:0:
141,246,62721,5,8,0:0:0:0:
370,119,62866,1,2,0:0:0:0:
208,133,63013,5,8,0:0:0:0:
460,206,63159,1,0,0:0:0:0:
335,99,63305,6,0,L|339:225,1,119.999996337891,8|0,0:0|0:0,0:0:0:0:
350,319,63525,1,0,0:0:0:0:
325,315,63598,2,0,B|293:309|293:309|239:332|239:332|202:330,1,119.999996337891,8|0,3:0|0:0,0:0:0:0:
2,343,63891,6,0,L|16:267,1,59.9999981689454,10|0,0:0|0:0,0:0:0:0:
126,205,64038,2,0,L|137:146,1,59.9999981689454,2|0,0:0|0:0,0:0:0:0:
27,329,64183,6,0,L|41:253,1,59.9999981689454,10|0,0:0|0:0,0:0:0:0:
101,219,64330,2,0,L|112:160,1,59.9999981689454,2|0,0:0|0:0,0:0:0:0:
52,315,64476,6,0,B|106:303|106:303|194:327,1,119.999996337891,14|0,0:0|0:0,0:0:0:0:
322,374,64769,1,8,0:0:0:0:
251,86,64915,1,0,0:0:0:0:
251,86,64988,1,0,0:0:0:0:
251,86,65061,2,0,P|332:110|342:192,1,119.999996337891,8|0,0:0|0:0,0:0:0:0:
166,249,65354,2,0,P|146:166|212:117,1,119.999996337891,8|0,3:0|0:0,0:0:0:0:
349,240,65647,2,0,P|288:299|212:266,1,119.999996337891,8|0,0:0|0:0,0:0:0:0:
251,86,65939,6,0,P|332:110|342:192,1,119.999996337891,8|0,0:0|0:0,0:0:0:0:
164,248,66232,1,8,0:0:0:0:
251,86,66378,1,0,0:0:0:0:
480,132,66524,6,0,L|420:145,1,59.9999981689454,10|0,0:0|0:0,0:0:0:0:
369,291,66671,2,0,L|311:280,1,59.9999981689454,2|0,0:0|0:0,0:0:0:0:
488,179,66817,6,0,L|428:192,1,59.9999981689454,10|0,0:0|0:0,0:0:0:0:
361,244,66965,2,0,L|303:233,1,59.9999981689454,2|0,0:0|0:0,0:0:0:0:
496,226,67110,6,0,L|436:239,1,59.9999981689454,10|0,3:0|0:0,0:0:0:0:
353,197,67257,2,0,L|295:186,1,59.9999981689454,2|0,0:0|0:0,0:0:0:0:
504,273,67402,6,0,L|444:286,1,59.9999981689454,10|0,0:0|0:0,0:0:0:0:
345,150,67549,2,0,L|287:139,1,59.9999981689454,2|0,0:0|0:0,0:0:0:0:
512,319,67695,6,0,P|444:364|400:358,1,119.999996337891,10|0,0:0|0:0,0:0:0:0:
52,288,67988,2,0,P|120:243|164:249,1,119.999996337891,10|0,0:0|0:0,0:0:0:0:
246,343,68281,1,8,0:0:0:0:
192,104,68427,5,0,0:0:0:0:
192,104,68500,1,0,0:0:0:0:
192,104,68574,2,0,L|336:112,1,119.999996337891,8|0,0:0|0:0,0:0:0:0:
21,290,68866,2,0,P|-5:240|26:178,1,119.999996337891,8|0,3:1|0:0,0:0:0:0:
337,275,69159,2,0,P|363:325|332:387,1,119.999996337891,8|0,0:0|0:0,0:0:0:0:
178,100,69452,6,0,L|195:183,1,59.9999981689454,8|0,0:0|0:0,0:0:0:0:
319,139,69598,2,0,L|239:113,1,59.9999981689454
215,242,69744,2,0,L|279:186,1,59.9999981689454,8|0,0:0|0:0,0:0:0:0:
315,239,69891,6,0,L|293:132,1,67.5000002574921
132,188,70037,2,0,L|236:223,1,67.5000002574921,8|0,0:0|0:0,0:0:0:0:
267,55,70183,2,0,L|185:128,1,67.5000002574921
140,62,70330,6,0,L|167:192,1,75.0000028610231,8|0,0:0|0:0,0:0:0:0:
361,123,70476,2,0,L|235:81,1,75.0000028610231,0|0,3:0|0:0,0:0:0:0:
198,284,70622,2,0,L|298:196,1,75.0000028610231,8|0,0:0|0:0,0:0:0:0:
341,266,70769,6,0,L|310:115,1,82.5000007867813
85,195,70915,2,0,L|231:244,1,82.5000007867813,8|0,3:0|0:0,0:0:0:0:
274,8,71061,2,0,L|159:110,1,82.5000007867813
76,112,71208,6,0,L|282:181,1,200,8|0,0:0|0:0,0:0:0:0:
432,235,71500,5,12,0:0:0:0:
0,81,71793,1,12,0:0:0:0:
334,384,72817,2,8,L|318:256,1,119.999996337891,0|0,3:0|3:0,3:0:0:0:
68,351,73256,5,12,0:0:0:0:
504,208,73549,1,12,0:0:0:0:
136,112,74574,6,0,P|121:189|145:224,1,119.999996337891,0|0,3:0|0:0,0:0:0:0:
144,274,74793,6,0,P|151:235|139:218,1,59.9999981689454
44,198,74939,1,0,0:0:0:0:
59,193,75013,1,12,0:0:0:0:
512,72,75305,1,12,0:0:0:0:
232,384,75598,1,12,0:0:0:0:
248,0,76476,6,0,L|240:152,1,119.999996337891,0|8,3:0|0:0,0:0:0:0:
172,238,76769,6,0,L|179:297,1,59.9999981689454,14|0,0:0|0:0,0:0:0:0:
194,382,76915,2,0,B|250:362|250:362|338:374,1,119.999996337891
503,373,77208,5,14,0:0:0:0:
487,269,77354,1,0,0:0:0:0:
407,325,77501,1,0,0:0:0:0:
439,141,77647,6,0,L|447:101,3,39.9999987792969,14|0|0|0,0:0|0:0|0:0|0:0,0:0:0:0:
367,61,77940,1,0,0:0:0:0:
327,149,78086,5,10,3:0:0:0:
399,229,78232,1,0,0:0:0:0:
292,250,78379,1,0,0:0:0:0:
214,164,78525,6,0,L|222:100,4,59.9999981689454,14|0|0|0|8,0:0|0:0|0:0|0:0|0:0,0:0:0:0:
120,384,79842,6,0,L|144:256,1,119.999996337891,0|0,3:0|0:0,0:0:0:0:
504,272,80281,1,12,0:0:0:0:
8,240,80574,1,12,0:0:0:0:
205,328,81452,6,0,L|335:318,1,119.999996337891
259,202,81744,5,0,3:0:0:0:
246,185,81817,1,0,0:0:0:0:
267,192,81891,1,0,0:0:0:0:
246,198,81964,1,0,0:0:0:0:
259,181,82037,1,12,0:0:0:0:
152,24,82330,1,12,0:0:0:0:
360,360,82622,1,12,0:0:0:0:
100,191,82915,5,0,0:0:0:0:
76,351,83061,1,0,0:0:0:0:
180,183,83208,5,0,0:0:0:0:
212,341,83354,1,0,0:0:0:0:
252,148,83500,5,0,0:0:0:0:
336,285,83646,1,0,0:0:0:0:
307,90,83793,5,12,0:0:0:0:
512,253,83939,1,0,0:0:0:0:
196,119,84086,5,8,0:0:0:0:
436,223,84232,1,0,0:0:0:0:
96,175,84378,5,8,0:0:0:0:
355,214,84524,1,0,0:0:0:0:
1,255,84671,5,14,0:0:0:0:
9,256,84744,1,0,0:0:0:0:
16,260,84817,1,4,0:3:0:0:
31,268,84891,1,0,0:0:0:0:
49,283,84964,1,10,0:0:0:0:
63,308,85037,1,0,0:0:0:0:
71,342,85110,1,4,0:3:0:0:
69,384,85183,1,0,0:0:0:0:
109,356,85256,5,10,0:0:0:0:
160,336,85330,1,0,0:0:0:0:
220,327,85403,1,4,0:3:0:0:
285,336,85476,1,0,0:0:0:0:
348,372,85549,2,0,P|381:293|374:208,1,150.000005722046,14|0,0:0|0:0,0:0:0:0:
363,78,85842,5,8,0:0:0:0:
54,158,85988,1,0,0:0:0:0:
401,160,86135,5,8,0:0:0:0:
92,76,86281,1,0,0:0:0:0:
92,76,86354,1,0,0:0:0:0:
92,76,86427,2,0,B|154:138|154:138|173:215,1,150.000005722046,8|0,0:0|0:0,0:0:0:0:
314,190,86720,2,0,B|193:211|193:211|153:190,1,150.000005722046,8|0,0:0|3:0,0:0:0:0:
103,328,87013,2,0,B|145:212|145:212|183:188,1,150.000005722046,8|0,0:0|3:0,0:0:0:0:
299,38,87305,1,8,0:0:0:0:
171,195,87452,6,0,P|210:173|275:199,1,75.0000028610231,2|0,0:0|0:0,0:0:0:0:
265,109,87598,2,0,P|287:148|261:213,1,75.0000028610231,10|0,0:0|0:0,0:0:0:0:
352,200,87744,2,0,P|313:222|248:196,1,75.0000028610231,2|0,0:0|0:0,0:0:0:0:
261,287,87891,2,0,P|239:248|265:183,1,75.0000028610231,10|0,3:0|0:0,0:0:0:0:
256,22,88037,5,2,0:0:0:0:
256,22,88110,1,2,0:0:0:0:
256,22,88183,2,0,P|300:15|342:44,1,75.0000028610231,10|0,0:0|0:0,0:0:0:0:
394,92,88330,2,0,P|401:136|372:178,1,75.0000028610231,2|0,0:0|0:0,0:0:0:0:
312,232,88476,2,0,P|268:239|226:210,1,75.0000028610231,10|8,0:0|0:0,0:0:0:0:
181,147,88622,2,0,P|174:103|203:61,1,75.0000028610231,2|0,3:0|0:0,0:0:0:0:
410,41,88769,6,0,B|386:15|386:15|184:5,1,225.000008583069,10|0,0:0|0:0,0:0:0:0:
181,147,89061,6,0,P|209:136|216:217,1,150.000005722046,8|0,0:0|0:0,0:0:0:0:
99,347,89354,1,8,0:0:0:0:
217,217,89500,1,0,0:0:0:0:
270,384,89647,2,0,P|371:350|416:379,1,150.000005722046,8|0,0:0|0:0,0:0:0:0:
487,209,89939,5,8,0:0:0:0:
228,192,90086,1,0,0:0:0:0:
349,331,90232,1,8,0:0:0:0:
366,71,90378,2,0,B|304:67|304:67|268:52|268:52|196:48,1,150.000005722046,0|8,3:0|0:0,0:0:0:0:
60,49,90671,1,0,0:0:0:0:
218,329,90817,6,8,P|208:249|325:323,1,300.000011444092
236,21,91256,6,0,P|215:52|204:88,1,75.0000028610231,2|0,3:0|0:0,0:0:0:0:
59,145,91402,2,0,P|90:166|126:176,1,75.0000028610231,10|0,0:0|0:0,0:0:0:0:
183,320,91549,2,0,P|204:289|214:253,1,75.0000028610231,2|0,3:0|0:0,0:0:0:0:
358,198,91695,2,0,P|327:176|292:166,1,75.0000028610231,10|0,0:0|0:0,0:0:0:0:
133,46,91842,6,0,P|134:91|159:128,1,75.0000028610231,2|0,0:0|0:0,0:0:0:0:
84,248,91989,2,0,P|129:247|166:222,1,75.0000028610231,10|0,3:0|0:0,0:0:0:0:
286,297,92135,2,0,P|285:252|260:215,1,75.0000028610231,2|0,0:0|0:0,0:0:0:0:
335,95,92282,2,0,P|290:96|253:121,1,75.0000028610231,10|0,0:0|0:0,0:0:0:0:
0,270,92427,5,2,3:0:0:0:
0,270,92500,1,0,0:0:0:0:
0,270,92574,2,0,P|29:329|142:348,1,150.000005722046,12|0,0:0|0:0,0:0:0:0:
318,366,92866,1,8,0:0:0:0:
169,135,93013,1,0,0:0:0:0:
0,376,93159,2,0,B|147:344,1,150.000005722046,8|0,0:0|0:0,0:0:0:0:
260,317,93452,5,8,0:0:0:0:
148,92,93598,1,0,0:0:0:0:
361,210,93744,1,8,0:0:0:0:
119,240,93891,1,0,3:0:0:0:
270,37,94037,2,0,B|246:72|261:111|261:111|277:158|246:206,1,150.000005722046,8|0,0:0|0:0,0:0:0:0:
361,210,94330,5,8,0:0:0:0:
45,225,94476,2,0,B|84:212|84:212|122:224,1,75.0000028610231,2|0,0:0|0:0,0:0:0:0:
142,294,94622,2,0,B|174:283|174:283|213:296,1,75.0000028610231,10|0,0:0|0:0,0:0:0:0:
71,305,94769,2,0,B|38:294|38:294|0:307,1,75.0000028610231,2|0,0:0|0:0,0:0:0:0:
97,377,94915,2,0,B|129:366|129:366|168:379,1,75.0000028610231,10|0,3:0|0:0,0:0:0:0:
349,384,95061,6,0,B|310:371|310:371|272:383,1,75.0000028610231,2|0,0:0|0:0,0:0:0:0:
364,309,95207,2,2,B|396:319|396:319|435:306,1,75.0000028610231,8|2,0:0|0:0,0:0:0:0:
293,298,95354,2,0,B|260:308|260:308|221:295,1,75.0000028610231,2|0,0:0|0:0,0:0:0:0:
319,226,95500,2,0,B|351:236|351:236|390:223,1,75.0000028610231,10|0,0:0|0:0,0:0:0:0:
229,222,95647,2,0,B|196:232|196:232|157:219,1,75.0000028610231,2|0,3:0|0:0,0:0:0:0:
255,150,95793,2,0,B|287:160|287:160|326:147,1,75.0000028610231,10|0,0:0|0:0,0:0:0:0:
203,299,95939,5,0,0:0:0:0:
203,299,96013,1,0,0:0:0:0:
203,299,96086,2,0,P|54:279|292:172,1,750.000028610231,8|0,0:0|0:0,0:0:0:0:
145,164,96964,6,0,P|391:171|123:247,1,750.000028610231,8|0,0:0|0:0,0:0:0:0:
266,241,97769,1,0,0:0:0:0:
266,241,97842,6,0,P|117:221|324:156,1,600.000022888185,8|8,0:0|3:0,0:0:0:0:
355,374,98574,5,0,0:0:0:0:
355,374,98647,1,0,0:0:0:0:
355,374,98720,2,0,B|179:381|179:381|230:339,1,225.000008583069,8|0,0:0|0:0,0:0:0:0:
283,291,99013,6,0,B|459:298|459:298|408:256,1,225.000008583069,8|0,0:0|0:0,0:0:0:0:
355,208,99305,6,0,B|179:215|179:215|216:183,1,225.000008583069,8|0,0:0|0:0,0:0:0:0:
320,100,99598,6,0,B|386:79|472:109|472:109|459:133|433:144,1,200,8|0,0:0|0:0,0:0:0:0:
236,307,99891,1,8,0:0:0:0:
345,195,100038,1,0,0:0:0:0:
387,379,100183,1,8,0:0:0:0:
71,347,100330,5,0,0:0:0:0:
71,347,100403,1,0,0:0:0:0:
71,347,100476,2,0,B|139:322|139:322|199:331|231:350|250:380,1,200,8|0,0:0|0:0,0:0:0:0:
216,112,100769,2,0,B|203:183|203:183|165:230|133:249|97:250,1,200,8|0,0:0|3:0,0:0:0:0:
347,355,101061,2,0,B|291:308|291:308|269:252|269:214|286:183,1,200,8|0,0:0|0:0,0:0:0:0:
58,204,101354,1,8,0:0:0:0:
412,162,101500,6,0,P|388:93|426:122,1,100,2|0,0:0|0:0,0:0:0:0:
186,280,101647,2,0,P|196:325|243:329,1,100,10|0,0:0|0:0,0:0:0:0:
396,185,101793,6,0,P|384:112|417:148,1,100,2|0,0:0|0:0,0:0:0:0:
181,291,101939,2,0,P|181:338|226:351,1,100,10|0,0:0|0:0,0:0:0:0:
377,206,102086,6,0,P|378:133|404:173,1,100,2|0,0:0|0:0,0:0:0:0:
172,303,102232,2,0,P|163:349|205:370,1,100,10|0,0:0|0:0,0:0:0:0:
355,223,102378,6,0,P|368:151|387:195,1,100,2|0,0:0|0:0,0:0:0:0:
156,314,102525,2,0,P|142:359|181:385,1,100,10|0,0:0|0:0,0:0:0:0:
329,236,102671,6,0,P|355:167|365:214,1,100,2|0,3:0|0:0,0:0:0:0:
297,166,102817,2,0,P|146:216|198:68,1,300,10|0,0:0|0:0,0:0:0:0:
114,27,103110,6,0,P|200:58|208:158,1,200,8|0,0:0|0:0,0:0:0:0:
73,332,103403,1,8,0:0:0:0:
0,136,103549,1,0,0:0:0:0:
209,155,103696,1,8,0:0:0:0:
198,346,103842,5,0,0:0:0:0:
198,346,103915,1,0,0:0:0:0:
198,346,103988,2,0,B|264:322|323:332|323:332|331:295|371:270,1,200,8|0,0:0|0:0,0:0:0:0:
385,94,104281,2,0,B|372:163|334:209|334:209|362:234|364:281,1,200,8|0,0:0|3:0,0:0:0:0:
509,382,104574,2,0,B|455:336|434:280|434:280|398:292|356:270,1,200,8|0,0:0|0:0,0:0:0:0:
166,269,104866,6,8,B|96:119|96:119|259:135|259:135|166:267,1,400
156,347,105305,6,0,P|178:292|235:304,1,100,2|0,0:0|0:0,0:0:0:0:
30,74,105452,2,0,P|65:119|26:163,1,100,10|0,0:0|0:0,0:0:0:0:
329,102,105598,2,0,P|271:110|251:54,1,100,2|0,0:0|0:0,0:0:0:0:
38,285,105744,6,0,P|92:261|124:311,1,100,10|0,0:0|0:0,0:0:0:0:
141,3,105891,2,0,P|134:61|74:64,1,100,2|0,3:0|0:0,0:0:0:0:
334,234,106037,2,0,P|286:198|313:146,1,100,10|0,0:0|0:0,0:0:0:0:
0,159,106183,6,0,P|54:181|42:237,1,100,2|0,3:0|0:0,0:0:0:0:
272,30,106330,2,0,P|226:66|181:27,1,100,10|0,0:0|0:0,0:0:0:0:
245,331,106476,2,0,P|235:273|291:253,1,100,2|0,3:0|0:0,0:0:0:0:
448,185,106622,6,0,L|432:409,1,200,8|0,0:0|0:0,0:0:0:0:
77,158,106915,2,0,P|124:96|242:192,1,200,8|0,0:0|0:0,0:0:0:0:
109,372,107208,1,8,0:0:0:0:
229,124,107354,1,0,0:0:0:0:
417,205,107500,6,0,B|461:293|461:293|416:387,1,200,8|0,0:0|0:0,0:0:0:0:
86,384,107793,1,8,0:0:0:0:
115,120,107939,1,0,3:0:0:0:
217,360,108086,2,8,P|333:225|347:319,1,400
264,284,108525,6,0,P|305:269|341:211,1,100,0|2,0:0|0:0,0:0:0:0:
172,152,108671,2,0,P|164:195|197:256,1,100,10|0,0:0|0:0,0:0:0:0:
337,138,108817,2,0,P|303:109|235:107,1,100,2|0,0:0|0:0,0:0:0:0:
256,192,108964,1,8,0:0:0:0:
82,171,109110,6,0,P|83:225|109:287,1,100,2|0,0:0|0:0,0:0:0:0:
185,30,109256,2,0,P|138:57|98:111,1,100,10|0,0:0|0:0,0:0:0:0:
361,51,109403,2,0,P|313:25|247:17,1,100,2|0,0:0|0:0,0:0:0:0:
430,212,109549,2,0,P|429:159|403:96,1,100,10|0,0:0|0:0,0:0:0:0:
324,353,109696,2,0,P|371:325|411:271,1,100,0|0,3:0|0:0,0:3:0:0:
150,332,109842,6,0,P|198:358|264:366,1,98.999999697876,10|0,0:0|0:0,0:3:0:0:
0,238,110135,6,0,B|73:236|73:236|98:246|98:246|101:249|101:249|128:259|128:259|198:253,1,200,8|0,0:0|0:0,0:0:0:0:
402,301,110427,1,8,0:0:0:0:
233,86,110574,1,0,0:0:0:0:
131,338,110720,2,0,B|152:342|181:336|201:315|201:315|246:322|246:322|267:300|296:289|330:290,1,200,8|0,0:0|0:0,0:0:0:0:
512,240,111013,5,8,0:0:0:0:
407,34,111159,1,0,0:0:0:0:
482,333,111305,1,8,0:0:0:0:
377,126,111451,1,0,3:0:0:0:
395,377,111598,2,0,B|356:375|327:365|311:336|311:336|286:362|237:363|203:342,1,200,8|0,0:0|0:0,0:0:0:0:
311,0,111891,5,8,0:0:0:0:
311,0,111964,1,0,0:0:0:0:
311,0,112037,2,0,B|293:-6|271:6|271:6|249:-3|249:-3|228:9|201:2,1,100,2|2,0:0|0:0,0:0:0:0:
93,157,112183,6,0,B|110:152|132:164|132:164|154:155|154:155|175:167|188:163,1,100,10|0,0:0|0:0,0:0:0:0:
357,94,112330,2,0,B|339:88|317:100|317:100|295:91|295:91|274:103|247:96,1,100,2|0,0:0|0:0,0:0:0:0:
0,32,112476,6,0,B|17:26|39:38|39:38|61:29|61:29|82:41|95:37,1,100,10|0,0:0|0:0,0:0:0:0:
403,188,112622,2,0,B|385:182|363:194|363:194|341:185|341:185|320:197|293:190,1,100,2|0,0:0|0:0,0:0:0:0:
46,127,112769,6,0,B|64:121|86:133|86:133|108:124|108:124|129:136|141:131,1,100,10|0,0:0|0:0,0:0:0:0:
449,282,112915,2,0,B|431:276|409:288|409:288|387:279|387:279|366:291|339:284,1,100,0|0,3:0|0:0,0:0:0:0:
92,221,113061,6,0,B|110:215|132:227|132:227|154:218|154:218|175:230|187:225,1,100,10|0,0:0|0:0,0:0:0:0:
512,366,113208,2,0,B|494:360|472:372|472:372|450:363|450:363|429:375|402:368,1,100,2|0,3:0|0:0,0:0:0:0:
138,315,113354,6,0,B|156:309|178:321|178:321|200:312|200:312|221:324|233:319,1,100,10|0,0:0|0:0,0:0:0:0:
427,196,113500,2,0,B|409:190|387:202|387:202|365:193|365:193|344:205|331:200,1,100,2|0,3:0|0:0,0:0:0:0:
0,150,113647,5,12,0:0:0:0:
512,193,113939,1,12,0:0:0:0:
250,253,114964,6,0,L|264:90,1,150.000005722046,0|0,3:0|0:0,0:0:0:0:
512,150,115403,5,12,0:0:0:0:
0,192,115695,1,12,0:0:0:0:
262,253,116720,6,0,P|257:173|248:90,1,150.000005722046,0|0,3:0|0:0,0:0:0:0:
235,0,117159,5,12,0:0:0:0:
277,384,117452,1,12,0:0:0:0:
80,96,118476,6,0,L|94:259,1,150.000005722046,0|0,3:0|0:0,0:0:0:0:
414,211,118915,6,0,P|376:98|201:98,1,300.000011444092,12|0,0:0|0:0,0:0:0:0:
78,328,119354,6,0,P|194:351|282:200,1,300.000011444092,12|0,0:0|0:0,0:0:0:0:
173,0,119793,6,0,P|94:89|181:240,1,300.000011444092,12|0,0:0|0:0,0:0:0:0:
414,211,120232,6,0,P|376:98|201:98,1,300.000011444092,12|0,0:0|0:0,0:0:0:0:
169,337,120671,6,0,P|313:378|135:301,1,1150,12|0,0:0|0:0,0:0:0:0:
