osu file format v14

[General]
AudioFilename: audio.mp3
AudioLeadIn: 0
PreviewTime: 43330
Countdown: 1
SampleSet: Normal
StackLeniency: 0.2
Mode: 0
LetterboxInBreaks: 0
WidescreenStoryboard: 1

[Editor]
Bookmarks: 15305,29354,43403,57451,71500,85549,99598,113646
DistanceSpacing: 0.5
BeatDivisor: 16
GridSize: 32
TimelineZoom: 2.900004

[Metadata]
Title:Despair of ELFERIA
TitleUnicode:Despair of ELFERIA
Artist:Nekomata Master
ArtistUnicode:猫叉Master
Creator:Perseus
Version:Anguish
Source:
Tags:
BeatmapID:1388694
BeatmapSetID:484724

[Difficulty]
HPDrainRate:5
CircleSize:4.2
OverallDifficulty:9
ApproachRate:9.8
SliderMultiplier:2
SliderTickRate:1

[Events]
//Background and Video events
0,0,"bg.jpg",0,0
//Break Periods
//Storyboard Layer 0 (Background)
//Storyboard Layer 1 (Fail)
//Storyboard Layer 2 (Pass)
//Storyboard Layer 3 (Foreground)
//Storyboard Layer 4 (Overlay)
//Storyboard Sound Samples

[TimingPoints]
1257,292.682926829268,4,2,1,35,1,0
2133,-133.333333333333,4,2,1,35,0,0
3011,-100,4,2,1,35,0,0
3889,-133.333333333333,4,2,1,35,0,0
6524,-100,4,2,1,35,0,0
10036,-83.3333333333333,4,2,1,35,0,0
13548,-74.0740740740741,4,2,1,35,0,0
14427,-74.0740740740741,4,2,1,35,0,0
14574,-74.0740740740741,4,2,1,45,0,0
14720,-74.0740740740741,4,2,1,60,0,0
14866,-74.0740740740741,4,2,1,70,0,0
15013,-74.0740740740741,4,2,1,80,0,0
15159,-74.0740740740741,4,2,1,90,0,0
15304,-142.857142857143,4,1,3,100,0,0
17060,-133.333333333333,4,1,3,5,0,0
18816,-133.333333333333,4,1,3,100,0,0
20573,-133.333333333333,4,1,3,5,0,0
21890,-133.333333333333,4,1,1,100,0,0
21963,-133.333333333333,4,1,1,5,0,0
22036,-133.333333333333,4,1,1,35,0,0
22109,-133.333333333333,4,1,1,35,0,0
22182,-133.333333333333,4,1,1,100,0,0
22255,-133.333333333333,4,1,1,5,0,0
22329,-133.333333333333,4,1,1,100,0,0
22402,-133.333333333333,4,1,1,100,0,0
22621,-133.333333333333,4,1,2,100,0,0
22695,-133.333333333333,4,1,1,100,0,0
23499,-133.333333333333,4,1,2,100,0,0
23573,-133.333333333333,4,1,1,100,0,0
24377,-133.333333333333,4,1,2,100,0,0
24451,-133.333333333333,4,1,1,100,0,0
25255,-133.333333333333,4,1,2,100,0,0
25329,-133.333333333333,4,1,1,100,0,0
25841,-100,4,1,1,100,0,0
26134,-133.333333333333,4,1,2,100,0,0
26207,-133.333333333333,4,1,1,100,0,0
27012,-133.333333333333,4,1,2,100,0,0
27085,-133.333333333333,4,1,1,100,0,0
27158,-74.6268656716418,4,1,1,100,0,0
28475,-66.6666666666667,4,1,1,100,0,0
28549,-66.6666666666667,4,1,1,5,0,0
28622,-66.6666666666667,4,1,1,100,0,0
28696,-66.6666666666667,4,1,1,5,0,0
28769,-66.6666666666667,4,1,1,100,0,0
28842,-66.6666666666667,4,1,1,5,0,0
28915,-66.6666666666667,4,1,1,100,0,0
28988,-66.6666666666667,4,1,1,5,0,0
29061,-66.6666666666667,4,1,1,100,0,0
29135,-66.6666666666667,4,1,1,5,0,0
29208,-66.6666666666667,4,1,1,100,0,0
29281,-66.6666666666667,4,1,1,5,0,0
29353,-50,4,1,1,100,0,0
31695,-83.3333333333333,4,1,1,100,0,0
31768,-83.3333333333333,4,1,1,5,0,0
31841,-83.3333333333333,4,1,1,100,0,0
31914,-83.3333333333333,4,1,1,5,0,0
31987,-83.3333333333333,4,1,1,100,0,0
32060,-83.3333333333333,4,1,1,5,0,0
32134,-83.3333333333333,4,1,1,100,0,0
32207,-83.3333333333333,4,1,1,5,0,0
32280,-83.3333333333333,4,1,1,100,0,0
32353,-83.3333333333333,4,1,1,5,0,0
32426,-83.3333333333333,4,1,1,100,0,0
32499,-83.3333333333333,4,1,1,5,0,0
32573,-83.3333333333333,4,1,1,100,0,0
32646,-83.3333333333333,4,1,1,5,0,0
32719,-83.3333333333333,4,1,1,100,0,0
32792,-83.3333333333333,4,1,1,5,0,0
32865,-83.3333333333333,4,1,1,100,0,0
35499,-83.3333333333333,4,1,1,100,0,0
35573,-83.3333333333333,4,1,1,5,0,0
35646,-83.3333333333333,4,1,1,100,0,0
35719,-83.3333333333333,4,1,1,5,0,0
35792,-83.3333333333333,4,1,1,100,0,0
35865,-83.3333333333333,4,1,1,5,0,0
35938,-83.3333333333333,4,1,1,100,0,0
36012,-83.3333333333333,4,1,1,5,0,0
36085,-25,4,1,1,100,0,0
36378,-83.3333333333333,4,1,1,100,0,0
38719,-83.3333333333333,4,1,1,100,0,0
38792,-83.3333333333333,4,1,1,5,0,0
38865,-83.3333333333333,4,1,1,100,0,0
38938,-83.3333333333333,4,1,1,5,0,0
39011,-83.3333333333333,4,1,1,100,0,0
39084,-83.3333333333333,4,1,1,5,0,0
39158,-83.3333333333333,4,1,1,100,0,0
39231,-83.3333333333333,4,1,1,5,0,0
39304,-83.3333333333333,4,1,1,100,0,0
39377,-83.3333333333333,4,1,1,5,0,0
39450,-83.3333333333333,4,1,1,100,0,0
39523,-83.3333333333333,4,1,1,5,0,0
39597,-83.3333333333333,4,1,1,100,0,0
39670,-83.3333333333333,4,1,1,5,0,0
39743,-83.3333333333333,4,1,1,100,0,0
39816,-83.3333333333333,4,1,1,5,0,0
39889,-83.3333333333333,4,1,1,100,0,0
39890,-66.6666666666667,4,1,1,100,0,0
41061,-133.333333333333,4,1,1,100,0,0
41354,-52.6315789473684,4,1,1,100,0,0
42231,-83.3333333333333,4,1,1,100,0,0
42304,-83.3333333333333,4,1,1,5,0,0
42377,-83.3333333333333,4,1,1,100,0,0
42450,-83.3333333333333,4,1,1,5,0,0
42523,-83.3333333333333,4,1,1,100,0,0
42596,-83.3333333333333,4,1,1,5,0,0
42670,-83.3333333333333,4,1,1,100,0,0
42743,-83.3333333333333,4,1,1,5,0,0
42816,-71.4285714285714,4,1,1,100,0,0
42962,-71.4285714285714,4,1,1,100,0,0
43035,-71.4285714285714,4,1,1,5,0,0
43109,-71.4285714285714,4,1,1,100,0,0
43182,-71.4285714285714,4,1,1,5,0,0
43255,-71.4285714285714,4,1,1,100,0,0
43328,-71.4285714285714,4,1,1,5,0,0
43401,-71.4285714285714,4,1,1,100,0,0
46402,-71.4285714285714,4,1,1,5,0,0
46475,-71.4285714285714,4,1,1,100,0,0
46548,-71.4285714285714,4,1,1,5,0,0
46621,-50,4,1,1,100,0,0
47208,-71.4285714285714,4,1,1,100,0,0
51891,-133.333333333333,4,1,1,100,0,0
53061,-50,4,1,1,100,0,0
53354,-100,4,1,1,100,0,0
53427,-100,4,1,1,5,0,0
53500,-100,4,1,1,100,0,0
53574,-100,4,1,1,5,0,0
53647,-50,4,1,1,100,0,0
54232,-66.6666666666667,4,1,1,100,0,0
55695,-50,4,1,1,100,0,0
56865,-74.0740740740741,4,1,1,100,0,0
56938,-74.0740740740741,4,1,1,5,0,0
57012,-74.0740740740741,4,1,1,100,0,0
57085,-74.0740740740741,4,1,1,5,0,0
57158,-74.0740740740741,4,1,1,100,0,0
57231,-74.0740740740741,4,1,1,5,0,0
57304,-74.0740740740741,4,1,1,100,0,0
57377,-74.0740740740741,4,1,1,5,0,0
57451,-66.6666666666667,4,1,1,100,0,0
59499,-83.3333333333333,4,1,1,100,0,0
59572,-83.3333333333333,4,1,1,5,0,0
59645,-83.3333333333333,4,1,1,100,0,0
59718,-83.3333333333333,4,1,1,5,0,0
59791,-83.3333333333333,4,1,1,100,0,0
59864,-83.3333333333333,4,1,1,5,0,0
59938,-83.3333333333333,4,1,1,100,0,0
60011,-83.3333333333333,4,1,1,5,0,0
60084,-83.3333333333333,4,1,1,100,0,0
60157,-83.3333333333333,4,1,1,5,0,0
60230,-83.3333333333333,4,1,1,100,0,0
60303,-83.3333333333333,4,1,1,5,0,0
60377,-83.3333333333333,4,1,1,100,0,0
60450,-83.3333333333333,4,1,1,5,0,0
60523,-83.3333333333333,4,1,1,100,0,0
60596,-83.3333333333333,4,1,1,5,0,0
60669,-83.3333333333333,4,1,1,100,0,0
60964,-50,4,1,1,100,0,0
61256,-83.3333333333333,4,1,1,100,0,0
62427,-83.3333333333333,4,1,1,100,0,0
62500,-83.3333333333333,4,1,1,5,0,0
62574,-83.3333333333333,4,1,1,100,0,0
62647,-83.3333333333333,4,1,1,5,0,0
62720,-83.3333333333333,4,1,1,100,0,0
62793,-83.3333333333333,4,1,1,5,0,0
62866,-83.3333333333333,4,1,1,100,0,0
62939,-83.3333333333333,4,1,1,5,0,0
63013,-83.3333333333333,4,1,1,100,0,0
63305,-83.3333333333333,4,1,1,100,0,0
63378,-83.3333333333333,4,1,1,5,0,0
63452,-83.3333333333333,4,1,1,100,0,0
63598,-83.3333333333333,4,1,1,100,0,0
63671,-83.3333333333333,4,1,1,5,0,0
63744,-83.3333333333333,4,1,1,100,0,0
63890,-83.3333333333333,4,1,1,100,0,0
63963,-83.3333333333333,4,1,1,5,0,0
64036,-83.3333333333333,4,1,1,100,0,0
64109,-83.3333333333333,4,1,1,5,0,0
64182,-83.3333333333333,4,1,1,100,0,0
64255,-83.3333333333333,4,1,1,5,0,0
64329,-83.3333333333333,4,1,1,100,0,0
64402,-83.3333333333333,4,1,1,5,0,0
64475,-83.3333333333333,4,1,1,100,0,0
66524,-83.3333333333333,4,1,1,100,0,0
66597,-83.3333333333333,4,1,1,5,0,0
66670,-83.3333333333333,4,1,1,100,0,0
66743,-83.3333333333333,4,1,1,5,0,0
66816,-83.3333333333333,4,1,1,100,0,0
66889,-83.3333333333333,4,1,1,5,0,0
66963,-83.3333333333333,4,1,1,100,0,0
67036,-83.3333333333333,4,1,1,5,0,0
67109,-83.3333333333333,4,1,1,100,0,0
67182,-83.3333333333333,4,1,1,5,0,0
67255,-83.3333333333333,4,1,1,100,0,0
67328,-83.3333333333333,4,1,1,5,0,0
67402,-83.3333333333333,4,1,1,100,0,0
67475,-83.3333333333333,4,1,1,5,0,0
67548,-83.3333333333333,4,1,1,100,0,0
67621,-83.3333333333333,4,1,1,5,0,0
67694,-83.3333333333333,4,1,1,100,0,0
69453,-83.3333333333333,4,1,1,100,0,0
69524,-83.3333333333333,4,1,1,5,0,0
69597,-83.3333333333333,4,1,1,100,0,0
69670,-83.3333333333333,4,1,1,5,0,0
69743,-83.3333333333333,4,1,1,100,0,0
69816,-83.3333333333333,4,1,1,5,0,0
69890,-83.3333333333333,4,1,1,100,0,0
69963,-83.3333333333333,4,1,1,5,0,0
70036,-83.3333333333333,4,1,1,100,0,0
70109,-83.3333333333333,4,1,1,5,0,0
70182,-83.3333333333333,4,1,1,100,0,0
70329,-66.6666666666667,4,1,1,100,0,0
70402,-66.6666666666667,4,1,1,5,0,0
70475,-66.6666666666667,4,1,1,100,0,0
70548,-66.6666666666667,4,1,1,5,0,0
70621,-66.6666666666667,4,1,1,100,0,0
70695,-66.6666666666667,4,1,1,5,0,0
70768,-60.6060606060606,4,1,1,100,0,0
70841,-60.6060606060606,4,1,1,5,0,0
70914,-60.6060606060606,4,1,1,100,0,0
70987,-60.6060606060606,4,1,1,5,0,0
71060,-60.6060606060606,4,1,1,100,0,0
71134,-60.6060606060606,4,1,1,5,0,0
71207,-50,4,1,1,100,0,0
71280,-50,4,1,1,5,0,0
71354,-50,4,1,1,100,0,0
71427,-50,4,1,1,5,0,0
71499,-83.3333333333333,4,1,1,100,0,0
72963,-83.3333333333333,4,1,1,5,0,0
73036,-83.3333333333333,4,1,1,100,0,0
74792,-83.3333333333333,4,1,1,100,0,0
76475,-83.3333333333333,4,1,1,100,0,0
76621,-83.3333333333333,4,1,1,5,0,0
76768,-83.3333333333333,4,1,1,100,0,0
79987,-83.3333333333333,4,1,1,5,0,0
80060,-83.3333333333333,4,1,1,100,0,0
82914,-83.3333333333333,4,1,1,40,0,0
83060,-83.3333333333333,4,1,1,40,0,0
83207,-83.3333333333333,4,1,1,40,0,0
83353,-83.3333333333333,4,1,1,40,0,0
83499,-83.3333333333333,4,1,1,40,0,0
83793,-83.3333333333333,4,1,1,50,0,0
83939,-83.3333333333333,4,1,1,57,0,0
84086,-83.3333333333333,4,1,1,65,0,0
84232,-83.3333333333333,4,1,1,73,0,0
84378,-83.3333333333333,4,1,1,80,0,0
84525,-83.3333333333333,4,1,1,87,0,0
84671,-83.3333333333333,4,1,1,93,0,0
85549,-66.6666666666667,4,1,1,100,0,1
87451,-66.6666666666667,4,1,1,100,0,1
87524,-66.6666666666667,4,1,1,5,0,1
87597,-66.6666666666667,4,1,1,100,0,1
87670,-66.6666666666667,4,1,1,5,0,1
87743,-66.6666666666667,4,1,1,100,0,1
87816,-66.6666666666667,4,1,1,5,0,1
87890,-66.6666666666667,4,1,1,100,0,1
87963,-66.6666666666667,4,1,1,5,0,1
88036,-66.6666666666667,4,1,1,100,0,1
88109,-66.6666666666667,4,1,1,5,0,1
88182,-66.6666666666667,4,1,1,100,0,1
88255,-66.6666666666667,4,1,1,5,0,1
88329,-66.6666666666667,4,1,1,100,0,1
88402,-66.6666666666667,4,1,1,5,0,1
88475,-66.6666666666667,4,1,1,100,0,1
88548,-66.6666666666667,4,1,1,5,0,1
88621,-66.6666666666667,4,1,1,100,0,1
88695,-66.6666666666667,4,1,1,5,0,1
88768,-100,4,1,1,100,0,1
89061,-66.6666666666667,4,1,1,100,0,1
89939,-83.3333333333333,4,1,1,100,0,1
90817,-66.6666666666667,4,1,1,100,0,1
91255,-66.6666666666667,4,1,1,100,0,1
91329,-66.6666666666667,4,1,1,5,0,1
91402,-66.6666666666667,4,1,1,100,0,1
91475,-66.6666666666667,4,1,1,5,0,1
91548,-66.6666666666667,4,1,1,100,0,1
91621,-66.6666666666667,4,1,1,5,0,1
91695,-66.6666666666667,4,1,1,100,0,1
91768,-66.6666666666667,4,1,1,5,0,1
91841,-66.6666666666667,4,1,1,100,0,1
91914,-66.6666666666667,4,1,1,5,0,1
91987,-66.6666666666667,4,1,1,100,0,1
92060,-66.6666666666667,4,1,1,5,0,1
92134,-66.6666666666667,4,1,1,100,0,1
92207,-66.6666666666667,4,1,1,5,0,1
92280,-66.6666666666667,4,1,1,100,0,1
92353,-66.6666666666667,4,1,1,5,0,1
92426,-66.6666666666667,4,1,1,100,0,1
92500,-66.6666666666667,4,1,1,5,0,1
92574,-66.6666666666667,4,1,1,100,0,1
94475,-66.6666666666667,4,1,1,100,0,1
94548,-66.6666666666667,4,1,1,5,0,1
94621,-66.6666666666667,4,1,1,100,0,1
94695,-66.6666666666667,4,1,1,5,0,1
94768,-66.6666666666667,4,1,1,100,0,1
94841,-66.6666666666667,4,1,1,5,0,1
94914,-66.6666666666667,4,1,1,100,0,1
94987,-66.6666666666667,4,1,1,5,0,1
95060,-66.6666666666667,4,1,1,100,0,1
95134,-66.6666666666667,4,1,1,5,0,1
95207,-66.6666666666667,4,1,1,100,0,1
95280,-66.6666666666667,4,1,1,5,0,1
95353,-66.6666666666667,4,1,1,100,0,1
95426,-66.6666666666667,4,1,1,5,0,1
95499,-66.6666666666667,4,1,1,100,0,1
95573,-66.6666666666667,4,1,1,5,0,1
95646,-66.6666666666667,4,1,1,100,0,1
95719,-66.6666666666667,4,1,1,5,0,1
95792,-66.6666666666667,4,1,1,100,0,1
95865,-66.6666666666667,4,1,1,5,0,1
95938,-66.6666666666667,4,1,1,100,0,1
96013,-66.6666666666667,4,1,1,5,0,1
96086,-55.5555555555556,4,1,1,100,0,0
96159,-55.5555555555556,4,1,69,100,0,0
96964,-55.5555555555556,4,1,1,100,0,0
97037,-55.5555555555556,4,1,69,100,0,0
97842,-55.5555555555556,4,1,1,100,0,0
97915,-55.5555555555556,4,1,69,100,0,0
98427,-55.5555555555556,4,1,1,100,0,0
98720,-133.333333333333,4,1,1,100,0,0
98938,-133.333333333333,4,1,1,5,0,0
99012,-100,4,1,1,100,0,0
99231,-100,4,1,1,5,0,0
99304,-80,4,1,1,100,0,0
99524,-80,4,1,1,5,0,0
99598,-50,4,1,1,100,0,1
101499,-50,4,1,1,100,0,1
101572,-50,4,1,1,5,0,1
101645,-50,4,1,1,100,0,1
101719,-50,4,1,1,5,0,1
101792,-50,4,1,1,100,0,1
101865,-50,4,1,1,5,0,1
101938,-50,4,1,1,100,0,1
102011,-50,4,1,1,5,0,1
102084,-50,4,1,1,100,0,1
102158,-50,4,1,1,5,0,1
102231,-50,4,1,1,100,0,1
102304,-50,4,1,1,5,0,1
102377,-50,4,1,1,100,0,1
102450,-50,4,1,1,5,0,1
102523,-50,4,1,1,100,0,1
102597,-50,4,1,1,5,0,1
102670,-50,4,1,1,100,0,1
102743,-50,4,1,1,5,0,1
102816,-150.001500015,4,1,1,100,0,1
103037,-150.001500015,4,1,1,5,0,1
103109,-50,4,1,1,100,0,1
105304,-50,4,1,1,100,0,1
105377,-50,4,1,1,5,0,1
105450,-50,4,1,1,100,0,1
105524,-50,4,1,1,5,0,1
105597,-50,4,1,1,100,0,1
105670,-50,4,1,1,5,0,1
105743,-50,4,1,1,100,0,1
105816,-50,4,1,1,5,0,1
105889,-50,4,1,1,100,0,1
105963,-50,4,1,1,5,0,1
106036,-50,4,1,1,100,0,1
106109,-50,4,1,1,5,0,1
106182,-50,4,1,1,100,0,1
106255,-50,4,1,1,5,0,1
106328,-50,4,1,1,100,0,1
106402,-50,4,1,1,5,0,1
106475,-50,4,1,1,100,0,1
106548,-50,4,1,1,5,0,1
106621,-50,4,1,1,100,0,1
108524,-50,4,1,1,100,0,1
108597,-50,4,1,1,5,0,1
108670,-50,4,1,1,100,0,1
108744,-50,4,1,1,5,0,1
108817,-50,4,1,1,100,0,1
108890,-50,4,1,1,5,0,1
108963,-50,4,1,1,100,0,1
109036,-50,4,1,1,5,0,1
109109,-50,4,1,1,100,0,1
109183,-50,4,1,1,5,0,1
109256,-50,4,1,1,100,0,1
109329,-50,4,1,1,5,0,1
109402,-50,4,1,1,100,0,1
109475,-50,4,1,1,5,0,1
109548,-50,4,1,1,100,0,1
109622,-50,4,1,1,5,0,1
109695,-50,4,1,1,100,0,1
109768,-50,4,1,1,5,0,1
109841,-74.0740740740741,4,1,1,100,0,1
109842,-153.846153846154,4,1,1,100,0,1
110098,-50,4,1,1,5,0,1
110134,-50,4,1,1,100,0,1
112036,-50,4,1,1,100,0,1
112109,-50,4,1,1,5,0,1
112182,-50,4,1,1,100,0,1
112255,-50,4,1,1,5,0,1
112329,-50,4,1,1,100,0,1
112402,-50,4,1,1,5,0,1
112475,-50,4,1,1,100,0,1
112548,-50,4,1,1,5,0,1
112621,-50,4,1,1,100,0,1
112695,-50,4,1,1,5,0,1
112768,-50,4,1,1,100,0,1
112841,-50,4,1,1,5,0,1
112914,-50,4,1,1,100,0,1
112987,-50,4,1,1,5,0,1
113060,-50,4,1,1,100,0,1
113134,-50,4,1,1,5,0,1
113207,-50,4,1,1,100,0,1
113280,-50,4,1,1,5,0,1
113353,-50,4,1,1,100,0,1
113426,-50,4,1,1,5,0,1
113499,-50,4,1,1,100,0,1
113573,-50,4,1,1,5,0,1
113647,-66.6666666666667,4,1,3,100,0,0
114963,-200,4,1,1,100,0,0
115109,-200,4,1,3,5,0,0
115182,-200,4,1,3,100,0,0
116719,-200,4,1,1,100,0,0
116865,-200,4,1,1,5,0,0
116938,-200,4,1,3,100,0,0
118475,-200,4,1,1,100,0,0
118621,-200,4,1,1,5,0,0
118695,-66.6666666666667,4,1,3,100,0,0
118915,-50,4,1,3,100,0,0
120670,-200,4,1,3,100,0,0
120816,-200,4,1,3,96,0,0
120963,-200,4,1,3,92,0,0
121109,-200,4,1,3,88,0,0
121255,-200,4,1,3,84,0,0
121402,-200,4,1,3,80,0,0
121548,-200,4,1,3,76,0,0
121695,-200,4,1,3,72,0,0
121841,-200,4,1,3,68,0,0
121987,-200,4,1,3,64,0,0
122134,-200,4,1,3,60,0,0
122280,-200,4,1,3,56,0,0
122426,-200,4,1,3,52,0,0
122573,-200,4,1,3,48,0,0
122719,-200,4,1,3,44,0,0
122865,-200,4,1,3,40,0,0
123012,-200,4,1,3,36,0,0
123158,-200,4,1,3,32,0,0
123304,-200,4,1,3,28,0,0
123451,-200,4,1,3,24,0,0
123597,-200,4,1,3,20,0,0
123743,-200,4,1,3,16,0,0
123890,-200,4,1,3,12,0,0
124036,-200,4,2,1,5,0,0

[HitObjects]
69,290,964,5,0,0:0:0:0:
61,287,1037,1,0,0:0:0:0:
61,280,1110,1,0,0:0:0:0:
69,277,1183,1,0,0:0:0:0:
73,283,1256,6,0,P|166:261|199:161,1,200
0,214,1696,6,0,P|-27:305|42:384,1,200
251,258,2135,6,0,P|217:243|180:261,1,75.0000028610231
119,384,2427,2,0,P|147:360|152:324,1,75.0000028610231
77,206,2720,2,0,P|82:241|111:263,1,75.0000028610231
268,351,3013,6,0,B|405:389|405:389|368:371|353:329|368:304,1,200,0|0,2:0|2:0,2:0:0:0:
512,303,3452,2,0,P|455:244|440:324,1,200
275,337,3891,6,0,L|365:325,1,75.0000028610231
383,243,4183,2,0,L|293:231,1,75.0000028610231
275,149,4476,2,0,L|365:137,1,75.0000028610231
383,55,4769,6,0,B|293:43|293:43|214:52,1,150.000005722046
381,140,5208,6,0,B|291:128|291:128|232:134,1,150.000005722046
155,198,5647,6,0,P|115:229|115:273,1,75.0000028610231
191,275,5939,2,0,P|196:325|233:348,1,75.0000028610231
275,285,6232,2,0,P|320:307|359:288,1,75.0000028610231
326,218,6525,6,0,P|368:190|345:58,1,200
107,123,6964,2,0,B|172:116|172:116|237:139|237:139|329:130,1,200
268,0,7403,6,0,P|243:57|259:99,1,100
482,104,7696,2,0,P|425:79|383:95,1,100
232,245,7988,5,0,0:0:0:0:
234,270,8061,1,0,0:0:0:0:
243,293,8135,1,0,0:0:0:0:
260,312,8208,1,0,0:0:0:0:
280,324,8281,1,4,0:0:0:0:
512,244,8574,5,0,0:0:0:0:
483,331,8720,2,0,P|434:280|463:163,1,200
468,42,9159,2,0,P|424:79|371:66,1,100
270,20,9452,2,0,L|286:19,1,12.5
337,262,9744,2,0,L|321:261,1,12.5
76,266,10037,6,0,B|64:248|37:229|6:230|6:230|163:214,1,239.999992675781
69,51,10476,2,0,P|164:61|96:129,1,239.999992675781
21,315,10915,2,0,B|51:287|51:287|143:286,1,119.999996337891
198,379,11208,2,0,L|214:380,1,14.9999995422363
266,143,11500,2,0,L|248:142,1,14.9999995422363
384,328,11793,6,0,B|342:324|315:284|301:249|301:249|336:235|383:226|415:254,1,239.999992675781
447,182,12232,2,0,B|488:185|515:225|529:260|529:260|494:274|447:283|415:255,1,239.999992675781
316,0,12671,2,0,L|303:125,1,119.999996337891
291,229,12964,6,0,L|293:213,1,14.9999995422363
49,162,13256,2,0,L|51:176,1,14.9999995422363
155,384,13549,6,0,P|86:302|192:308,1,270.000001029968,0|0,2:0|0:0,0:0:0:0:
277,331,13988,2,0,B|462:313|462:313|433:309|401:302|372:273,1,270.000001029968
249,132,14427,5,0,1:0:0:0:
401,186,14574,1,0,1:0:0:0:
71,185,14720,5,0,1:0:0:0:
339,89,14866,1,0,1:0:0:0:
17,73,15013,6,0,L|105:83,1,67.5000002574921,0|0,1:0|1:0,1:0:0:0:
184,306,15159,2,0,L|272:296,1,67.5000002574921,0|0,1:0|1:0,1:0:0:0:
392,277,15305,2,0,B|495:331|597:206|507:75|391:91|353:171|348:214|348:214|331:299|287:345|213:334|191:288|178:249|186:218|217:179|265:181|265:181|314:183|333:234,1,839.999974365235,12|0,0:0|0:0,0:0:0:0:
324,216,18817,6,0,B|59:188|59:188|24:95|24:95|294:122|294:122|267:40|267:40|92:24,1,900.000034332277,12|0,0:0|0:0,0:0:0:0:
509,69,21891,6,0,P|474:62|464:62,1,37.5000014305115
399,2,22037,6,0,P|363:-1|353:0,1,37.5000014305115,0|0,3:0|0:0,0:0:0:0:
277,51,22183,6,0,P|241:52|231:55,1,37.5000014305115,0|0,3:0|3:0,0:0:0:0:
145,11,22330,6,0,P|104:25|72:43,2,75.0000028610231
202,146,22769,2,0,P|243:160|275:178,2,75.0000028610231
197,358,23208,1,0,0:0:0:0:
140,276,23354,1,0,0:0:0:0:
347,266,23500,2,0,P|306:280|274:298,1,75.0000028610231
433,355,23793,2,0,P|474:369|506:387,1,75.0000028610231,0|0,3:0|0:0,0:0:0:0:
299,384,24086,6,0,L|315:294,2,75.0000028610231
377,239,24525,2,0,L|361:149,2,75.0000028610231
202,90,24964,5,0,0:0:0:0:
236,211,25110,1,0,0:0:0:0:
11,377,25256,5,0,0:0:0:0:
63,222,25403,1,0,0:0:0:0:
335,184,25549,5,0,3:0:0:0:
390,363,25696,1,0,0:0:0:0:
86,335,25842,6,0,L|200:321,1,100
296,306,26135,1,0,0:0:0:0:
94,239,26281,1,0,0:0:0:0:
183,384,26427,5,0,3:0:0:0:
239,157,26574,1,0,0:0:0:0:
512,259,26720,5,0,0:0:0:0:
320,165,26866,1,0,0:0:0:0:
368,307,27013,1,0,0:0:0:0:
469,114,27159,2,0,B|446:79|446:79|334:66,1,133.999993661499,0|0,3:0|0:0,0:0:0:0:
368,307,27452,2,0,B|391:342|391:342|503:355,1,133.999993661499,0|0,3:0|0:0,0:0:0:0:
205,351,27744,5,0,0:0:0:0:
137,59,27891,1,0,0:0:0:0:
65,229,28037,1,0,3:0:0:0:
320,74,28183,1,0,0:0:0:0:
363,255,28330,1,0,0:0:0:0:
205,351,28476,6,0,P|251:360|284:342,1,75.0000028610231,0|0,3:1|0:0,0:0:0:0:
322,145,28622,2,0,P|331:99|313:66,1,75.0000028610231
276,349,28769,6,0,L|289:247,1,75.0000028610231,0|0,3:1|0:0,0:0:0:0:
320,74,28915,2,0,L|218:61,1,75.0000028610231
285,274,29061,6,0,P|244:251|207:258,1,75.0000028610231,0|0,3:1|0:0,0:0:0:0:
245,64,29208,2,0,P|222:104|229:141,1,75.0000028610231
217,253,29354,6,0,B|285:243|285:243|338:259|338:259|440:242,1,200,12|0,0:0|0:0,0:0:0:0:
20,284,29647,1,8,0:0:0:0:
306,297,29793,1,0,0:0:0:0:
308,309,29866,1,0,0:0:0:0:
310,321,29939,1,8,0:0:0:0:
170,128,30086,1,0,0:0:0:0:
227,384,30232,1,8,0:0:0:0:
373,140,30378,1,0,0:0:0:0:
119,341,30525,1,8,0:0:0:0:
271,53,30671,1,0,0:0:0:0:
429,275,30817,6,0,P|324:291|409:207,1,300,8|0,0:0|0:0,0:0:0:0:
278,353,31110,2,0,P|232:264|271:169,1,200,8|2,0:0|0:0,0:0:0:0:
144,59,31403,2,0,B|91:65|28:29|28:29|56:63|55:109,1,200,10|2,0:0|0:0,0:0:0:0:
331,352,31696,6,0,P|325:318|284:283,1,59.9999981689454,10|0,0:0|0:0,0:0:0:0:
174,168,31842,2,0,P|180:202|221:237,1,59.9999981689454,2|0,0:0|0:0,0:0:0:0:
146,283,31988,6,0,P|178:294|229:276,1,59.9999981689454,10|0,0:0|0:0,0:0:0:0:
383,239,32135,2,0,P|350:227|299:245,1,59.9999981689454,2|0,0:0|0:0,0:0:0:0:
298,157,32281,6,0,P|271:179|261:232,1,59.9999981689454,10|0,0:0|0:0,0:0:0:0:
217,384,32427,2,0,P|243:361|253:308,1,59.9999981689454,2|0,0:0|0:0,0:0:0:0:
331,352,32574,6,0,P|325:318|284:283,1,59.9999981689454,10|0,0:0|0:0,0:0:0:0:
174,168,32720,2,0,P|180:202|221:237,1,59.9999981689454
146,283,32866,6,0,P|223:290|271:236,1,119.999996337891,10|0,0:0|0:0,0:0:0:0:
9,158,33159,1,8,0:0:0:0:
244,87,33305,1,0,0:0:0:0:
244,87,33378,1,0,0:0:0:0:
244,87,33452,6,0,L|107:72,1,119.999996337891,8|0,0:0|0:0,0:0:0:0:
206,355,33744,2,0,P|239:317|231:240,1,119.999996337891,8|0,0:0|0:0,0:0:0:0:
0,257,34037,6,0,L|119:273,1,119.999996337891,8|0,0:0|0:0,0:0:0:0:
303,121,34330,5,8,0:0:0:0:
119,273,34476,1,0,0:0:0:0:
393,355,34622,1,8,0:0:0:0:
282,203,34769,5,0,0:0:0:0:
216,258,34915,1,8,0:0:0:0:
315,287,35061,1,0,0:0:0:0:
308,98,35208,5,8,0:0:0:0:
414,373,35354,1,0,0:0:0:0:
91,278,35500,6,0,B|85:260|85:260|114:192,1,59.9999981689454,10|0,0:0|0:0,0:0:0:0:
251,333,35647,2,0,B|238:347|238:347|165:356,1,59.9999981689454,2|0,0:0|0:0,0:0:0:0:
219,167,35793,2,0,B|237:170|237:170|281:229,1,59.9999981689454,10|0,3:0|0:0,0:0:0:0:
80,266,35939,2,0,B|74:248|74:248|103:180,1,59.9999981689454,2|0,0:0|0:0,0:0:0:0:
144,88,36086,6,2,B|144:64|179:64|179:88|179:88|179:111|144:111|144:88|144:88|144:64|179:64|179:88|179:88|179:111|144:111|144:88|144:88|144:64|179:64|179:88|179:88|179:111|144:111|144:88|144:88|144:64|179:64|179:88|179:88|179:111|144:111|144:64|179:64|179:88|179:88|179:111|144:111|144:88|144:88|144:64,1,400,10|0,0:0|3:0,0:0:0:0:
102,23,36378,6,0,P|175:2|228:30,1,119.999996337891,12|0,0:0|0:0,0:0:0:0:
262,270,36671,1,8,0:0:0:0:
4,185,36817,1,0,0:0:0:0:
4,185,36891,1,0,0:0:0:0:
4,185,36964,2,0,L|131:178,1,119.999996337891,8|0,0:0|0:0,0:0:0:0:
378,367,37256,2,0,L|251:360,1,119.999996337891,8|0,0:0|0:0,0:0:0:0:
29,374,37549,5,8,0:0:0:0:
31,315,37622,1,0,0:0:0:0:
69,270,37696,1,0,0:0:0:0:
126,257,37769,1,0,0:0:0:0:
179,283,37842,1,8,0:0:0:0:
232,308,37915,1,0,0:0:0:0:
289,295,37988,1,0,0:0:0:0:
327,250,38061,1,0,0:0:0:0:
330,192,38135,1,8,0:0:0:0:
0,126,38281,5,2,0:0:0:0:
120,352,38427,1,10,0:0:0:0:
243,215,38574,1,2,0:0:0:0:
116,50,38720,6,0,P|123:102|138:133,1,59.9999981689454,10|0,0:0|0:0,0:0:0:0:
166,179,38866,2,0,P|194:215|226:239,1,59.9999981689454,2|0,0:0|0:0,0:0:0:0:
272,266,39013,2,0,P|306:283|354:288,1,59.9999981689454,10|0,0:0|0:0,0:0:0:0:
409,287,39159,2,0,P|453:284|492:265,1,59.9999981689454,2|0,0:0|0:0,0:0:0:0:
432,152,39305,6,0,P|394:134|349:129,1,59.9999981689454,10|0,0:0|0:0,0:0:0:0:
295,130,39452,2,0,P|256:130|212:152,1,59.9999981689454,2|0,0:0|0:0,0:0:0:0:
166,179,39598,2,0,P|129:205|105:239,1,59.9999981689454,10|0,0:0|0:0,0:0:0:0:
80,287,39744,2,0,P|63:326|57:369,1,59.9999981689454
251,384,39891,6,0,P|256:304|204:238,1,150.000005722046,10|0,0:0|0:0,0:0:0:0:
6,137,40183,1,8,0:0:0:0:
79,381,40330,1,0,0:0:0:0:
79,381,40403,1,0,0:0:0:0:
79,381,40476,6,0,B|153:362|153:362|224:378,1,150.000005722046,8|0,0:0|0:0,0:0:0:0:
512,217,40769,2,0,B|438:198|438:198|367:214,1,150.000005722046,8|0,0:0|0:0,0:0:0:0:
153,117,41061,6,0,B|280:106,1,112.500004291535,8|0,0:0|0:0,0:0:0:0:
271,26,41354,6,0,P|346:122|274:187,1,189.999994926453,8|0,0:0|0:0,0:0:0:0:
0,286,41647,2,0,B|62:274|62:274|135:286|135:286|201:271,1,189.999994926453,8|0,0:0|0:0,0:0:0:0:
512,217,41939,2,0,P|553:286|474:304,1,189.999994926453,8|0,0:0|0:0,0:0:0:0:
144,96,42232,6,8,L|163:203,1,59.9999981689454,10|0,0:0|0:0,0:0:0:0:
368,96,42378,2,0,L|354:191,1,59.9999981689454,2|0,0:0|0:0,0:0:0:0:
48,208,42525,6,0,L|92:278,1,59.9999981689454,14|0,0:0|0:0,0:0:0:0:
464,208,42671,2,0,L|420:278,1,59.9999981689454,2|0,0:0|0:0,0:0:0:0:
256,384,42817,1,10,0:0:0:0:
128,208,42964,6,0,P|176:240|208:240,1,69.9999978637696,6|0,0:0|0:0,0:0:0:0:
384,208,43110,6,0,P|336:240|304:240,1,69.9999978637696,10|0,0:0|0:0,0:0:0:0:
80,96,43256,6,0,P|131:70|147:42,1,69.9999978637696,2|0,0:0|0:0,0:0:0:0:
432,96,43403,6,0,P|350:55|325:12,1,139.999995727539,14|0,0:0|0:0,0:0:0:0:
111,270,43696,1,8,0:0:0:0:
407,177,43842,1,0,0:0:0:0:
50,182,43988,5,8,0:0:0:0:
407,294,44135,1,0,0:0:0:0:
234,56,44281,6,0,B|238:109|238:109|230:150|230:150|234:202,1,139.999995727539,8|0,0:0|0:0,0:0:0:0:
103,340,44574,5,8,0:0:0:0:
135,349,44647,1,0,0:0:0:0:
184,329,44720,1,0,3:0:0:0:
246,359,44793,1,0,0:0:0:0:
301,325,44866,1,8,0:0:0:0:
187,254,45013,1,0,0:0:0:0:
391,241,45159,6,0,B|544:225|544:225|496:236|476:269|475:288,1,209.999993591309,8|0,0:0|0:0,0:0:0:0:
512,123,45452,5,8,0:0:0:0:
480,132,45525,1,0,0:0:0:0:
431,112,45598,1,0,0:0:0:0:
369,142,45671,1,0,0:0:0:0:
314,108,45744,1,8,0:0:0:0:
187,254,45891,1,0,0:0:0:0:
0,74,46037,6,0,P|58:154|139:140,1,139.999995727539,10|0,0:0|0:0,0:0:0:0:
410,154,46330,6,0,P|368:127|329:133,1,69.9999978637696,10|0,0:0|0:0,0:0:0:0:
447,359,46476,2,0,P|474:317|468:278,1,69.9999978637696,2|0,3:0|0:0,0:0:0:0:
187,254,46622,6,0,P|132:249|208:361,1,300,10|0,0:0|0:0,0:0:0:0:
345,366,46915,6,0,B|419:397|481:340|481:340|455:375|450:407,1,200,10|0,0:0|0:0,0:0:0:0:
369,130,47208,5,8,0:0:0:0:
399,290,47354,1,0,0:0:0:0:
62,276,47500,5,8,0:0:0:0:
268,237,47647,1,0,0:0:0:0:
13,112,47793,6,0,P|-10:221|5:251,1,139.999995727539,8|0,0:0|0:0,0:0:0:0:
102,384,48086,5,8,0:0:0:0:
64,182,48232,1,0,3:0:0:0:
512,202,48378,5,8,0:0:0:0:
268,237,48525,1,0,0:0:0:0:
512,359,48671,6,0,L|337:344,1,139.999995727539,10|2,0:0|0:0,0:0:0:0:
274,335,48891,1,0,0:0:0:0:
373,330,48964,2,0,P|335:284|273:328,1,139.999995727539,10|2,0:0|0:0,0:0:0:0:
0,308,49256,6,0,L|175:323,1,139.999995727539,10|2,0:0|0:0,0:0:0:0:
238,332,49476,1,0,0:0:0:0:
139,337,49549,2,0,P|177:383|239:339,1,139.999995727539,10|2,0:0|0:0,0:0:0:0:
249,215,49842,5,8,0:0:0:0:
267,214,49915,1,0,0:0:0:0:
285,212,49988,1,0,3:0:0:0:
303,210,50061,1,0,0:0:0:0:
381,200,50135,5,8,0:0:0:0:
399,201,50208,1,0,0:0:0:0:
417,203,50281,1,0,3:0:0:0:
435,204,50354,1,0,0:0:0:0:
512,215,50427,6,0,B|526:172|498:139|498:139|477:115|486:78,1,139.999995727539,12|0,0:0|0:0,0:0:0:0:
512,0,50720,5,8,0:0:0:0:
381,200,50866,1,0,0:0:0:0:
250,111,51013,5,8,0:0:0:0:
427,330,51159,1,0,0:0:0:0:
512,138,51305,6,0,L|348:124,1,139.999995727539,8|0,0:0|0:0,0:0:0:0:
70,88,51598,5,8,0:0:0:0:
29,100,51671,1,0,0:0:0:0:
41,140,51744,1,0,3:0:0:0:
81,128,51817,1,0,0:0:0:0:
70,88,51891,6,0,P|49:51|-8:42,1,75.0000028610231,8|0,0:0|0:0,0:0:0:0:
267,330,52183,1,8,0:0:0:0:
135,187,52330,1,0,0:0:0:0:
445,281,52476,5,8,0:0:0:0:
433,322,52549,1,0,0:0:0:0:
393,310,52622,1,0,0:0:0:0:
405,270,52696,1,0,0:0:0:0:
445,281,52769,6,0,P|480:300|489:357,1,75.0000028610231,8|0,0:0|0:0,0:0:0:0:
170,280,53061,6,0,B|154:267|130:258|109:259|109:259|261:234,1,200,10|0,0:0|0:0,0:0:0:0:
489,187,53354,2,0,L|426:167,1,50,10|0,0:0|0:0,0:0:0:0:
312,113,53500,2,0,L|264:128,1,50,2|0,3:1|0:0,0:0:0:0:
135,187,53647,2,0,P|77:156|189:138,1,300,10|0,0:0|0:0,0:0:0:0:
234,292,53939,6,0,P|274:270|193:260,1,200,10|0,0:0|0:0,0:0:0:0:
180,384,54232,5,8,0:0:0:0:
135,187,54378,1,0,0:0:0:0:
507,231,54525,5,8,0:0:0:0:
234,292,54671,1,0,0:0:0:0:
282,96,54817,6,0,L|445:74,1,150.000005722046,8|0,0:0|0:0,0:0:0:0:
325,343,55110,1,8,0:0:0:0:
114,124,55256,1,0,3:0:0:0:
153,294,55403,6,0,L|-17:272,1,150.000005722046,8|0,0:0|0:0,0:0:0:0:
283,348,55696,6,0,P|419:375|462:324,1,200,10|2,0:0|0:0,0:0:0:0:
390,254,55915,1,0,0:0:0:0:
375,252,55989,2,0,P|335:272|378:253,1,200,10|2,0:0|0:0,0:0:0:0:
237,23,56281,6,0,P|101:-4|58:47,1,200,10|2,0:0|0:0,0:0:0:0:
130,117,56500,1,0,0:0:0:0:
145,119,56574,2,0,P|185:99|142:118,1,200,10|2,0:0|0:0,0:0:0:0:
1,208,56866,6,0,P|48:251|86:256,1,67.5000002574921,10|0,0:0|0:0,0:0:0:0:
298,128,57013,2,0,P|251:171|213:176,1,67.5000002574921,6|0,0:0|0:0,0:0:0:0:
463,303,57159,6,0,P|491:286|512:259,1,67.5000002574921,10|0,0:0|0:0,0:0:0:0:
264,383,57305,2,0,P|235:366|214:339,1,67.5000002574921,6|0,0:0|0:0,0:0:0:0:
108,153,57452,6,0,B|145:181|145:181|262:170,1,150.000005722046,14|0,0:0|0:0,0:0:0:0:
463,156,57744,1,8,0:0:0:0:
268,0,57891,1,0,0:0:0:0:
268,0,57964,1,0,0:0:0:0:
268,0,58037,6,0,P|280:85|227:113,1,150.000005722046,8|0,0:0|0:0,0:0:0:0:
0,192,58330,6,0,P|85:180|113:233,1,150.000005722046,8|0,3:0|0:0,0:0:0:0:
273,383,58622,6,0,P|261:298|314:270,1,150.000005722046,8|0,0:0|0:0,0:0:0:0:
512,192,58915,6,0,P|427:204|429:92,1,225.000008583069,8|0,0:0|0:0,0:0:0:0:
319,0,59208,2,8,L|323:151,1,150.000005722046,8|2,0:0|0:0,0:0:0:0:
52,108,59500,6,0,P|72:154|88:171,1,59.9999981689454,10|0,0:0|0:0,0:0:0:0:
180,230,59647,2,0,P|221:231|256:219,1,59.9999981689454,2|0,0:0|0:0,0:0:0:0:
357,129,59793,2,0,P|406:137|432:155,1,59.9999981689454,10|0,0:0|0:0,0:0:0:0:
455,285,59939,2,0,P|443:331|428:350,1,59.9999981689454,2|0,0:0|0:0,0:0:0:0:
239,384,60086,2,0,P|181:373|168:358,1,59.9999981689454,10|0,3:1|0:0,0:0:0:0:
71,195,60232,2,0,P|102:155|127:148,1,59.9999981689454,2|0,0:0|0:0,0:0:0:0:
348,67,60378,2,0,P|393:73|411:85,1,59.9999981689454,10|0,0:0|0:0,0:0:0:0:
409,334,60525,2,0,P|387:377|366:393,1,59.9999981689454,2|0,0:0|0:0,0:0:0:0:
83,353,60671,2,0,B|37:350|3:315|0:269|0:269|12:280|33:287|58:282,1,179.999994506836,10|0,0:0|0:0,0:0:0:0:
168,271,60964,6,0,B|216:267|252:231|255:182|255:182|242:194|220:201|194:196,1,200,10|0,0:0|0:0,0:0:0:0:
9,170,61256,1,8,0:0:0:0:
362,134,61403,1,0,0:0:0:0:
362,134,61476,1,0,0:0:0:0:
362,134,61549,6,0,L|491:119,1,119.999996337891,8|0,0:0|0:0,0:0:0:0:
187,276,61842,2,0,L|316:291,1,119.999996337891,8|0,3:0|0:0,0:0:0:0:
12,134,62135,2,0,L|141:119,1,119.999996337891,8|0,0:0|0:0,0:0:0:0:
386,0,62427,6,0,L|372:76,1,59.9999981689454,10|0,0:0|0:0,0:0:0:0:
343,90,62574,2,0,L|329:166,1,59.9999981689454,2|0,0:0|0:0,0:0:0:0:
300,180,62720,2,0,L|286:256,1,59.9999981689454,10|0,0:0|0:0,0:0:0:0:
257,270,62866,2,0,L|243:346,1,59.9999981689454,2|0,0:0|0:0,0:0:0:0:
214,360,63013,6,0,P|139:361|126:282,1,119.999996337891,10|0,0:0|0:0,0:0:0:0:
512,278,63305,6,0,L|414:265,1,59.9999981689454,10|0,0:0|0:0,0:0:0:0:
350,254,63452,1,0,0:0:0:0:
52,384,63598,6,0,L|149:371,1,59.9999981689454,10|0,0:0|0:0,0:0:0:0:
214,360,63745,1,0,0:0:0:0:
382,14,63891,6,0,P|370:60|378:90,1,59.9999981689454,10|0,0:0|0:0,0:0:0:0:
365,222,64037,2,0,P|377:176|369:146,1,59.9999981689454,2|0,0:0|0:0,0:0:0:0:
254,108,64183,6,0,P|300:120|330:112,1,59.9999981689454,10|0,0:0|0:0,0:0:0:0:
489,128,64330,2,0,P|443:115|413:124,1,59.9999981689454,2|0,0:0|0:0,0:0:0:0:
155,32,64476,6,0,P|227:16|273:29,1,119.999996337891,14|0,0:0|0:0,0:0:0:0:
432,117,64769,1,8,0:0:0:0:
183,277,64915,5,0,0:0:0:0:
183,277,64988,1,0,0:0:0:0:
183,277,65061,6,0,B|233:304|233:304|311:291,1,119.999996337891,8|0,0:0|0:0,0:0:0:0:
125,53,65354,2,0,B|62:42|62:42|12:69,1,119.999996337891,8|0,3:0|0:0,0:0:0:0:
380,185,65647,2,0,B|390:122|390:122|363:72,1,119.999996337891,8|0,0:0|0:0,0:0:0:0:
18,272,65939,6,0,B|7:334|7:334|34:384,1,119.999996337891,8|0,0:0|0:0,0:0:0:0:
316,300,66232,1,8,0:0:0:0:
114,366,66378,1,0,0:0:0:0:
0,199,66525,6,0,L|85:182,1,59.9999981689454,10|0,0:0|0:0,0:0:0:0:
148,243,66671,2,0,L|233:260,1,59.9999981689454,2|0,0:0|0:0,0:0:0:0:
296,199,66817,2,0,L|381:182,1,59.9999981689454,10|0,0:0|0:0,0:0:0:0:
444,243,66964,2,0,L|529:260,1,59.9999981689454,2|0,0:0|0:0,0:0:0:0:
509,50,67110,6,0,L|424:33,1,59.9999981689454,10|0,3:1|0:0,0:0:0:0:
361,94,67256,2,0,L|276:111,1,59.9999981689454,2|0,0:0|0:0,0:0:0:0:
213,50,67402,2,0,L|128:33,1,59.9999981689454,10|0,0:0|0:0,0:0:0:0:
65,94,67549,2,0,L|-20:111,1,59.9999981689454,2|0,0:0|0:0,0:0:0:0:
178,198,67696,2,0,L|367:235,1,179.999994506836,10|0,0:0|0:0,0:0:0:0:
238,305,67988,6,0,L|69:338,1,119.999996337891,10|0,0:0|0:0,0:0:0:0:
392,125,68281,1,8,0:0:0:0:
159,80,68427,1,0,0:0:0:0:
159,80,68500,1,0,0:0:0:0:
159,80,68573,6,0,P|110:102|78:169,1,119.999996337891,8|0,0:0|0:0,0:0:0:0:
220,384,68866,2,0,L|201:261,1,119.999996337891,8|0,3:1|0:0,0:0:0:0:
392,125,69159,2,0,L|373:248,1,119.999996337891,8|0,0:0|0:0,0:0:0:0:
118,277,69452,6,0,P|147:270|172:230,1,59.9999981689454,10|0,0:0|0:0,0:0:0:0:
320,155,69598,2,0,P|300:177|303:224,1,59.9999981689454,2|0,0:3|0:3,0:3:0:0:
229,370,69744,6,0,P|231:340|200:304,1,59.9999981689454,10|0,0:3|0:3,0:3:0:0:
175,143,69891,2,0,P|190:168|236:179,1,59.9999981689454,2|0,0:0|0:0,0:0:0:0:
353,296,70037,6,0,P|325:284|281:302,1,59.9999981689454,10|0,0:3|0:3,0:3:0:0:
118,277,70183,2,0,P|90:288|46:271,1,59.9999981689454,2|0,0:3|0:3,0:3:0:0:
0,170,70330,6,0,L|80:186,1,75.0000028610231,10|0,0:0|0:0,0:0:0:0:
118,277,70476,2,0,L|191:262,1,75.0000028610231,2|0,3:1|0:0,0:0:0:0:
512,170,70622,6,0,L|432:186,1,75.0000028610231,8|0,0:0|0:0,0:0:0:0:
394,277,70768,2,0,L|312:260,1,82.5000007867813,2|0,0:0|0:0,0:0:0:0:
149,83,70915,6,0,P|163:165|190:205,1,82.5000007867813,10|0,0:0|0:0,0:0:0:0:
362,83,71061,2,0,P|347:165|320:205,1,82.5000007867813,2|0,0:0|0:0,0:0:0:0:
103,329,71208,6,0,P|185:314|225:287,1,100,10|0,0:0|0:0,0:0:0:0:
409,329,71354,2,0,P|326:314|286:287,1,100,2|0,3:0|0:0,0:0:0:0:
40,125,71500,5,14,0:0:0:0:
468,254,71793,1,8,0:0:0:0:
173,353,72817,6,0,L|323:341,1,119.999996337891,0|0,3:0|0:0,0:0:0:0:
0,243,73256,5,12,0:0:0:0:
457,105,73549,1,8,0:0:0:0:
231,295,74574,5,0,3:0:0:0:
264,141,74720,6,0,P|250:175|261:223,1,59.9999981689454
349,384,74866,2,0,P|326:354|279:340,1,59.9999981689454
111,303,75013,5,8,0:0:0:0:
477,232,75305,1,8,0:0:0:0:
50,149,75598,1,8,0:0:0:0:
274,264,76476,6,0,L|124:252,1,119.999996337891,0|0,3:0|0:0,0:0:0:0:
354,137,76769,6,0,P|384:120|395:94,1,59.9999981689454,12|0,0:0|0:0,0:0:0:0:
236,147,76915,1,0,0:0:0:0:
354,137,77061,1,0,0:0:0:0:
166,40,77208,6,0,P|136:22|108:25,1,59.9999981689454,8|0,0:0|0:0,0:0:0:0:
234,137,77355,1,0,0:0:0:0:
166,40,77500,1,0,0:0:0:0:
186,255,77647,6,0,L|336:267,1,119.999996337891,8|0,0:0|0:0,0:0:0:0:
415,271,77939,1,0,0:3:0:0:
351,53,78086,6,0,L|343:117,1,59.9999981689454,8|0,0:0|0:0,0:0:0:0:
325,251,78232,1,0,0:0:0:0:
172,125,78378,1,0,0:0:0:0:
99,297,78525,6,0,L|174:303,1,59.9999981689454,8|0,0:0|0:0,0:0:0:0:
175,375,78671,2,0,L|250:381,1,59.9999981689454
313,332,78817,1,8,0:0:0:0:
236,147,79842,6,0,L|86:159,1,119.999996337891
8,11,80281,5,14,0:0:0:0:
437,140,80574,1,8,0:0:0:0:
259,203,81744,5,0,0:0:0:0:
245,184,81817,1,0,0:0:0:0:
268,192,81891,1,0,0:0:0:0:
245,199,81964,1,0,0:0:0:0:
259,179,82037,1,8,0:0:0:0:
0,225,82330,1,8,0:0:0:0:
512,174,82622,1,8,0:0:0:0:
223,166,82915,5,0,0:0:0:0:
243,347,83061,1,0,0:0:0:0:
323,252,83208,5,0,0:0:0:0:
55,280,83354,1,0,0:0:0:0:
338,367,83500,5,0,0:0:0:0:
309,99,83647,1,0,0:0:0:0:
130,167,83793,6,0,P|160:184|191:185,1,59.9999981689454,8|0,0:0|0:0,0:0:0:0:
381,216,83939,2,0,P|351:199|320:198,1,59.9999981689454,2|0,0:0|0:0,0:0:0:0:
172,288,84086,6,0,P|201:270|218:244,1,59.9999981689454,8|0,0:0|0:0,0:0:0:0:
339,95,84232,2,0,P|309:112|292:138,1,59.9999981689454,2|0,0:0|0:0,0:0:0:0:
297,312,84378,6,0,P|296:277|282:250,1,59.9999981689454,8|0,0:0|0:0,0:0:0:0:
214,71,84524,2,0,P|214:105|228:132,1,59.9999981689454,2|0,0:0|0:0,0:0:0:0:
236,358,84671,5,8,0:0:0:0:
302,364,84744,1,0,0:0:0:0:
366,344,84817,1,2,0:0:0:0:
416,300,84890,1,0,0:0:0:0:
445,240,84963,1,8,0:0:0:0:
449,173,85036,1,0,0:0:0:0:
425,111,85110,1,2,0:0:0:0:
379,62,85183,1,0,0:0:0:0:
317,37,85257,5,8,0:0:0:0:
275,108,85330,1,0,0:0:0:0:
263,190,85403,1,2,0:0:0:0:
292,271,85476,1,0,0:0:0:0:
348,333,85549,5,12,0:0:0:0:
58,305,85696,1,0,0:0:0:0:
409,199,85842,1,8,0:0:0:0:
89,46,85988,1,0,0:0:0:0:
348,333,86135,2,0,L|185:350,1,150.000005722046,8|0,0:0|0:0,0:0:0:0:
304,97,86354,5,0,0:0:0:0:
317,102,86427,2,0,L|480:119,1,150.000005722046,8|0,0:0|0:0,0:0:0:0:
205,328,86720,5,8,0:0:0:0:
245,0,86866,1,0,3:0:0:0:
0,204,87013,2,0,B|27:182|27:182|76:183|76:183|82:182|82:182|149:184,1,150.000005722046,8|0,0:0|0:0,0:0:0:0:
429,272,87305,1,8,0:0:0:0:
97,283,87452,6,0,P|149:275|172:256,1,75.0000028610231,2|0,0:0|0:0,0:0:0:0:
270,63,87598,2,0,L|279:153,1,75.0000028610231,10|0,0:0|0:0,0:0:0:0:
291,384,87744,2,0,L|282:294,1,75.0000028610231,2|0,0:0|0:0,0:0:0:0:
384,7,87891,2,0,L|393:97,1,75.0000028610231,10|0,3:1|0:0,0:0:0:0:
405,328,88037,2,0,L|396:238,1,75.0000028610231
512,107,88183,6,0,P|460:115|437:134,1,75.0000028610231,10|0,0:0|0:0,0:0:0:0:
381,289,88330,2,0,P|343:287|311:268,1,75.0000028610231,2|0,0:0|0:0,0:0:0:0:
200,166,88476,2,0,P|148:174|125:193,1,75.0000028610231,10|0,0:0|0:0,0:0:0:0:
69,348,88622,2,0,P|31:346|0:327,1,75.0000028610231,2|0,3:1|0:0,0:0:0:0:
209,246,88769,2,0,P|241:314|211:385,1,150,10|0,0:0|0:0,0:0:0:0:
60,202,89061,6,0,B|85:178|85:178|222:163,1,150.000005722046,8|0,0:0|0:0,0:0:0:0:
449,149,89354,1,8,0:0:0:0:
320,343,89500,1,0,0:0:0:0:
199,165,89647,2,0,P|189:109|246:38,1,150.000005722046,8|0,0:0|0:0,0:0:0:0:
451,167,89866,5,0,0:0:0:0:
453,186,89939,2,0,B|468:336,1,119.999996337891,8|0,0:0|0:0,0:0:0:0:
133,309,90232,1,8,0:0:0:0:
320,75,90378,1,0,3:0:0:0:
399,372,90525,2,0,L|271:354,1,119.999996337891,8|0,0:0|0:0,0:0:0:0:
0,358,90817,6,0,P|107:346|-11:286,1,300.000011444092,8|8,0:0|0:0,0:0:0:0:
292,255,91256,6,0,P|355:231|367:203,1,75.0000028610231,2|0,0:0|0:0,0:0:0:0:
182,191,91403,2,0,P|171:258|190:283,1,75.0000028610231,10|0,0:0|0:0,0:0:0:0:
292,128,91549,2,0,P|240:86|209:89,1,75.0000028610231,2|0,0:0|0:0,0:0:0:0:
342,341,91696,6,0,P|379:337|408:312,1,75.0000028610231,10|0,0:0|0:0,0:0:0:0:
169,42,91842,2,0,P|132:46|103:71,1,75.0000028610231,2|0,3:1|0:0,0:0:0:0:
169,341,91988,2,0,P|192:371|227:383,1,75.0000028610231,10|0,0:0|0:0,0:0:0:0:
342,42,92135,2,0,P|319:12|284:0,1,75.0000028610231,2|0,3:1|0:0,0:0:0:0:
83,191,92281,2,0,P|68:226|75:263,1,75.0000028610231,10|2,0:0|0:0,0:0:0:0:
428,192,92427,2,0,P|443:157|436:120,1,75.0000028610231,2|0,3:1|0:0,0:0:0:0:
243,83,92574,5,8,0:0:0:0:
119,319,92720,1,0,0:0:0:0:
269,83,92866,5,8,0:0:0:0:
393,319,93012,1,0,0:0:0:0:
198,146,93159,2,0,P|262:188|312:146,1,150.000005722046,8|0,0:0|0:0,0:0:0:0:
168,21,93378,5,0,0:0:0:0:
147,26,93452,2,0,L|-5:53,1,150.000005722046,8|0,0:0|0:0,0:0:0:0:
365,26,93744,2,0,L|517:53,1,150.000005722046,8|0,0:0|3:0,0:0:0:0:
256,233,94037,2,0,L|256:393,1,150.000005722046,8|0,0:0|0:0,0:0:0:0:
0,291,94330,5,8,0:0:0:0:
0,39,94476,6,0,L|90:26,1,75.0000028610231,2|0,0:0|0:0,0:0:0:0:
187,253,94622,2,0,L|94:253,1,75.0000028610231,10|0,0:0|0:0,0:0:0:0:
0,374,94769,2,0,L|74:384,1,75.0000028610231,2|0,0:0|0:0,0:0:0:0:
187,160,94915,2,0,L|112:170,1,75.0000028610231,10|0,3:1|0:0,0:0:0:0:
457,39,95061,6,0,L|367:26,1,75.0000028610231,2|0,0:0|0:0,0:0:0:0:
270,253,95207,2,0,L|365:253,1,75.0000028610231,10|0,0:0|0:0,0:0:0:0:
457,374,95354,6,0,L|382:384,1,75.0000028610231,2|0,0:0|0:0,0:0:0:0:
270,160,95500,2,0,L|344:170,1,75.0000028610231,10|0,0:0|0:0,0:0:0:0:
187,346,95647,2,0,L|97:333,1,75.0000028610231,2|0,3:1|0:0,0:0:0:0:
229,64,95793,2,0,L|229:-12,1,75.0000028610231,8|8,0:0|0:0,0:0:0:0:
270,346,95939,2,0,L|360:333,1,75.0000028610231,2|0,0:0|0:0,0:0:0:0:
466,315,96086,6,0,B|489:186|489:186|239:230|239:230|94:210|94:210|43:123|43:123|237:155|237:155|319:140,1,899.999972534181,8|0,0:0|0:0,0:0:0:0:
391,8,96964,6,0,B|408:135|408:135|396:166|396:166|409:272|409:272|330:327|330:327|307:176|307:176|326:118|326:118|311:37|311:37|240:81|240:81|218:158|218:158|230:250,1,899.999972534181,8|0,0:0|0:0,0:0:0:0:
240,305,97769,1,0,0:0:0:0:
252,381,97842,6,0,B|31:357|31:357|4:280|4:280|135:292|135:292|152:284|152:284|262:297|262:297|276:308|276:308|418:325,1,719.999978027344,8|8,0:0|0:0,0:0:0:0:
480,224,98574,5,0,0:0:0:0:
452,221,98647,1,0,0:0:0:0:
424,218,98720,2,0,L|311:205,1,112.500004291535,8|0,0:0|0:0,0:0:0:0:
76,178,99013,6,0,L|229:160,1,150,8|0,0:0|0:0,0:0:0:0:
391,94,99305,6,0,L|186:70,1,187.5,8|0,0:0|0:0,0:0:0:0:
40,48,99598,5,8,0:0:0:0:
91,343,99744,1,0,0:0:0:0:
257,152,99891,6,0,L|52:128,1,200,8|0,0:0|0:0,0:0:0:0:
347,369,100183,2,0,P|393:267|335:149,1,200,8|0,0:0|0:0,0:0:0:0:
70,212,100403,1,0,0:0:0:0:
89,215,100476,6,0,B|195:231|195:231|241:331,1,200,8|0,0:0|0:0,0:0:0:0:
262,55,100769,2,0,B|195:138|195:138|85:128,1,200,8|0,0:0|3:0,0:0:0:0:
314,284,101061,2,0,B|274:184|274:184|338:94,1,200,8|0,0:0|0:0,0:0:0:0:
439,0,101354,1,8,0:0:0:0:
415,184,101500,6,0,P|353:162|320:198,1,100,2|0,0:0|0:0,0:0:0:0:
50,170,101647,2,0,P|112:148|145:184,1,100,10|0,0:0|0:0,0:0:0:0:
400,251,101793,2,0,P|353:205|308:223,1,100,2|0,0:0|0:0,0:0:0:0:
64,102,101940,2,0,P|130:109|145:155,1,100,10|0,0:0|0:0,0:0:0:0:
358,305,102086,2,0,P|335:244|286:242,1,100,2|0,0:0|0:0,0:0:0:0:
106,48,102233,2,0,P|163:81|157:129,1,100,10|0,0:0|0:0,0:0:0:0:
297,337,102378,2,0,P|302:272|259:249,1,100,2|0,0:0|0:0,0:0:0:0:
167,16,102525,2,0,P|205:70|178:111,1,100,10|0,0:0|0:0,0:0:0:0:
228,340,102671,2,0,P|260:283|231:244,1,100,2|0,0:0|0:0,0:0:0:0:
236,13,102818,2,0,P|247:78|206:104,1,99.9990031023861,10|0,0:0|0:0,0:0:0:0:
8,220,103110,6,0,B|42:185|42:185|200:192,1,200,8|0,0:0|0:0,0:0:0:0:
337,329,103403,1,8,0:0:0:0:
283,27,103549,1,0,0:0:0:0:
151,300,103696,6,0,B|185:335|185:335|343:328,1,200,8|0,0:0|0:0,0:0:0:0:
442,315,103915,1,0,0:0:0:0:
461,312,103988,2,0,P|501:247|406:245,1,200,8|0,0:0|0:0,0:0:0:0:
151,50,104281,2,0,B|140:124|140:124|142:154|142:154|127:251,1,200,8|0,0:0|3:0,0:0:0:0:
435,150,104574,2,0,B|457:128|464:93|458:63|458:63|465:61|465:61|458:63|458:63|448:31|426:6|390:-2,1,200,8|0,0:0|0:0,0:0:0:0:
234,296,104866,6,0,B|187:222|187:222|312:241|312:241|320:247|320:247|371:254|371:254|382:250|382:250|520:268,1,400,8|8,0:0|0:0,0:0:0:0:
367,73,105305,6,0,P|361:134|340:175,1,100,2|0,0:0|0:0,0:0:0:0:
258,336,105452,2,0,P|208:300|183:261,1,100,10|0,0:0|0:0,0:0:0:0:
84,110,105598,2,0,P|139:84|185:82,1,100,2|0,0:0|0:0,0:0:0:0:
400,180,105744,6,0,P|356:223|314:241,1,100,10|0,0:0|0:0,0:0:0:0:
148,311,105891,2,0,P|132:252|138:206,1,100,2|0,3:0|0:0,0:0:0:0:
160,26,106037,2,0,P|219:43|255:71,1,100,10|0,0:0|0:0,0:0:0:0:
357,284,106183,6,0,P|296:289|252:275,1,100,2|0,3:0|0:0,0:0:0:0:
79,222,106330,2,0,P|106:167|139:136,1,100,10|0,0:0|0:0,0:0:0:0:
271,12,106476,2,0,P|306:62|316:107,1,100,2|0,3:0|0:0,0:0:0:0:
257,336,106622,6,0,B|187:331|187:331|182:336|182:336|118:331|118:331|114:326|114:326|24:319,1,200,8|0,0:0|0:0,0:0:0:0:
158,35,106915,1,8,0:0:0:0:
97,243,107061,1,0,0:0:0:0:
306,174,107208,6,0,B|376:169|376:169|381:174|381:174|445:169|445:169|449:164|449:164|539:157,1,200,8|0,0:0|0:0,0:0:0:0:
381,13,107427,1,0,0:0:0:0:
378,23,107500,2,0,P|352:55|194:73,1,200,8|0,0:0|0:0,0:0:0:0:
4,71,107793,2,0,P|44:76|139:204,1,200,8|0,0:0|3:0,0:0:0:0:
233,372,108086,2,0,P|217:334|280:188,1,200,8|0,0:0|0:0,0:0:0:0:
446,68,108378,5,8,0:0:0:0:
398,296,108525,6,2,P|372:274|394:300,1,100,0|0,0:0|0:0,0:0:0:0:
112,87,108671,2,0,P|138:108|113:85,1,100,10|0,0:0|0:0,0:0:0:0:
311,361,108817,2,0,P|302:328|308:361,1,100,2|0,0:0|0:0,0:0:0:0:
201,23,108964,2,0,P|209:55|203:22,1,100,10|0,0:0|0:0,0:0:0:0:
201,361,109110,2,0,P|213:329|198:360,1,100,2|0,0:0|0:0,0:0:0:0:
310,22,109256,2,0,P|298:54|313:23,1,100,10|0,0:0|0:0,0:0:0:0:
112,296,109403,2,0,P|140:278|110:294,1,100,2|0,0:0|0:0,0:0:0:0:
399,87,109549,2,0,P|371:105|401:89,1,100,10|0,0:0|0:0,0:0:0:0:
78,192,109696,2,0,P|112:193|78:189,1,100,2|0,3:0|0:0,0:0:0:0:
433,191,109842,2,0,P|401:190|433:194,1,97.4999955368044,8|0,0:0|0:0,0:0:0:0:
433,191,110135,6,0,L|212:200,1,200,8|0,0:0|0:0,0:0:0:0:
32,103,110427,1,8,0:0:0:0:
180,355,110574,1,0,0:0:0:0:
325,99,110720,2,0,B|301:62|245:34|245:34|179:48|132:94,1,200,8|0,0:0|0:0,0:0:0:0:
64,222,110939,5,0,0:0:0:0:
64,222,111013,2,0,B|197:194|122:284|298:229,1,200,8|0,0:0|0:0,0:0:0:0:
447,94,111305,1,8,0:0:0:0:
282,374,111452,1,0,3:0:0:0:
121,89,111598,2,0,B|166:80|198:57|222:8|222:8|267:194|172:146|247:311,1,400,8|8,0:0|0:0,0:0:0:0:
34,349,112037,6,0,P|120:337|145:303,1,100,2|0,0:0|0:0,0:0:0:0:
343,233,112183,2,0,L|355:121,1,100,10|0,0:0|0:0,0:0:0:0:
478,349,112330,6,0,P|392:337|367:303,1,100,2|0,0:0|0:0,0:0:0:0:
169,233,112476,2,0,L|157:121,1,100,10|0,0:0|0:0,0:0:0:0:
65,59,112622,6,0,L|75:158,1,100,2|0,0:0|0:0,0:0:0:0:
436,250,112769,2,0,P|350:238|325:204,1,100,10|0,0:0|0:0,0:0:0:0:
447,59,112915,6,0,L|436:158,1,100,2|0,3:0|0:0,0:0:0:0:
76,250,113061,2,0,P|125:255|168:232,1,100,10|0,0:0|0:0,0:0:0:0:
197,140,113208,6,0,L|186:40,1,100,2|0,3:0|0:0,0:0:0:0:
512,235,113354,2,0,P|462:240|419:217,1,100,10|0,0:0|0:0,0:0:0:0:
315,140,113500,6,0,L|325:40,1,100,2|0,3:0|0:0,0:0:0:0:
106,24,113647,5,12,0:0:0:0:
168,374,113939,1,12,0:0:0:0:
168,374,114964,2,0,L|171:320,1,50,0|0,3:0|0:0,0:0:0:0:
127,187,115404,5,12,0:0:0:0:
512,118,115696,1,12,0:0:0:0:
512,118,116720,2,0,L|458:115,1,50,0|0,3:0|0:0,0:0:0:0:
211,19,117160,5,12,0:0:0:0:
147,378,117452,1,12,0:0:0:0:
147,378,118476,2,0,L|144:328,1,50,0|0,3:0|0:0,0:0:0:0:
131,184,118915,6,0,B|87:190|47:183|9:153|9:153|63:240|118:268|187:271|259:237,1,400,12|0,0:0|0:0,0:0:0:0:
370,142,119354,2,0,B|328:45|328:45|291:133|291:133|361:334,1,400,12|0,0:0|0:0,0:0:0:0:
500,292,119793,2,0,B|304:188|307:366|109:255,1,400,12|0,0:0|0:0,0:0:0:0:
120,51,120232,2,0,B|56:143|56:143|235:185|235:185|185:68,1,400,12|0,0:0|0:0,0:0:0:0:
432,45,120671,6,0,B|393:117|391:192|442:263|442:263|345:201|269:205|203:226|203:226|239:298|311:333|408:328|408:328|281:402|124:362|65:256|65:256|83:219|141:217,1,1200,12|0,0:0|0:0,0:0:0:0:
