osu file format v14

[General]
AudioFilename: audio.mp3
AudioLeadIn: 0
PreviewTime: 93347
Countdown: 0
SampleSet: Soft
StackLeniency: 0.2
Mode: 0
LetterboxInBreaks: 0
WidescreenStoryboard: 1

[Editor]
Bookmarks: 45347
DistanceSpacing: 0.7
BeatDivisor: 6
GridSize: 4
TimelineZoom: 3.499999

[Metadata]
Title:Deadman falling
TitleUnicode:Deadman falling
Artist:Nekomata Master
ArtistUnicode:猫叉Master
Creator:faygo
Version:Special
Source:REFLEC BEAT 悠久のリフレシア
Tags:佐藤直之 Naoyuki Sato Faygor AIR ylvy Frey
BeatmapID:2588136
BeatmapSetID:966757

[Difficulty]
HPDrainRate:5
CircleSize:3.9
OverallDifficulty:8.5
ApproachRate:9.1
SliderMultiplier:1.5
SliderTickRate:1

[Events]
//Background and Video events
0,0,"50763922_p0.jpg",0,0
//Break Periods
2,44455,62217
//Storyboard Layer 0 (Background)
//Storyboard Layer 1 (Fail)
//Storyboard Layer 2 (Pass)
//Storyboard Layer 3 (Foreground)
//Storyboard Layer 4 (Overlay)
//Storyboard Sound Samples

[TimingPoints]
620,363.636363636364,3,2,5,25,1,0
620,-153.846153846154,3,2,5,25,0,0
18074,-100,3,2,5,25,0,0
34438,-80,3,2,5,25,0,0
35165,-71.4285714285714,3,2,5,25,0,0
45347,-90.9090909090909,3,2,5,25,0,0
75892,-76.9230769230769,3,2,5,25,0,0

[Colours]
Combo1 : 243,243,243
Combo2 : 119,252,10
Combo3 : 4,77,247
Combo4 : 251,0,19
Combo5 : 248,142,14
Combo6 : 255,255,32
Combo7 : 131,6,255
Combo8 : 45,255,255

[HitObjects]
467,209,620,5,0,0:0:0:0:
467,209,983,2,0,P|443:203|419:183,1,48.7499977684022
490,79,1347,2,0,L|477:130,1,48.7499977684022
486,298,1710,2,0,P|444:298|391:320,1,97.4999955368044
505,377,2256,5,0,0:0:0:0:
318,289,2438,1,0,0:0:0:0:
318,289,2801,2,0,P|317:345|342:389,1,97.4999955368044
145,174,3529,5,0,0:0:0:0:
209,120,3710,2,0,L|231:126,2,16.2499992561341
145,174,3892,2,0,P|94:198|44:194,1,97.4999955368044
201,40,4438,2,0,P|184:13|158:-3,1,48.7499977684022
217,199,4983,6,0,P|239:241|240:289,1,97.4999955368044
279,70,5710,1,0,0:0:0:0:
279,70,6074,2,0,L|385:45,1,97.4999955368044
432,205,6620,2,0,L|486:192,1,48.7499977684022
334,285,7165,1,0,0:0:0:0:
334,285,7529,2,0,P|393:284|423:306,1,97.4999955368044
381,92,8074,6,0,L|356:84,2,16.2499992561341
452,58,8256,2,0,P|458:115|433:153,1,97.4999955368044
463,231,8801,1,0,0:0:0:0:
246,142,8983,2,0,P|258:169|276:184,1,48.7499977684022,0|0,2:0|2:0,2:0:0:0:
161,160,9347,1,0,0:0:0:0:
161,160,9710,6,0,L|170:103,1,48.7499977684022
236,257,10074,2,0,L|284:264,1,48.7499977684022
94,307,10438,2,0,P|56:319|12:370,1,109.687494978905
127,235,10983,5,0,0:0:0:0:
76,54,11165,1,0,0:0:0:0:
209,130,11529,1,0,0:0:0:0:
209,130,11892,2,0,P|208:86|239:41,1,97.4999955368044
328,248,12620,1,0,0:0:0:0:
328,248,12983,6,0,P|354:269|362:288,1,48.7499977684022
139,151,13347,2,0,P|106:159|87:175,1,48.7499977684022
314,17,13710,2,0,P|314:66|288:109,1,97.4999955368044
230,332,14438,5,0,0:0:0:0:
230,332,14801,2,0,P|199:302|137:297,1,97.4999955368044
82,231,15347,2,0,P|108:226|128:211,1,48.7499977684022
334,379,15892,2,0,P|309:338|306:286,1,97.4999955368044
295,91,16620,5,0,0:0:0:0:
369,92,16801,2,0,L|377:112,2,16.2499992561341
420,37,16983,1,0,0:0:0:0:
420,37,17347,2,0,P|442:63|447:79,1,48.7499977684022
389,300,17710,2,0,P|380:264|344:231,1,81.2499962806703
349,233,18074,6,0,P|397:240|485:188,1,150
260,266,18620,1,0,0:0:0:0:
235,340,18801,2,0,P|193:308|182:274,1,75
216,41,19165,5,0,0:0:0:0:
265,107,19347,1,0,0:0:0:0:
262,117,19438,1,0,0:0:0:0:
259,127,19529,1,0,0:0:0:0:
60,134,19710,1,0,0:0:0:0:
197,184,19892,2,0,P|180:145|180:111,1,75
44,213,20256,6,0,P|75:214|120:181,1,75
297,238,20620,2,0,P|261:288|267:381,1,150
243,176,21165,1,0,0:0:0:0:
313,140,21347,1,0,0:0:0:0:
310,130,21438,1,0,0:0:0:0:
307,120,21529,1,0,0:0:0:0:
387,275,21710,1,0,0:0:0:0:
454,48,21892,1,0,0:0:0:0:
466,263,22074,1,0,0:0:0:0:
460,239,22165,1,0,0:0:0:0:
448,218,22256,1,0,0:0:0:0:
428,204,22347,1,0,0:0:0:0:
405,196,22438,5,0,0:0:0:0:
437,339,22620,1,0,0:0:0:0:
507,117,22801,2,0,P|434:122|368:71,1,150
298,242,23347,5,0,0:0:0:0:
316,320,23529,1,0,0:0:0:0:
117,357,23710,1,0,0:0:0:0:
247,303,23892,2,0,P|280:321|330:312,1,75,0|0,0:3|0:3,0:3:0:0:
97,281,24256,1,0,0:0:0:0:
100,271,24347,1,0,0:0:0:0:
103,261,24438,1,0,0:0:0:0:
183,216,24620,2,0,P|177:176|204:134,1,75,0|0,0:3|0:3,0:3:0:0:
273,14,24983,2,0,P|301:51|302:93,1,75
311,300,25347,5,0,0:0:0:0:
271,155,25529,1,0,0:0:0:0:
388,334,25710,2,0,L|403:249,1,75
203,213,26074,1,0,0:0:0:0:
203,213,26256,2,0,P|161:210|127:181,1,75
148,71,26529,1,0,0:0:0:0:
170,86,26620,1,0,0:0:0:0:
186,110,26710,1,0,0:0:0:0:
190,138,26801,6,0,P|192:86|240:2,1,150
281,225,27347,1,0,0:0:0:0:
254,303,27529,1,0,0:0:0:0:
200,244,27710,1,0,0:0:0:0:
414,241,27892,5,0,0:0:0:0:
488,205,28074,1,0,0:0:0:0:
482,195,28165,1,0,0:0:0:0:
476,184,28256,2,0,L|464:107,1,75
234,188,28620,2,0,L|245:263,1,75
419,350,28983,2,0,L|408:275,1,75
491,295,29256,1,0,0:0:0:0:
493,284,29347,1,0,0:0:0:0:
254,318,29529,1,0,0:0:0:0:
270,235,29710,6,0,P|303:248|328:282,1,75
176,89,30074,2,0,P|179:51|198:20,1,75
28,132,30438,2,0,P|61:154|142:152,1,112.5
251,219,30801,1,0,0:0:0:0:
223,202,30892,1,0,0:0:0:0:
195,208,30983,1,0,0:0:0:0:
213,185,31074,1,0,0:0:0:0:
217,158,31165,6,0,P|255:140|295:150,1,75
162,320,31529,2,0,P|126:332|89:327,1,75
222,384,31892,5,0,0:0:0:0:
251,219,32074,1,0,0:0:0:0:
336,369,32256,1,0,0:0:0:0:
321,160,32438,1,0,0:0:0:0:
330,161,32529,2,0,P|324:133|325:117,1,37.5
447,365,32801,1,0,0:0:0:0:
448,355,32892,1,0,0:0:0:0:
450,346,32983,1,0,0:0:0:0:
404,103,33165,1,0,0:0:0:0:
507,267,33347,6,0,B|416:284|444:221|344:239,1,168.75
207,358,33892,1,0,0:0:0:0:
354,384,34074,2,0,P|368:356|368:309,1,75
388,36,34438,2,0,B|437:90|426:184|358:191|316:154|322:110|333:91,1,234.375
326,93,34983,5,0,0:0:0:0:
328,101,35165,2,0,L|394:116,1,52.4999983978272
507,218,35347,2,0,L|440:201,1,52.4999983978272
302,14,35529,5,0,0:0:0:0:
302,14,35801,1,0,0:0:0:0:
217,5,36074,2,0,P|220:29|212:55,1,52.4999983978272,0|0,3:0|3:0,3:0:0:0:
87,41,36256,5,0,0:0:0:0:
19,84,36377,2,0,P|43:111|49:151,1,69.9999978637696
0,284,36620,5,0,0:0:0:0:
37,353,36710,1,0,0:0:0:0:
102,364,36801,1,0,0:0:0:0:
144,349,36892,1,0,0:0:0:0:
162,313,36983,1,0,0:0:0:0:
153,281,37074,1,0,0:0:0:0:
135,266,37165,1,0,0:0:0:0:
127,251,37256,1,0,0:0:0:0:
126,237,37347,5,0,0:0:0:0:
203,217,37438,2,0,P|228:223|250:242,1,52.4999983978272
318,0,37620,5,0,0:0:0:0:
307,82,37710,2,0,B|391:85|364:26|460:34,2,157.499995193482
249,316,38438,5,0,0:0:0:0:
277,340,38529,1,0,0:0:0:0:
285,376,38620,2,0,P|296:349|330:319,1,52.4999983978272
436,127,38801,2,0,P|449:168|515:214,1,104.999996795654
493,208,39074,2,0,P|449:204|382:248,1,104.999996795654
313,252,39347,5,0,0:0:0:0:
213,51,39529,2,0,L|222:0,1,52.4999983978272
238,218,39710,2,0,L|228:269,1,52.4999983978272
0,90,39892,5,0,0:0:0:0:
0,90,40165,1,0,0:0:0:0:
0,90,40438,2,0,P|38:94|53:103,1,52.4999983978272
159,24,40620,2,0,P|145:46|124:61,1,52.4999983978272
136,195,40801,2,0,P|123:172|120:146,1,52.4999983978272
283,86,40983,5,0,0:0:0:0:
333,157,41074,1,0,0:0:0:0:
326,225,41165,1,0,0:0:0:0:
296,268,41256,1,0,0:0:0:0:
337,257,41347,1,0,0:0:0:0:
366,235,41438,1,0,0:0:0:0:
385,214,41529,1,0,0:0:0:0:
405,204,41620,1,0,0:0:0:0:
424,201,41710,5,0,0:0:0:0:
484,250,41801,2,0,P|499:222|500:186,1,52.4999983978272
313,357,41983,5,0,0:0:0:0:
240,328,42074,2,0,P|184:302|140:214,2,157.499995193482
363,25,42801,2,0,P|329:59|263:64,1,104.999996795654,0|0,3:0|0:0,0:0:0:0:
204,28,43074,5,0,0:0:0:0:
200,19,43165,1,0,0:0:0:0:
313,357,43438,1,0,0:0:0:0:
202,108,43710,6,0,P|219:134|246:147,1,52.4999983978272
397,376,43892,2,0,P|400:328|435:265,1,104.999996795654
512,188,44165,2,0,P|487:206|463:211,1,52.4999983978272
96,78,62801,6,0,B|207:86|155:24|274:29,1,165.000005035401
500,118,63347,1,0,0:0:0:0:
508,126,63407,2,0,L|501:161,2,27.5000008392334
242,110,63710,1,0,0:0:0:0:
453,38,63892,5,0,0:0:0:0:
413,102,64074,1,0,0:0:0:0:
342,76,64256,1,0,0:0:0:0:
314,357,64438,1,0,0:0:0:0:
251,290,64620,2,0,B|270:269|298:278|298:278|277:281|265:296,1,82.5000025177003
17,368,64983,5,0,0:0:0:0:
181,329,65165,1,0,0:0:0:0:
60,193,65347,1,0,0:0:0:0:
84,286,65529,5,0,0:0:0:0:
94,291,65589,2,0,L|102:257,2,27.5000008392334
142,14,65892,1,0,0:0:0:0:
198,71,66074,1,2,0:0:0:0:
275,51,66256,1,0,0:0:0:0:
207,83,66438,1,2,0:0:0:0:
185,159,66620,1,0,0:0:0:0:
0,120,66801,2,0,L|89:109,1,82.5000025177003
361,195,67165,6,0,L|450:184,1,82.5000025177003
460,370,67529,1,0,0:0:0:0:
482,101,67710,1,0,0:0:0:0:
492,108,67771,2,0,L|497:64,2,27.5000008392334
238,199,68074,1,0,0:0:0:0:
