osu file format v14

[General]
AudioFilename: audio.mp3
AudioLeadIn: 0
PreviewTime: 93347
Countdown: 0
SampleSet: Drum
StackLeniency: 0.3
Mode: 0
LetterboxInBreaks: 0
WidescreenStoryboard: 1

[Editor]
Bookmarks: 620,18074,35529,45347,62801,75892,93347,102074,110801
DistanceSpacing: 1.1
BeatDivisor: 8
GridSize: 4
TimelineZoom: 3

[Metadata]
Title:Deadman falling
TitleUnicode:Deadman falling
Artist:Nekomata Master
ArtistUnicode:猫叉Master
Creator:faygo
Version:Basic
Source:REFLEC BEAT 悠久のリフレシア
Tags:佐藤直之 Naoyuki Sato Faygor AIR ylvy Frey
BeatmapID:2588134
BeatmapSetID:966757

[Difficulty]
HPDrainRate:3
CircleSize:3
OverallDifficulty:3
ApproachRate:4
SliderMultiplier:0.799999999999999
SliderTickRate:1

[Events]
//Background and Video events
0,0,"50763922_p0.jpg",0,0
//Break Periods
2,93547,100754
//Storyboard Layer 0 (Background)
//Storyboard Layer 1 (Fail)
//Storyboard Layer 2 (Pass)
//Storyboard Layer 3 (Foreground)
//Storyboard Layer 4 (Overlay)
//Storyboard Sound Samples

[TimingPoints]
620,363.636363636364,3,3,0,65,1,0
75892,-100,3,3,0,65,0,1
93347,-100,3,3,0,65,0,0
102074,-100,3,3,0,65,0,1
110801,-100,3,3,0,65,0,0

[Colours]
Combo1 : 243,243,243
Combo2 : 125,252,22
Combo3 : 4,71,227
Combo4 : 255,15,33
Combo5 : 247,173,36
Combo6 : 255,255,32
Combo7 : 146,36,255
Combo8 : 45,255,255

[HitObjects]
512,160,620,5,0,0:0:0:0:
451,224,983,2,0,P|372:216|298:172,1,160
215,185,2074,1,0,0:0:0:0:
161,352,2801,5,0,0:0:0:0:
91,297,3165,2,0,P|83:252|86:214,2,79.9999999999999
10,333,4256,1,0,0:0:0:0:
1,157,4983,5,0,0:0:0:0:
84,130,5347,2,0,P|168:116|233:77,1,160
176,9,6438,1,0,0:0:0:0:
351,20,7165,5,0,0:0:0:0:
418,76,7529,2,0,P|460:67|495:45,2,79.9999999999999
341,119,8620,1,0,0:0:0:0:
283,285,9347,5,0,0:0:0:0:
210,334,9710,2,0,P|191:290|180:173,1,160
144,98,10801,1,0,0:0:0:0:
314,143,11529,5,0,0:0:0:0:
390,99,11892,2,0,P|481:150|512:199,1,160
463,269,12983,2,0,P|418:280|399:310,1,79.9999999999999
336,366,13710,6,0,B|249:366|277:303|189:300,1,160
108,311,14801,2,0,P|117:348|142:388,1,79.9999999999999
259,256,15892,5,0,0:0:0:0:
203,187,16256,2,0,P|173:167|126:160,2,79.9999999999999
288,167,17347,2,0,P|298:128|320:88,1,79.9999999999999
286,10,18074,6,0,P|241:36|132:42,1,160
50,17,19165,1,0,0:0:0:0:
1,90,19529,1,0,0:0:0:0:
127,212,20256,6,0,P|127:271|134:295,1,79.9999999999999
150,376,20983,1,0,0:0:0:0:
228,336,21347,1,0,0:0:0:0:
312,358,21710,2,0,P|357:350|388:333,1,79.9999999999999
323,271,22438,6,0,P|265:247|225:157,1,160
282,96,23529,1,0,0:0:0:0:
252,13,23892,1,0,0:0:0:0:
427,28,24620,6,0,P|427:82|413:108,1,79.9999999999999
368,178,25347,1,0,0:0:0:0:
437,231,25710,2,0,P|409:292|405:350,1,120
300,268,26801,6,0,P|214:281|163:336,1,160
80,356,27892,1,0,0:0:0:0:
27,285,28256,1,0,0:0:0:0:
171,184,28983,6,0,P|169:121|127:30,1,160
42,24,30074,1,0,0:0:0:0:
8,105,30438,2,0,P|52:128|90:129,1,79.9999999999999
155,82,31165,6,0,P|191:31|358:38,1,240
295,152,32801,1,0,0:0:0:0:
415,206,33347,2,0,P|488:144|489:240,1,240
508,370,34983,2,0,P|469:367|429:340,1,79.9999999999999
416,305,35529,6,0,B|336:291|351:371|277:369,1,160
191,378,36620,2,0,L|166:258,1,120
195,227,37347,1,0,0:0:0:0:
137,160,37710,6,0,P|68:173|23:101,1,160
101,66,38801,2,0,P|166:60|203:20,1,120
242,4,39529,1,0,0:0:0:0:
313,54,39892,6,0,B|319:91|345:101|345:101|363:45|414:30,1,160
438,114,40983,2,0,P|453:208|467:230,1,120
495,259,41710,1,0,0:0:0:0:
440,328,42074,6,0,B|418:348|384:352|384:352|359:302|298:303,1,160
234,355,43165,2,0,P|191:318|89:297,1,160
25,354,44256,1,0,0:0:0:0:
0,86,45347,6,0,P|47:63|62:40,1,79.9999999999999
147,21,46074,1,0,0:0:0:0:
152,108,46438,2,0,P|156:180|174:232,1,120
84,325,47529,2,0,P|144:337|198:373,1,120
305,298,48620,2,0,P|284:264|280:220,2,79.9999999999999
369,357,49710,6,0,P|403:324|415:293,1,79.9999999999999
486,243,50438,1,0,0:0:0:0:
407,204,50801,2,0,P|362:173|352:108,1,120
269,7,51892,2,0,P|218:40|157:49,1,120
28,63,52983,6,0,B|69:129|86:78|121:141,1,120
123,179,53710,1,0,0:0:0:0:
80,256,54074,6,0,P|114:268|152:291,1,79.9999999999999,0|0,2:0|0:0,0:0:0:0:
205,360,54801,1,0,0:0:0:0:
271,302,55165,2,0,P|252:234|258:177,1,120
153,101,56256,2,0,P|229:92|249:60,1,120
369,4,57347,1,0,0:0:0:0:
446,44,57710,2,0,P|436:72|392:88,1,79.9999999999999
310,122,58438,6,0,L|327:200,1,79.9999999999999
412,178,59165,1,0,0:0:0:0:
412,266,59529,2,0,P|375:313|365:375,1,120
233,380,60620,2,0,P|211:339|136:318,1,120
249,236,61710,6,0,B|282:219|285:190|285:190|254:174|246:141,1,120
252,102,62438,1,0,0:0:0:0:
223,18,62801,6,0,P|169:33|72:5,1,160
10,68,63892,2,0,P|29:105|64:129,1,79.9999999999999
147,130,64620,1,0,0:0:0:0:
100,204,64983,6,0,P|81:257|81:282,1,79.9999999999999
72,367,65710,1,0,0:0:0:0:
154,336,66074,2,0,P|185:319|231:312,1,79.9999999999999
298,365,66801,1,0,0:0:0:0:
382,339,67165,6,0,B|366:253|322:294|300:203,1,160
387,190,68256,2,0,P|391:155|414:112,1,79.9999999999999
426,28,68983,1,0,0:0:0:0:
342,56,69347,6,0,P|244:96|184:94,1,160
107,67,70438,2,0,P|91:21|69:-2,2,79.9999999999999
33,115,71529,6,0,P|32:169|125:200,1,160
174,133,72620,2,0,P|217:110|332:103,1,160
317,189,73710,2,0,P|324:247|361:294,1,120
350,337,74438,1,0,0:0:0:0:
271,375,74801,5,0,0:0:0:0:
239,292,75165,1,0,0:0:0:0:
156,260,75529,1,0,0:0:0:0:
88,204,75892,6,0,P|49:202|9:216,2,79.9999999999999
82,116,76983,1,0,0:0:0:0:
150,60,77347,2,0,P|195:51|222:27,1,79.9999999999999
304,1,78074,6,0,P|316:55|333:78,1,79.9999999999999
414,97,78801,1,0,0:0:0:0:
355,163,79165,2,0,P|338:196|323:240,1,79.9999999999999,0|0,3:0|3:0,3:0:0:0:
237,254,79892,1,0,0:0:0:0:
251,340,80256,6,0,P|321:345|404:382,1,160
472,327,81347,2,0,P|489:283|518:258,1,79.9999999999999
461,189,82074,1,0,0:0:0:0:
387,238,82438,6,0,L|361:116,1,120
399,96,83165,1,0,0:0:0:0:
438,18,83529,2,0,L|315:-2,1,120
287,28,84256,1,0,0:0:0:0:
227,92,84620,6,0,P|198:60|158:44,1,79.9999999999999
77,38,85347,1,0,0:0:0:0:
105,120,85710,1,0,0:0:0:0:
37,176,86074,2,0,L|53:259,1,79.9999999999999
74,339,86801,6,0,P|117:316|148:308,1,79.9999999999999
222,354,87529,1,0,0:0:0:0:
254,272,87892,2,0,P|244:231|242:189,1,79.9999999999999
303,129,88620,1,0,0:0:0:0:
380,171,88983,6,0,P|451:132|477:56,1,160
390,45,90074,2,0,P|349:26|327:-4,2,79.9999999999999
401,132,91165,6,0,P|393:191|402:259,1,120
439,303,91983,1,0,0:0:0:0:
404,359,92256,2,0,B|323:362|345:299|257:299,1,160
203,365,93347,1,0,0:0:0:0:
65,41,102074,5,0,0:0:0:0:
4,105,102438,2,0,P|24:137|32:186,1,79.9999999999999
108,223,103165,2,0,P|132:220|168:206,2,59.9999999999999
77,254,103892,1,0,0:0:0:0:
96,339,104256,6,0,P|142:345|253:383,1,160
313,321,105347,2,0,P|280:294|265:218,1,120
230,192,106074,2,0,L|195:163,1,40
181,126,106438,6,0,L|265:104,1,79.9999999999999
330,55,107165,1,0,0:0:0:0:
415,76,107529,2,0,P|418:42|410:10,2,59.9999999999999
437,114,108256,1,0,0:0:0:0:
492,182,108620,6,0,P|464:222|437:328,1,160
336,366,109710,2,0,P|309:334|314:297,1,79.9999999999999
291,260,110256,1,0,0:0:0:0:
248,250,110438,2,4,P|208:263|169:262,1,79.9999999999999
256,192,110983,12,0,114438,0:0:0:0:
