osu file format v14

[General]
AudioFilename: audio.mp3
AudioLeadIn: 0
PreviewTime: 93347
Countdown: 0
SampleSet: Drum
StackLeniency: 0.3
Mode: 0
LetterboxInBreaks: 0
WidescreenStoryboard: 0

[Editor]
DistanceSpacing: 0.7
BeatDivisor: 4
GridSize: 32
TimelineZoom: 3.499999

[Metadata]
Title:Deadman falling
TitleUnicode:Deadman falling
Artist:Nekomata Master
ArtistUnicode:猫叉Master
Creator:faygo
Version:AIR's Hard
Source:REFLEC BEAT 悠久のリフレシア
Tags:佐藤直之 Naoyuki Sato Faygor AIR ylvy Frey
BeatmapID:2036634
BeatmapSetID:966757

[Difficulty]
HPDrainRate:3
CircleSize:4
OverallDifficulty:7
ApproachRate:8
SliderMultiplier:1.3
SliderTickRate:1

[Events]
//Background and Video events
0,0,"50763922_p0.jpg",0,0
//Break Periods
2,93547,100233
//Storyboard Layer 0 (Background)
//Storyboard Layer 1 (Fail)
//Storyboard Layer 2 (Pass)
//Storyboard Layer 3 (Foreground)
//Storyboard Layer 4 (Overlay)
//Storyboard Sound Samples

[TimingPoints]
620,363.636363636364,3,3,0,65,1,0
620,-125,3,3,0,65,0,0
18074,-100,3,3,0,65,0,0
35165,-100,3,3,0,65,0,0
35529,-100,3,3,0,65,0,0
45347,-100,3,3,0,65,0,0
70801,-100,3,3,0,65,0,0
71165,-100,3,3,0,65,0,0
75892,-83.3333333333333,3,3,0,65,0,1
93347,-125,3,3,0,65,0,0
100983,-100,3,3,0,65,0,0
102074,-83.3333333333333,3,3,0,65,0,1
110801,-125,3,3,0,65,0,0

[Colours]
Combo1 : 243,243,243
Combo2 : 125,252,22
Combo3 : 4,71,227
Combo4 : 255,15,33
Combo5 : 247,173,36
Combo6 : 255,255,32
Combo7 : 146,36,255
Combo8 : 45,255,255

[HitObjects]
183,282,620,6,0,P|183:249|198:285,1,104
94,283,1347,1,0,0:0:0:0:
339,228,1710,2,0,P|339:195|324:231,1,104
430,240,2256,2,0,L|437:170,1,52
206,95,2801,2,0,L|94:109,1,104
270,48,3529,1,0,0:0:0:0:
312,308,3892,2,0,L|424:322,1,104
314,359,4438,2,0,L|311:301,1,52
114,180,4983,6,0,L|230:196,1,104
114,180,5710,1,0,0:0:0:0:
398,180,6074,2,0,L|282:196,1,104
258,319,6620,2,0,L|257:262,1,52
393,34,7165,2,0,P|421:52|404:13,1,104
327,75,7892,1,0,0:0:0:0:
102,51,8256,2,0,P|74:69|91:30,1,104
184,78,8801,2,0,L|183:23,1,52
374,192,9347,6,0,P|417:170|482:171,1,104
374,192,10074,1,0,0:0:0:0:
138,192,10438,2,0,P|95:170|30:171,1,104
78,282,10983,2,0,P|103:264|126:286,1,52
295,352,11529,2,0,P|275:377|216:348,1,104
374,328,12256,1,0,0:0:0:0:
202,99,12620,2,0,L|93:77,1,104
212,13,13165,2,0,L|149:17,1,52
399,33,13710,6,0,L|283:38,1,104
399,33,14438,1,0,0:0:0:0:
293,252,14801,2,0,L|396:256,1,104
499,321,15347,2,0,P|463:347|445:373,1,52
178,366,15892,2,0,P|152:336|74:302,1,104
178,366,16620,1,0,0:0:0:0:
261,135,16983,2,0,L|258:243,1,104
355,168,17529,2,0,P|372:148|364:124,1,52
121,201,18074,6,0,P|80:178|85:85,2,130
175,93,18983,1,0,0:0:0:0:
175,93,19165,2,0,L|248:88,1,65
305,173,19529,2,0,L|463:163,1,130
506,242,20074,1,0,0:0:0:0:
506,242,20165,1,0,0:0:0:0:
506,242,20256,5,0,0:0:0:0:
320,46,20620,1,0,0:0:0:0:
241,304,20983,2,0,L|178:323,1,65
113,281,21347,2,0,L|269:309,1,130
82,35,22074,2,0,L|38:44,3,32.5
16,50,22438,6,0,L|166:71,1,130
469,33,23165,1,0,0:0:0:0:
383,88,23347,1,0,0:0:0:0:
383,88,23529,2,0,L|304:108,1,65
255,167,23892,2,0,L|236:24,1,130
328,11,24438,1,0,0:0:0:0:
328,11,24529,1,0,0:0:0:0:
328,11,24620,5,0,0:0:0:0:
117,186,24983,1,0,0:0:0:0:
361,289,25347,1,0,0:0:0:0:
324,213,25529,1,0,0:0:0:0:
324,213,25710,2,0,P|285:255|300:346,1,130
135,154,26438,2,0,L|177:157,3,32.5
213,154,26801,6,0,P|228:109|195:32,1,130
12,23,27529,1,0,0:0:0:0:
35,116,27710,1,0,0:0:0:0:
35,116,27892,2,0,L|37:189,1,65
110,247,28256,2,0,L|114:394,1,130
28,338,28801,1,0,0:0:0:0:
28,338,28892,1,0,0:0:0:0:
28,338,28983,5,0,0:0:0:0:
276,284,29347,1,0,0:0:0:0:
104,82,29710,1,0,0:0:0:0:
85,164,29892,1,0,0:0:0:0:
85,164,30074,2,0,L|85:301,1,130
354,205,30801,2,0,P|370:211|394:189,3,32.5
427,164,31165,6,0,L|427:301,1,130
205,129,31892,1,0,0:0:0:0:
303,120,32074,1,0,0:0:0:0:
303,120,32256,2,0,L|361:90,1,65
362,1,32620,2,0,L|228:66,1,130
205,129,33165,1,0,0:0:0:0:
205,129,33256,1,0,0:0:0:0:
205,129,33347,5,0,0:0:0:0:
21,90,33710,1,0,0:0:0:0:
255,210,34074,1,0,0:0:0:0:
307,129,34256,1,0,0:0:0:0:
307,129,34438,1,0,0:0:0:0:
107,246,34801,1,0,0:0:0:0:
189,282,34983,1,0,0:0:0:0:
107,246,35165,2,0,L|115:322,1,65
35,361,35529,6,0,B|0:373|0:373|28:313,1,97.5
260,331,36074,1,0,0:0:0:0:
260,331,36256,2,0,L|339:337,1,65
425,286,36620,2,0,P|453:311|472:376,1,97.5
499,176,37165,1,0,0:0:0:0:
499,176,37347,2,0,L|430:184,1,65
337,107,37710,6,0,P|357:68|350:4,1,97.5
175,99,38256,1,0,0:0:0:0:
175,99,38438,2,0,P|159:59|168:37,1,65
61,18,38801,2,0,L|46:134,1,97.5
260,53,39347,1,0,0:0:0:0:
260,53,39529,2,0,L|261:95,3,32.5
266,142,39892,6,0,L|269:257,1,97.5
98,285,40438,1,0,0:0:0:0:
98,285,40620,2,0,B|74:262|74:262|99:227,1,65
180,261,40983,1,0,0:0:0:0:
361,202,41256,1,0,0:0:0:0:
195,126,41529,1,0,0:0:0:0:
195,126,41710,2,0,L|198:59,1,65
308,37,42074,6,0,L|317:156,1,97.5
510,115,42620,1,0,0:0:0:0:
435,100,42801,1,0,0:0:0:0:
209,231,43165,1,0,0:0:0:0:
341,271,43438,1,0,0:0:0:0:
185,142,43710,1,0,0:0:0:0:
105,161,43892,2,0,L|58:171,3,32.5
17,180,44256,6,0,B|57:144|164:33|43:-14|-98:92|18:153|117:123|123:231|65:293,1,390
19,329,45529,1,0,0:0:0:0:
104,347,45710,2,0,L|188:337,1,65
207,269,46074,2,0,L|291:259,1,65
358,324,46438,2,0,P|401:357|488:338,2,130
427,250,47347,2,0,P|419:231|402:261,1,65
198,140,47892,2,0,P|206:121|223:151,1,65
317,118,48256,2,0,L|328:46,1,65
240,17,48620,2,0,L|161:26,1,65
95,27,48983,2,0,L|16:36,1,65
6,122,49347,2,0,L|39:122,3,21.6666666666667
106,186,49710,6,0,P|141:236|141:317,1,130
56,356,50256,1,0,0:0:0:0:
31,276,50438,2,0,L|72:278,3,21.6666666666667
145,303,50801,2,0,L|278:300,1,130
285,33,51529,2,0,L|194:29,1,65
294,115,51892,2,0,P|349:81|420:76,1,130
490,131,52438,1,0,0:0:0:0:
494,47,52620,2,0,L|505:4,2,32.5
490,131,52983,2,0,L|500:231,1,97.5
317,278,53529,1,0,0:0:0:0:
245,251,53710,2,0,L|247:180,1,65
171,135,54074,6,0,L|82:126,1,65
119,214,54438,2,0,L|33:214,1,65
154,296,54801,2,0,L|65:305,1,65
48,219,55165,2,0,L|189:228,2,130
11,133,56074,2,0,P|31:120|54:157,1,65
273,75,56620,2,0,P|253:62|230:99,1,65
339,122,56983,2,0,L|356:48,1,65
439,23,57347,2,0,L|514:19,1,65
433,112,57710,2,0,L|508:108,1,65
480,197,58074,2,0,L|485:220,3,21.6666666666667
407,291,58438,6,0,P|348:260|277:274,1,130
212,328,58983,1,0,0:0:0:0:
292,348,59165,2,0,L|294:377,3,21.6666666666667
212,328,59529,2,0,P|175:352|81:335,1,130
7,118,60256,2,0,L|86:126,1,65
84,208,60620,2,0,L|237:223,1,130
251,128,61165,1,0,0:0:0:0:
192,66,61347,2,0,L|155:78,2,32.5
251,128,61710,2,0,L|356:141,1,97.5
408,310,62256,1,0,0:0:0:0:
447,234,62438,2,0,L|516:243,1,65
408,310,62801,6,0,L|266:330,1,130
84,188,63529,2,0,L|229:207,1,130
412,61,64256,2,0,L|270:81,1,130
216,25,64801,1,0,0:0:0:0:
216,25,64983,2,0,B|182:11|182:11|197:45,1,65
283,79,65347,2,0,L|272:154,1,65
347,173,65710,2,0,L|336:248,1,65
402,293,66074,2,0,P|440:273|495:343,1,130
479,138,66801,2,0,P|459:114|433:128,1,65
347,173,67165,6,0,P|327:128|357:38,1,130
165,211,67892,2,0,P|185:256|155:346,1,130
18,127,68620,2,0,P|8:87|35:127,1,130
132,133,69165,1,0,0:0:0:0:
132,133,69347,2,0,L|151:55,1,65
214,133,69710,2,0,L|237:220,1,65
295,135,70074,2,0,L|314:57,1,65
377,126,70438,2,0,L|409:243,1,97.5
452,256,70801,2,0,P|494:242|461:171,1,130
402,220,71347,1,0,0:0:0:0:
324,233,71529,6,0,L|243:239,1,65
183,169,71892,2,0,L|265:163,1,65
316,88,72256,2,0,L|243:94,1,65
250,173,72620,2,0,L|94:183,2,130
222,257,73529,1,0,0:0:0:0:
222,257,73710,2,0,B|245:284|245:284|259:248,1,65
344,286,74074,2,0,L|429:299,1,65
386,196,74438,2,0,L|461:195,1,65
344,98,74801,2,0,L|429:85,1,65
283,26,75165,2,0,L|195:38,1,65
192,129,75529,2,0,P|213:146|219:135,3,32.5
259,119,75892,6,0,L|80:142,1,155.999995239258
19,121,76438,1,0,0:0:0:0:
46,204,76620,2,0,L|39:300,1,77.999997619629
138,317,76983,2,0,L|138:235,1,77.999997619629
234,203,77347,2,0,L|241:299,1,77.999997619629
320,330,77710,2,0,L|404:338,1,77.999997619629
472,269,78074,6,0,P|486:246|435:272,1,155.999995239258
500,140,78620,1,0,0:0:0:0:
481,64,78801,2,0,L|388:78,1,77.999997619629
299,144,79165,2,0,L|411:147,1,77.999997619629
213,144,79529,2,0,L|101:147,1,77.999997619629
31,64,79892,2,0,L|124:78,1,77.999997619629
12,140,80256,5,0,0:0:0:0:
254,0,80620,1,0,0:0:0:0:
309,66,80801,1,0,0:0:0:0:
203,66,80983,2,0,L|216:168,1,77.999997619629
299,144,81347,2,0,L|286:246,1,77.999997619629
237,282,81710,2,0,L|250:384,1,77.999997619629
164,274,82074,2,0,L|66:265,1,77.999997619629
207,211,82438,6,0,L|387:202,1,155.999995239258
362,203,82983,1,0,0:0:0:0:
465,223,83165,2,0,B|498:240|498:240|495:200,1,77.999997619629
496,91,83529,2,0,L|352:80,1,116.999996429443
146,4,84074,1,0,0:0:0:0:
208,81,84256,1,0,0:0:0:0:
110,83,84438,1,0,0:0:0:0:
110,83,84529,1,0,0:0:0:0:
110,83,84620,6,0,P|81:56|57:132,1,155.999995239258
105,206,85165,1,0,0:0:0:0:
39,253,85347,2,0,L|28:333,1,77.999997619629
134,278,85710,2,0,L|131:381,1,77.999997619629
223,266,86074,2,0,L|232:367,1,77.999997619629
331,375,86438,1,0,0:0:0:0:
411,342,86620,1,0,0:0:0:0:
336,293,86801,6,0,L|501:360,1,155.999995239258
495,239,87347,1,0,0:0:0:0:
495,239,87529,2,0,P|500:190|468:188,1,77.999997619629
344,199,87892,2,0,L|430:233,1,77.999997619629
244,170,88256,2,0,L|330:204,1,77.999997619629
140,145,88620,2,0,L|226:179,1,77.999997619629
286,92,88983,6,0,L|122:151,1,155.999995239258
139,144,89529,1,0,0:0:0:0:
46,146,89710,2,0,B|13:129|13:129|61:108,1,77.999997619629
95,213,90074,2,0,L|95:297,1,77.999997619629
187,257,90438,2,0,B|223:241|223:241|169:217,1,77.999997619629
270,302,90801,2,0,L|270:384,1,77.999997619629
377,331,91165,6,0,L|507:316,1,116.999996429443
346,198,91710,1,0,0:0:0:0:
419,154,91892,2,0,L|503:168,1,77.999997619629
346,198,92256,2,0,P|323:157|352:71,1,116.999996429443
366,40,92620,2,0,L|277:24,1,77.999997619629
225,123,92983,2,0,L|131:103,1,77.999997619629
65,199,93347,1,0,0:0:0:0:
255,329,100983,5,0,0:0:0:0:
386,195,101256,1,0,0:0:0:0:
126,195,101529,1,0,0:0:0:0:
217,233,101710,2,0,L|232:148,1,65
209,138,101983,1,0,0:0:0:0:
209,138,102074,6,0,L|290:283,1,155.999995239258
365,213,102620,2,0,L|415:299,2,77.999997619629
471,200,103165,2,0,L|486:67,1,116.999996429443
296,37,103710,1,0,0:0:0:0:
241,104,103892,1,0,0:0:0:0:
323,121,104074,1,0,0:0:0:0:
323,121,104165,1,0,0:0:0:0:
323,121,104256,6,0,P|276:68|182:31,1,155.999995239258
112,35,104801,2,0,L|22:64,2,77.999997619629
116,132,105347,2,0,L|-2:170,1,116.999996429443
203,265,105892,1,0,0:0:0:0:
119,279,106074,1,0,0:0:0:0:
172,359,106256,1,0,0:0:0:0:
172,359,106347,1,0,0:0:0:0:
172,359,106438,6,0,L|292:319,1,116.999996429443
228,159,106983,2,0,L|401:99,1,155.999995239258
316,36,107529,1,0,0:0:0:0:
354,244,107801,1,0,0:0:0:0:
149,167,108074,1,0,0:0:0:0:
228,159,108256,1,0,0:0:0:0:
192,232,108438,1,0,0:0:0:0:
192,232,108529,1,0,0:0:0:0:
192,232,108620,6,0,L|14:189,1,155.999995239258
94,289,109165,2,0,P|89:315|39:328,2,77.999997619629
40,195,109710,2,0,P|12:147|48:80,1,116.999996429443
68,52,110074,2,0,L|172:77,1,77.999997619629
231,124,110438,2,0,L|335:149,1,77.999997619629
405,193,110801,1,0,0:0:0:0:
