osu file format v14

[General]
AudioFilename: audio2.mp3
AudioLeadIn: 0
PreviewTime: -1
Countdown: 0
SampleSet: Soft
StackLeniency: 0.7
Mode: 1
LetterboxInBreaks: 0
WidescreenStoryboard: 0

[Editor]
DistanceSpacing: 1
BeatDivisor: 4
GridSize: 32
TimelineZoom: 3.600004

[Metadata]
Title:Deadman Falling
TitleUnicode:Deadman Falling
Artist:Nekomata Master
ArtistUnicode:猫叉Master
Creator:Azer
Version:Scars of ELFERIA
Source:REFLEC BEAT 悠久のリフレシア
Tags:bemani The Reflesia of Eternity Naoyuki Sato
BeatmapID:1306529
BeatmapSetID:619878

[Difficulty]
HPDrainRate:6
CircleSize:2
OverallDifficulty:6.5
ApproachRate:10
SliderMultiplier:1.5
SliderTickRate:1

[Events]
//Background and Video events
0,0,"Konachan.com - 200863 aircraft animal bird blonde_hair clouds dress grass hat juh-juh leaves long_hair original scenic sky summer_dress tree water waterfall.jpg",0,0
//Break Periods
//Storyboard Layer 0 (Background)
//Storyboard Layer 1 (Fail)
//Storyboard Layer 2 (Pass)
//Storyboard Layer 3 (Foreground)
//Storyboard Sound Samples

[TimingPoints]
1020,363.636363636364,3,2,0,60,1,0
2110,-166.666666666667,3,2,0,60,0,0
18293,-166.666666666667,3,2,0,30,0,0
18475,-166.666666666667,3,2,0,60,0,0
19020,-142.857142857143,3,2,0,60,0,0
19201,-125,3,2,0,60,0,0
19384,-111.111111111111,3,1,0,60,0,0
20838,-111.111111111111,3,1,0,40,0,0
21747,-111.111111111111,3,1,0,60,0,0
23020,-111.111111111111,3,1,0,40,0,0
23929,-111.111111111111,3,1,0,60,0,0
25201,-111.111111111111,3,1,0,40,0,0
26110,-111.111111111111,3,1,0,60,0,0
27383,-111.111111111111,3,1,0,40,0,0
27747,-111.111111111111,3,1,0,60,0,0
27929,-111.111111111111,3,1,0,40,0,0
28292,-111.111111111111,3,1,0,60,0,0
29565,-111.111111111111,3,1,0,40,0,0
30474,-111.111111111111,3,1,0,60,0,0
31747,-111.111111111111,3,1,0,40,0,0
32656,-111.111111111111,3,1,0,60,0,0
33929,-111.111111111111,3,1,0,40,0,0
34838,-111.111111111111,3,1,0,60,0,0
35020,-108.695652173913,3,1,0,40,0,0
35110,-106.382978723404,3,1,0,40,0,0
35201,-104.166666666667,3,1,0,40,0,0
35383,-102.040816326531,3,1,0,40,0,0
35474,-100,3,1,0,40,0,0
35565,-98.0392156862745,3,1,0,40,0,0
35747,-96.1538461538461,3,1,0,45,0,0
35838,-94.3396226415094,3,1,0,45,0,0
35929,-92.5925925925926,3,1,0,45,0,0
36110,-90.9090909090909,3,1,0,50,0,0
36201,-89.2857142857143,3,1,0,50,0,0
36292,-87.719298245614,3,1,0,50,0,0
36474,-84.7457627118644,3,1,0,70,0,0
36656,-81.9672131147541,3,1,0,70,0,0
36838,-79.3650793650794,3,1,0,70,0,0
37020,-76.9230769230769,3,1,0,70,0,0
44656,-75.7575757575758,3,1,0,80,0,0
44929,-74.6268656716418,3,1,0,80,0,0
45201,-73.5294117647059,3,1,0,80,0,0
45383,-72.463768115942,3,1,0,80,0,0
45565,-71.4285714285714,3,1,0,80,0,0
46838,-100,3,1,0,70,0,0
63474,-98.0392156862745,3,1,0,70,0,0
63747,-96.1538461538461,3,1,0,70,0,0
63929,-94.3396226415094,3,1,0,70,0,0
64110,-92.5925925925926,3,1,0,70,0,0
64292,-90.9090909090909,3,1,0,75,0,0
75383,-90.0900900900901,3,1,0,75,0,0
75474,-89.2857142857143,3,1,0,75,0,0
75565,-88.4955752212389,3,1,0,75,0,0
75656,-87.719298245614,3,1,0,75,0,0
75747,-86.9565217391304,3,1,0,75,0,0
75929,-86.2068965517241,3,1,0,75,0,0
76020,-85.4700854700855,3,1,0,75,0,0
76110,-84.7457627118644,3,1,0,75,0,0
76201,-84.0336134453781,3,1,0,75,0,0
76292,-83.3333333333333,3,1,0,75,0,0
76474,-82.6446280991736,3,1,0,75,0,0
76565,-81.9672131147541,3,1,0,75,0,0
76656,-81.3008130081301,3,1,0,75,0,0
76747,-80.6451612903226,3,1,0,75,0,0
76838,-80,3,1,0,75,0,0
76929,-79.3650793650794,3,1,0,75,0,0
77020,-78.7401574803149,3,1,0,75,0,0
77110,-78.125,3,1,0,75,0,0
77201,-77.5193798449612,3,1,0,75,0,0
77292,-76.9230769230769,3,1,0,75,0,0
77383,-76.3358778625954,3,1,0,80,0,1
85020,-73.5294117647059,3,1,0,80,0,0
86110,-76.3358778625954,3,1,0,80,0,1
93747,-76,3,1,0,80,0,1
93838,-75.5,3,1,0,80,0,1
93929,-75,3,1,0,80,0,1
94020,-74.5,3,1,0,80,0,1
94110,-74,3,1,0,80,0,1
94201,-73.5,3,1,0,80,0,1
94292,-73,3,1,0,80,0,1
94383,-72.5,3,1,0,80,0,1
94474,-72,3,1,0,80,0,1
94565,-71.5,3,1,0,80,0,1
94656,-71,3,1,0,80,0,1
94747,-70.5,3,1,0,80,0,1
94838,-70,3,1,0,80,0,1
95020,-33.3333333333333,3,1,0,50,0,0
96474,-90.9090909090909,3,1,0,50,0,0
102474,-90.9090909090909,3,1,0,80,0,0
112474,-90.9090909090909,3,1,0,5,0,0

[HitObjects]
224,128,2111,5,0,0:0:0:0:
288,128,2475,1,8,0:0:0:0:
288,128,2838,1,8,0:0:0:0:
224,128,3202,1,0,0:0:0:0:
288,128,3566,1,8,0:0:0:0:
288,128,3747,1,8,0:0:0:0:
288,128,3929,1,8,0:0:0:0:
224,128,4293,1,0,0:0:0:0:
288,128,4657,1,8,0:0:0:0:
288,128,5020,1,8,0:0:0:0:
224,128,5384,1,0,0:0:0:0:
288,128,5747,1,8,0:0:0:0:
288,128,5929,1,8,0:0:0:0:
224,128,6111,1,0,0:0:0:0:
224,128,6475,1,0,0:0:0:0:
288,128,6838,1,8,0:0:0:0:
224,128,7202,1,0,0:0:0:0:
224,128,7566,1,0,0:0:0:0:
288,128,7929,1,8,0:0:0:0:
288,128,8111,1,8,0:0:0:0:
224,128,8293,1,0,0:0:0:0:
224,128,8657,1,0,0:0:0:0:
288,128,9020,1,8,0:0:0:0:
224,128,9384,1,0,0:0:0:0:
224,128,9747,1,0,0:0:0:0:
288,128,10111,1,0,0:0:0:0:
288,128,10293,1,0,0:0:0:0:
288,128,10475,1,8,0:0:0:0:
288,128,10838,1,8,0:0:0:0:
224,128,11202,1,0,0:0:0:0:
224,128,11566,1,0,0:0:0:0:
288,128,11929,1,8,0:0:0:0:
224,128,12293,1,0,0:0:0:0:
224,128,12475,1,0,0:0:0:0:
224,128,12657,1,0,0:0:0:0:
288,128,13020,1,8,0:0:0:0:
224,128,13384,1,0,0:0:0:0:
224,128,13747,1,0,0:0:0:0:
288,128,14111,1,8,0:0:0:0:
288,128,14475,1,8,0:0:0:0:
288,128,14657,1,8,0:0:0:0:
288,128,14838,1,8,0:0:0:0:
224,128,15202,1,0,0:0:0:0:
288,128,15566,1,8,0:0:0:0:
288,128,15929,1,8,0:0:0:0:
224,128,16293,1,0,0:0:0:0:
288,128,16657,1,8,0:0:0:0:
288,128,16838,1,8,0:0:0:0:
288,128,17020,1,8,0:0:0:0:
224,128,17384,1,0,0:0:0:0:
288,128,17747,1,8,0:0:0:0:
288,128,18111,1,8,0:0:0:0:
288,128,18293,1,8,0:0:0:0:
288,128,18354,1,8,0:0:0:0:
288,128,18414,1,8,0:0:0:0:
288,128,18475,1,8,0:0:0:0:
288,128,18838,1,8,0:0:0:0:
288,128,19020,1,8,0:0:0:0:
224,128,19202,1,0,0:0:0:0:
224,128,19384,1,0,0:0:0:0:
224,128,19475,1,0,0:0:0:0:
288,128,19566,1,8,0:0:0:0:
256,128,19657,1,0,0:0:0:0:
256,128,19747,1,0,0:0:0:0:
256,128,19838,1,0,0:0:0:0:
256,128,19929,1,8,0:0:0:0:
256,128,20111,1,0,0:0:0:0:
256,128,20202,1,8,0:0:0:0:
256,128,20293,1,0,0:0:0:0:
256,128,20384,1,0,0:0:0:0:
256,128,20475,1,8,0:0:0:0:
256,128,20566,1,0,0:0:0:0:
256,128,20657,1,8,0:0:0:0:
256,128,20838,1,0,0:0:0:0:
256,128,20929,1,0,0:0:0:0:
256,128,21020,1,8,0:0:0:0:
256,128,21201,1,0,0:0:0:0:
256,128,21292,1,0,0:0:0:0:
256,128,21383,1,8,0:0:0:0:
256,128,21565,1,0,0:0:0:0:
256,128,21656,1,0,0:0:0:0:
256,128,21747,1,8,0:0:0:0:
256,128,21838,1,8,0:0:0:0:
256,128,21929,1,0,0:0:0:0:
256,128,22020,1,0,0:0:0:0:
256,128,22110,1,8,0:0:0:0:
256,128,22292,1,0,0:0:0:0:
256,128,22383,1,0,0:0:0:0:
256,128,22474,1,8,0:0:0:0:
256,128,22565,1,8,0:0:0:0:
256,128,22656,1,0,0:0:0:0:
256,128,22747,1,0,0:0:0:0:
256,128,22838,1,8,0:0:0:0:
256,128,23020,1,0,0:0:0:0:
256,128,23110,1,0,0:0:0:0:
256,128,23201,1,8,0:0:0:0:
256,128,23383,1,0,0:0:0:0:
256,128,23474,1,0,0:0:0:0:
256,128,23565,1,8,0:0:0:0:
256,128,23747,1,8,0:0:0:0:
256,128,23838,1,8,0:0:0:0:
256,128,23929,1,8,0:0:0:0:
256,128,24110,1,0,0:0:0:0:
256,128,24201,1,8,0:0:0:0:
256,128,24292,1,8,0:0:0:0:
256,128,24383,1,0,0:0:0:0:
256,128,24474,1,8,0:0:0:0:
256,128,24656,1,8,0:0:0:0:
256,128,24747,1,8,0:0:0:0:
256,128,24838,1,0,0:0:0:0:
256,128,24929,1,0,0:0:0:0:
256,128,25020,1,8,0:0:0:0:
256,128,25201,1,0,0:0:0:0:
256,128,25292,1,0,0:0:0:0:
256,128,25383,1,0,0:0:0:0:
256,128,25565,1,8,0:0:0:0:
256,128,25656,1,8,0:0:0:0:
256,128,25747,1,0,0:0:0:0:
256,128,25929,1,0,0:0:0:0:
256,128,26020,1,0,0:0:0:0:
256,128,26110,1,8,0:0:0:0:
256,128,26201,1,0,0:0:0:0:
256,128,26292,1,0,0:0:0:0:
256,128,26383,1,8,0:0:0:0:
256,128,26474,1,0,0:0:0:0:
256,128,26656,1,8,0:0:0:0:
256,128,26747,1,8,0:0:0:0:
256,128,26838,1,0,0:0:0:0:
256,128,26929,1,0,0:0:0:0:
256,128,27020,1,8,0:0:0:0:
256,128,27110,1,0,0:0:0:0:
256,128,27201,1,8,0:0:0:0:
256,128,27383,1,0,0:0:0:0:
256,128,27474,1,0,0:0:0:0:
256,128,27565,1,0,0:0:0:0:
256,128,27747,1,8,0:0:0:0:
256,128,27929,1,0,0:0:0:0:
256,128,28020,1,0,0:0:0:0:
256,128,28110,1,0,0:0:0:0:
256,128,28171,1,0,0:0:0:0:
256,128,28232,1,0,0:0:0:0:
256,128,28292,1,8,0:0:0:0:
256,128,28474,1,0,0:0:0:0:
256,128,28565,1,0,0:0:0:0:
256,128,28656,1,8,0:0:0:0:
256,128,28747,1,0,0:0:0:0:
256,128,28838,1,8,0:0:0:0:
256,128,29020,1,0,0:0:0:0:
256,128,29110,1,0,0:0:0:0:
256,128,29201,1,8,0:0:0:0:
256,128,29383,1,8,0:0:0:0:
256,128,29565,1,0,0:0:0:0:
256,128,29656,1,0,0:0:0:0:
256,128,29747,1,0,0:0:0:0:
256,128,29929,1,0,0:0:0:0:
256,128,30020,1,0,0:0:0:0:
256,128,30110,1,0,0:0:0:0:
256,128,30292,1,0,0:0:0:0:
256,128,30383,1,0,0:0:0:0:
256,128,30474,1,8,0:0:0:0:
256,128,30656,1,0,0:0:0:0:
256,128,30747,1,0,0:0:0:0:
256,128,30838,1,0,0:0:0:0:
256,128,30929,1,0,0:0:0:0:
256,128,31020,1,8,0:0:0:0:
256,128,31201,1,0,0:0:0:0:
256,128,31292,1,8,0:0:0:0:
256,128,31383,1,0,0:0:0:0:
256,128,31474,1,0,0:0:0:0:
256,128,31565,1,8,0:0:0:0:
256,128,31747,1,0,0:0:0:0:
256,128,31838,1,0,0:0:0:0:
256,128,31929,1,8,0:0:0:0:
256,128,32110,1,0,0:0:0:0:
256,128,32201,1,0,0:0:0:0:
256,128,32292,1,8,0:0:0:0:
256,128,32383,1,8,0:0:0:0:
256,128,32474,1,0,0:0:0:0:
256,128,32565,1,0,0:0:0:0:
256,128,32656,1,8,0:0:0:0:
256,128,32838,1,0,0:0:0:0:
256,128,32929,1,8,0:0:0:0:
256,128,33020,1,0,0:0:0:0:
256,128,33110,1,0,0:0:0:0:
256,128,33201,1,8,0:0:0:0:
256,128,33292,1,8,0:0:0:0:
256,128,33383,1,0,0:0:0:0:
256,128,33565,1,0,0:0:0:0:
256,128,33656,1,0,0:0:0:0:
256,128,33747,1,8,0:0:0:0:
256,128,33929,1,0,0:0:0:0:
256,128,34020,1,0,0:0:0:0:
256,128,34110,1,0,0:0:0:0:
256,128,34292,1,8,0:0:0:0:
256,128,34383,1,8,0:0:0:0:
256,128,34474,1,0,0:0:0:0:
256,128,34656,1,0,0:0:0:0:
256,128,34747,1,0,0:0:0:0:
256,128,34838,1,8,0:0:0:0:
256,128,35020,1,0,0:0:0:0:
256,128,35110,1,0,0:0:0:0:
256,128,35201,1,0,0:0:0:0:
256,128,35383,1,0,0:0:0:0:
256,128,35474,1,0,0:0:0:0:
256,128,35565,1,0,0:0:0:0:
256,128,35747,1,0,0:0:0:0:
256,128,35838,1,0,0:0:0:0:
256,128,35929,1,8,0:0:0:0:
256,128,36110,1,0,0:0:0:0:
256,128,36201,1,0,0:0:0:0:
256,128,36292,1,0,0:0:0:0:
256,128,36474,1,4,0:0:0:0:
256,128,36656,1,12,0:0:0:0:
256,128,36838,1,4,0:0:0:0:
256,128,37020,1,4,0:0:0:0:
256,128,37292,1,4,0:0:0:0:
256,128,37565,1,4,0:0:0:0:
256,128,37747,1,12,0:0:0:0:
256,128,37929,1,0,0:0:0:0:
256,128,38110,1,4,0:0:0:0:
256,128,38383,1,4,0:0:0:0:
256,128,38656,1,4,0:0:0:0:
256,128,38838,1,12,0:0:0:0:
256,128,39020,1,0,0:0:0:0:
256,128,39110,1,8,0:0:0:0:
256,128,39201,1,4,0:0:0:0:
256,128,39474,1,4,0:0:0:0:
256,128,39747,1,4,0:0:0:0:
256,128,39929,1,12,0:0:0:0:
256,128,40292,1,4,0:0:0:0:
256,128,40565,1,4,0:0:0:0:
256,128,40838,1,4,0:0:0:0:
256,128,41020,1,8,0:0:0:0:
256,128,41110,1,8,0:0:0:0:
256,128,41201,1,0,0:0:0:0:
256,128,41292,1,8,0:0:0:0:
256,128,41383,1,4,0:0:0:0:
256,128,41656,1,4,0:0:0:0:
256,128,41929,1,4,0:0:0:0:
256,128,42110,1,12,0:0:0:0:
256,128,42474,1,4,0:0:0:0:
256,128,42747,1,4,0:0:0:0:
256,128,43020,1,4,0:0:0:0:
256,128,43201,1,12,0:0:0:0:
256,128,43383,1,0,0:0:0:0:
256,128,43474,1,8,0:0:0:0:
256,128,43565,1,4,0:0:0:0:
256,128,43838,1,4,0:0:0:0:
256,128,44110,1,4,0:0:0:0:
256,128,44292,1,12,0:0:0:0:
256,128,44474,1,0,0:0:0:0:
256,128,44656,1,4,0:0:0:0:
256,128,44929,1,12,0:0:0:0:
256,128,45201,1,4,0:0:0:0:
256,128,45383,1,12,0:0:0:0:
256,128,45565,1,8,0:0:0:0:
256,128,45656,1,8,0:0:0:0:
256,128,45747,1,4,0:0:0:0:
256,160,46838,1,0,0:0:0:0:
256,160,47020,1,8,0:0:0:0:
256,160,47201,1,0,0:0:0:0:
256,160,47383,1,8,0:0:0:0:
256,160,47565,1,0,0:0:0:0:
256,160,47626,1,8,0:0:0:0:
256,160,47686,1,8,0:0:0:0:
256,160,47747,1,0,0:0:0:0:
256,160,47929,1,8,0:0:0:0:
256,160,48110,1,0,0:0:0:0:
256,160,48201,1,0,0:0:0:0:
256,160,48292,1,8,0:0:0:0:
256,160,48474,1,8,0:0:0:0:
256,160,48656,1,0,0:0:0:0:
256,160,48747,1,0,0:0:0:0:
256,160,48838,1,8,0:0:0:0:
256,160,49020,1,8,0:0:0:0:
256,160,49201,1,0,0:0:0:0:
256,160,49292,1,0,0:0:0:0:
256,160,49383,1,8,0:0:0:0:
256,160,49565,1,8,0:0:0:0:
256,160,49747,1,0,0:0:0:0:
256,160,49929,1,8,0:0:0:0:
256,160,50110,1,0,0:0:0:0:
256,160,50292,1,8,0:0:0:0:
256,160,50474,1,0,0:0:0:0:
256,160,50656,1,8,0:0:0:0:
256,160,50838,1,0,0:0:0:0:
256,160,50898,1,0,0:0:0:0:
256,160,50959,1,0,0:0:0:0:
256,160,51020,1,8,0:0:0:0:
256,160,51201,1,0,0:0:0:0:
256,160,51383,1,0,0:0:0:0:
256,160,51565,1,8,0:0:0:0:
256,160,51747,1,8,0:0:0:0:
256,160,51929,1,0,0:0:0:0:
256,160,51989,1,0,0:0:0:0:
256,160,52050,1,0,0:0:0:0:
256,160,52110,1,8,0:0:0:0:
256,160,52292,1,0,0:0:0:0:
256,160,52474,1,0,0:0:0:0:
256,160,52565,1,0,0:0:0:0:
256,160,52656,1,8,0:0:0:0:
256,160,52838,1,8,0:0:0:0:
256,160,53020,1,0,0:0:0:0:
256,160,53110,1,0,0:0:0:0:
256,160,53201,1,8,0:0:0:0:
256,160,53383,1,0,0:0:0:0:
256,160,53565,1,0,0:0:0:0:
256,160,53747,1,8,0:0:0:0:
256,160,53929,1,8,0:0:0:0:
256,160,54020,1,8,0:0:0:0:
256,160,54110,1,0,0:0:0:0:
256,160,54292,1,8,0:0:0:0:
256,160,54474,1,0,0:0:0:0:
256,160,54656,1,8,0:0:0:0:
256,160,54747,1,0,0:0:0:0:
256,160,55020,1,0,0:0:0:0:
256,160,55201,1,12,0:0:0:0:
256,160,55383,1,0,0:0:0:0:
256,160,55565,1,4,0:0:0:0:
256,160,55747,1,8,0:0:0:0:
256,160,55838,1,8,0:0:0:0:
256,160,55929,1,0,0:0:0:0:
256,160,56110,1,8,0:0:0:0:
256,160,56292,1,0,0:0:0:0:
256,160,56353,1,8,0:0:0:0:
256,160,56413,1,8,0:0:0:0:
256,160,56474,1,0,0:0:0:0:
256,160,56656,1,8,0:0:0:0:
256,160,56838,1,0,0:0:0:0:
256,160,56898,1,0,0:0:0:0:
256,160,56959,1,0,0:0:0:0:
256,160,57020,1,8,0:0:0:0:
256,160,57201,1,8,0:0:0:0:
256,160,57383,1,0,0:0:0:0:
256,160,57565,1,8,0:0:0:0:
256,160,57747,1,0,0:0:0:0:
256,160,57929,1,8,0:0:0:0:
256,160,58020,1,8,0:0:0:0:
256,160,58110,1,0,0:0:0:0:
256,160,58292,1,8,0:0:0:0:
256,160,58474,1,0,0:0:0:0:
256,160,58656,1,0,0:0:0:0:
256,160,58838,1,8,0:0:0:0:
256,160,59020,1,8,0:0:0:0:
256,160,59201,1,0,0:0:0:0:
256,160,59383,1,8,0:0:0:0:
256,160,59565,1,0,0:0:0:0:
256,160,59626,1,0,0:0:0:0:
256,160,59686,1,0,0:0:0:0:
256,160,59747,1,8,0:0:0:0:
256,160,59929,1,0,0:0:0:0:
256,160,60020,1,0,0:0:0:0:
256,160,60110,1,8,0:0:0:0:
256,160,60292,1,0,0:0:0:0:
256,160,60474,1,8,0:0:0:0:
256,160,60656,1,0,0:0:0:0:
256,160,60717,1,0,0:0:0:0:
256,160,60777,1,0,0:0:0:0:
256,160,60838,1,8,0:0:0:0:
256,160,61020,1,8,0:0:0:0:
256,160,61201,1,0,0:0:0:0:
256,160,61262,1,8,0:0:0:0:
256,160,61323,1,8,0:0:0:0:
256,160,61383,1,0,0:0:0:0:
256,160,61565,1,8,0:0:0:0:
256,160,61747,1,0,0:0:0:0:
256,160,61838,1,0,0:0:0:0:
256,160,61929,1,8,0:0:0:0:
256,160,62110,1,4,0:0:0:0:
256,160,62292,1,0,0:0:0:0:
256,160,62383,1,0,0:0:0:0:
256,160,62474,1,8,0:0:0:0:
256,160,62656,1,8,0:0:0:0:
256,160,62838,1,0,0:0:0:0:
256,160,62929,1,8,0:0:0:0:
256,160,63110,1,0,0:0:0:0:
256,160,63201,1,0,0:0:0:0:
256,160,63474,1,0,0:0:0:0:
256,160,63747,1,0,0:0:0:0:
256,160,63929,1,12,0:0:0:0:
256,160,64110,1,4,0:0:0:0:
256,160,64292,1,4,0:0:0:0:
256,160,64474,1,8,0:0:0:0:
256,160,64656,1,8,0:0:0:0:
256,160,64838,1,0,0:0:0:0:
256,160,64898,1,0,0:0:0:0:
256,160,64959,1,0,0:0:0:0:
256,160,65020,1,8,0:0:0:0:
256,160,65201,1,0,0:0:0:0:
256,160,65262,1,0,0:0:0:0:
256,160,65323,1,0,0:0:0:0:
256,160,65383,1,8,0:0:0:0:
256,160,65565,1,8,0:0:0:0:
256,160,65656,1,0,0:0:0:0:
256,160,65747,1,0,0:0:0:0:
256,160,65929,1,0,0:0:0:0:
256,160,66110,1,8,0:0:0:0:
256,160,66292,1,0,0:0:0:0:
256,160,66474,1,0,0:0:0:0:
256,160,66656,1,8,0:0:0:0:
256,160,66747,1,0,0:0:0:0:
256,160,66838,1,8,0:0:0:0:
256,160,67020,1,0,0:0:0:0:
256,160,67080,1,0,0:0:0:0:
256,160,67141,1,0,0:0:0:0:
256,160,67201,1,8,0:0:0:0:
256,160,67383,1,8,0:0:0:0:
256,160,67444,1,8,0:0:0:0:
256,160,67504,1,8,0:0:0:0:
256,160,67565,1,0,0:0:0:0:
256,160,67747,1,0,0:0:0:0:
256,160,67838,1,0,0:0:0:0:
256,160,67929,1,8,0:0:0:0:
256,160,68110,1,8,0:0:0:0:
256,160,68292,1,8,0:0:0:0:
256,160,68474,1,0,0:0:0:0:
256,160,68656,1,0,0:0:0:0:
256,160,68838,1,8,0:0:0:0:
256,160,68929,1,0,0:0:0:0:
256,160,69020,1,8,0:0:0:0:
256,160,69201,1,8,0:0:0:0:
256,160,69262,1,0,0:0:0:0:
256,160,69323,1,0,0:0:0:0:
256,160,69383,1,8,0:0:0:0:
256,160,69565,1,0,0:0:0:0:
256,160,69626,1,0,0:0:0:0:
256,160,69686,1,0,0:0:0:0:
256,160,69747,1,8,0:0:0:0:
256,160,69929,1,8,0:0:0:0:
256,160,70020,1,0,0:0:0:0:
256,160,70110,1,8,0:0:0:0:
256,160,70292,1,8,0:0:0:0:
256,160,70383,1,8,0:0:0:0:
256,160,70474,1,0,0:0:0:0:
256,160,70656,1,8,0:0:0:0:
256,160,70838,1,0,0:0:0:0:
256,160,71020,1,8,0:0:0:0:
256,160,71110,1,0,0:0:0:0:
256,160,71201,1,8,0:0:0:0:
256,160,71383,1,8,0:0:0:0:
256,160,71444,1,8,0:0:0:0:
256,160,71504,1,8,0:0:0:0:
256,160,71565,1,0,0:0:0:0:
256,160,71747,1,8,0:0:0:0:
256,160,71807,1,8,0:0:0:0:
256,160,71868,1,8,0:0:0:0:
256,160,71929,1,0,0:0:0:0:
256,160,72110,1,8,0:0:0:0:
256,160,72201,1,0,0:0:0:0:
256,160,72292,1,8,0:0:0:0:
256,160,72474,1,0,0:0:0:0:
256,160,72656,1,12,0:0:0:0:
256,160,72838,1,0,0:0:0:0:
256,160,73020,1,4,0:0:0:0:
256,160,73201,1,8,0:0:0:0:
256,160,73292,1,0,0:0:0:0:
256,160,73383,1,8,0:0:0:0:
256,160,73565,1,8,0:0:0:0:
256,160,73626,1,0,0:0:0:0:
256,160,73686,1,0,0:0:0:0:
256,160,73747,1,8,0:0:0:0:
256,160,73929,1,8,0:0:0:0:
256,160,73989,1,0,0:0:0:0:
256,160,74050,1,0,0:0:0:0:
256,160,74110,1,0,0:0:0:0:
256,160,74292,1,8,0:0:0:0:
256,160,74474,1,0,0:0:0:0:
256,160,74565,1,0,0:0:0:0:
256,160,74656,1,8,0:0:0:0:
256,160,74838,1,0,0:0:0:0:
256,160,75020,1,8,0:0:0:0:
256,160,75110,1,0,0:0:0:0:
256,160,75201,1,0,0:0:0:0:
256,160,75383,1,8,0:0:0:0:
256,160,75474,1,0,0:0:0:0:
256,160,75565,1,8,0:0:0:0:
256,160,75656,1,8,0:0:0:0:
256,160,75747,1,0,0:0:0:0:
256,160,75929,1,8,0:0:0:0:
256,160,76020,1,0,0:0:0:0:
256,160,76110,1,8,0:0:0:0:
256,160,76201,1,0,0:0:0:0:
256,160,76292,1,0,0:0:0:0:
256,160,76474,1,8,0:0:0:0:
256,160,76565,1,0,0:0:0:0:
256,160,76656,1,8,0:0:0:0:
256,160,76747,1,0,0:0:0:0:
256,160,76838,1,0,0:0:0:0:
256,160,76929,1,0,0:0:0:0:
256,160,77020,1,8,0:0:0:0:
256,160,77110,1,0,0:0:0:0:
256,160,77201,1,8,0:0:0:0:
256,160,77262,1,8,0:0:0:0:
256,160,77323,1,8,0:0:0:0:
256,160,77383,1,8,0:0:0:0:
256,160,77565,1,0,0:0:0:0:
256,160,77656,1,0,0:0:0:0:
256,160,77747,1,8,0:0:0:0:
256,160,77838,1,0,0:0:0:0:
256,160,77929,1,8,0:0:0:0:
256,160,77989,1,8,0:0:0:0:
256,160,78050,1,8,0:0:0:0:
256,160,78110,1,0,0:0:0:0:
256,160,78201,1,0,0:0:0:0:
256,160,78292,1,8,0:0:0:0:
256,160,78383,1,0,0:0:0:0:
256,160,78474,1,0,0:0:0:0:
256,160,78656,1,8,0:0:0:0:
256,160,78716,1,8,0:0:0:0:
256,160,78777,1,8,0:0:0:0:
256,160,78838,1,0,0:0:0:0:
256,160,78929,1,0,0:0:0:0:
256,160,79020,1,8,0:0:0:0:
256,160,79110,1,0,0:0:0:0:
256,160,79201,1,0,0:0:0:0:
256,160,79292,1,0,0:0:0:0:
256,160,79383,1,8,0:0:0:0:
256,160,79474,1,0,0:0:0:0:
256,160,79565,1,8,0:0:0:0:
256,160,79747,1,0,0:0:0:0:
256,160,79838,1,0,0:0:0:0:
256,160,79929,1,8,0:0:0:0:
256,160,80020,1,0,0:0:0:0:
256,160,80110,1,8,0:0:0:0:
256,160,80171,1,8,0:0:0:0:
256,160,80232,1,8,0:0:0:0:
256,160,80292,1,0,0:0:0:0:
256,160,80383,1,0,0:0:0:0:
256,160,80474,1,8,0:0:0:0:
256,160,80656,1,0,0:0:0:0:
256,160,80747,1,0,0:0:0:0:
256,160,80838,1,8,0:0:0:0:
256,160,80898,1,8,0:0:0:0:
256,160,80959,1,8,0:0:0:0:
256,160,81020,1,0,0:0:0:0:
256,160,81110,1,0,0:0:0:0:
256,160,81201,1,8,0:0:0:0:
256,160,81292,1,0,0:0:0:0:
256,160,81383,1,8,0:0:0:0:
256,160,81474,1,8,0:0:0:0:
256,160,81565,1,0,0:0:0:0:
256,160,81656,1,0,0:0:0:0:
256,160,81747,1,8,0:0:0:0:
256,160,81929,1,0,0:0:0:0:
256,160,82020,1,0,0:0:0:0:
256,160,82110,1,0,0:0:0:0:
256,160,82292,1,8,0:0:0:0:
256,160,82383,1,0,0:0:0:0:
256,160,82474,1,8,0:0:0:0:
256,160,82565,1,8,0:0:0:0:
256,160,82656,1,0,0:0:0:0:
256,160,82747,1,0,0:0:0:0:
256,160,82838,1,8,0:0:0:0:
256,160,83020,1,0,0:0:0:0:
256,160,83110,1,0,0:0:0:0:
256,160,83201,1,8,0:0:0:0:
256,160,83262,1,8,0:0:0:0:
256,160,83323,1,8,0:0:0:0:
256,160,83383,1,0,0:0:0:0:
256,160,83474,1,0,0:0:0:0:
256,160,83565,1,8,0:0:0:0:
256,160,83747,1,0,0:0:0:0:
256,160,83929,1,0,0:0:0:0:
256,160,84020,1,8,0:0:0:0:
256,160,84110,1,8,0:0:0:0:
256,160,84201,1,0,0:0:0:0:
256,160,84292,1,8,0:0:0:0:
256,160,84353,1,8,0:0:0:0:
256,160,84413,1,8,0:0:0:0:
256,160,84474,1,0,0:0:0:0:
256,160,84565,1,0,0:0:0:0:
256,160,84656,1,8,0:0:0:0:
256,160,84838,1,0,0:0:0:0:
256,160,85020,1,8,0:0:0:0:
256,160,85110,1,0,0:0:0:0:
256,160,85292,1,8,0:0:0:0:
256,160,85383,1,0,0:0:0:0:
256,160,85565,1,8,0:0:0:0:
256,160,85747,1,0,0:0:0:0:
256,160,85838,1,0,0:0:0:0:
256,160,85929,1,8,0:0:0:0:
256,160,86110,1,4,0:0:0:0:
256,160,86292,1,0,0:0:0:0:
256,160,86383,1,0,0:0:0:0:
256,160,86474,1,8,0:0:0:0:
256,160,86565,1,0,0:0:0:0:
256,160,86656,1,8,0:0:0:0:
256,160,86716,1,8,0:0:0:0:
256,160,86777,1,8,0:0:0:0:
256,160,86838,1,0,0:0:0:0:
256,160,86929,1,0,0:0:0:0:
256,160,87020,1,8,0:0:0:0:
256,160,87110,1,0,0:0:0:0:
256,160,87201,1,0,0:0:0:0:
256,160,87383,1,8,0:0:0:0:
256,160,87444,1,8,0:0:0:0:
256,160,87504,1,8,0:0:0:0:
256,160,87565,1,0,0:0:0:0:
256,160,87656,1,0,0:0:0:0:
256,160,87747,1,8,0:0:0:0:
256,160,87838,1,0,0:0:0:0:
256,160,87929,1,8,0:0:0:0:
256,160,88020,1,8,0:0:0:0:
256,160,88110,1,0,0:0:0:0:
256,160,88201,1,0,0:0:0:0:
256,160,88292,1,8,0:0:0:0:
256,160,88474,1,0,0:0:0:0:
256,160,88565,1,0,0:0:0:0:
256,160,88656,1,8,0:0:0:0:
256,160,88747,1,0,0:0:0:0:
256,160,88838,1,8,0:0:0:0:
256,160,88898,1,8,0:0:0:0:
256,160,88959,1,8,0:0:0:0:
256,160,89020,1,0,0:0:0:0:
256,160,89110,1,0,0:0:0:0:
256,160,89201,1,8,0:0:0:0:
256,160,89383,1,0,0:0:0:0:
256,160,89474,1,0,0:0:0:0:
256,160,89565,1,8,0:0:0:0:
256,160,89626,1,8,0:0:0:0:
256,160,89686,1,8,0:0:0:0:
256,160,89747,1,0,0:0:0:0:
256,160,89838,1,0,0:0:0:0:
256,160,89929,1,8,0:0:0:0:
256,160,90020,1,0,0:0:0:0:
256,160,90110,1,8,0:0:0:0:
256,160,90292,1,8,0:0:0:0:
256,160,90474,1,8,0:0:0:0:
256,160,90565,1,8,0:0:0:0:
256,160,90656,1,0,0:0:0:0:
256,160,90747,1,0,0:0:0:0:
256,160,90838,1,0,0:0:0:0:
256,160,90929,1,0,0:0:0:0:
256,160,91020,1,8,0:0:0:0:
256,160,91110,1,0,0:0:0:0:
256,160,91201,1,8,0:0:0:0:
256,160,91292,1,8,0:0:0:0:
256,160,91383,1,0,0:0:0:0:
256,160,91474,1,0,0:0:0:0:
256,160,91565,1,8,0:0:0:0:
256,160,91656,1,0,0:0:0:0:
256,160,91747,1,8,0:0:0:0:
256,160,91838,1,0,0:0:0:0:
256,160,91929,1,8,0:0:0:0:
256,160,91989,1,8,0:0:0:0:
256,160,92050,1,8,0:0:0:0:
256,160,92110,1,0,0:0:0:0:
256,160,92201,1,0,0:0:0:0:
256,160,92292,1,8,0:0:0:0:
256,160,92474,1,0,0:0:0:0:
256,160,92656,1,8,0:0:0:0:
256,160,92747,1,0,0:0:0:0:
256,160,92838,1,0,0:0:0:0:
256,160,92929,1,8,0:0:0:0:
256,160,93020,1,0,0:0:0:0:
256,160,93080,1,0,0:0:0:0:
256,160,93141,1,0,0:0:0:0:
256,160,93201,1,8,0:0:0:0:
256,160,93292,1,0,0:0:0:0:
256,160,93383,1,8,0:0:0:0:
256,160,93474,1,8,0:0:0:0:
256,160,93565,1,0,0:0:0:0:
256,160,93656,1,0,0:0:0:0:
256,160,93747,1,8,0:0:0:0:
256,160,93838,1,0,0:0:0:0:
256,160,93929,1,8,0:0:0:0:
256,160,94020,1,0,0:0:0:0:
256,160,94110,1,8,0:0:0:0:
256,160,94201,1,8,0:0:0:0:
256,160,94292,1,0,0:0:0:0:
256,160,94383,1,0,0:0:0:0:
256,160,94474,1,8,0:0:0:0:
256,160,94565,1,8,0:0:0:0:
256,160,94656,1,0,0:0:0:0:
256,160,94716,1,0,0:0:0:0:
256,160,94777,1,0,0:0:0:0:
256,160,94838,1,8,0:0:0:0:
256,192,95020,12,0,96292,0:0:0:0:
256,160,96474,5,0,0:0:0:0:
256,160,96565,1,0,0:0:0:0:
256,160,96656,1,0,0:0:0:0:
256,160,96747,1,0,0:0:0:0:
256,160,96838,1,0,0:0:0:0:
256,160,96929,1,0,0:0:0:0:
256,160,97020,1,8,0:0:0:0:
256,160,97929,1,0,0:0:0:0:
256,160,98020,1,0,0:0:0:0:
256,160,98110,1,0,0:0:0:0:
256,160,98292,1,0,0:0:0:0:
256,160,98383,1,0,0:0:0:0:
256,160,98474,1,0,0:0:0:0:
256,192,98838,1,8,0:0:0:0:
256,192,99020,1,0,0:0:0:0:
256,192,99110,1,0,0:0:0:0:
256,192,99201,1,12,0:0:0:0:
256,192,99383,12,0,100656,0:0:0:0:
256,160,100838,5,0,0:0:0:0:
256,160,100929,1,0,0:0:0:0:
256,160,101020,1,0,0:0:0:0:
256,160,101110,1,0,0:0:0:0:
256,160,101201,1,0,0:0:0:0:
256,160,101292,1,0,0:0:0:0:
256,160,101383,1,8,0:0:0:0:
256,160,102292,1,0,0:0:0:0:
256,160,102474,1,4,0:0:0:0:
256,160,102747,1,12,0:0:0:0:
256,160,103020,1,4,0:0:0:0:
256,160,103201,1,12,0:0:0:0:
256,160,103383,1,0,0:0:0:0:
256,160,103474,1,8,0:0:0:0:
256,160,103565,1,4,0:0:0:0:
256,160,103747,1,8,0:0:0:0:
256,160,103838,1,0,0:0:0:0:
256,160,103929,1,8,0:0:0:0:
256,160,104110,1,0,0:0:0:0:
256,160,104292,1,8,0:0:0:0:
256,160,104474,1,8,0:0:0:0:
256,160,104656,1,0,0:0:0:0:
256,160,104838,1,8,0:0:0:0:
256,160,104898,1,8,0:0:0:0:
256,160,104959,1,8,0:0:0:0:
256,160,105020,1,0,0:0:0:0:
256,160,105201,1,8,0:0:0:0:
256,160,105262,1,8,0:0:0:0:
256,160,105323,1,8,0:0:0:0:
256,160,105383,1,0,0:0:0:0:
256,160,105565,1,8,0:0:0:0:
256,160,105747,1,4,0:0:0:0:
256,160,105929,1,8,0:0:0:0:
256,160,106020,1,8,0:0:0:0:
256,160,106110,1,8,0:0:0:0:
256,160,106292,1,0,0:0:0:0:
256,160,106474,1,8,0:0:0:0:
256,160,106656,1,0,0:0:0:0:
256,160,106838,1,8,0:0:0:0:
256,160,107020,1,0,0:0:0:0:
256,160,107080,1,0,0:0:0:0:
256,160,107141,1,0,0:0:0:0:
256,160,107201,1,8,0:0:0:0:
256,160,107383,1,0,0:0:0:0:
256,160,107444,1,0,0:0:0:0:
256,160,107504,1,0,0:0:0:0:
256,160,107565,1,8,0:0:0:0:
256,160,107656,1,0,0:0:0:0:
256,160,107747,1,0,0:0:0:0:
256,160,107838,1,8,0:0:0:0:
256,160,107929,1,0,0:0:0:0:
256,160,108110,1,8,0:0:0:0:
256,160,108201,1,0,0:0:0:0:
256,160,108292,1,0,0:0:0:0:
256,160,108474,1,0,0:0:0:0:
256,160,108656,1,8,0:0:0:0:
256,160,108838,1,8,0:0:0:0:
256,160,109020,1,0,0:0:0:0:
256,160,109201,1,8,0:0:0:0:
256,160,109262,1,8,0:0:0:0:
256,160,109323,1,8,0:0:0:0:
256,160,109383,1,0,0:0:0:0:
256,160,109565,1,8,0:0:0:0:
256,160,109626,1,8,0:0:0:0:
256,160,109686,1,8,0:0:0:0:
256,160,109747,1,0,0:0:0:0:
256,160,109929,1,0,0:0:0:0:
256,160,110020,1,8,0:0:0:0:
256,160,110110,1,0,0:0:0:0:
256,160,110292,1,8,0:0:0:0:
256,160,110383,1,8,0:0:0:0:
256,160,110474,1,0,0:0:0:0:
256,160,110656,1,8,0:0:0:0:
256,160,110838,1,8,0:0:0:0:
256,160,110929,1,8,0:0:0:0:
256,160,111020,1,0,0:0:0:0:
256,160,111110,1,8,0:0:0:0:
256,160,111201,1,0,0:0:0:0:
256,160,111262,1,0,0:0:0:0:
256,160,111323,1,0,0:0:0:0:
256,160,111383,1,8,0:0:0:0:
256,160,111474,1,0,0:0:0:0:
256,160,111565,1,8,0:0:0:0:
256,160,111626,1,8,0:0:0:0:
256,160,111686,1,8,0:0:0:0:
256,160,111747,1,0,0:0:0:0:
256,160,111838,1,0,0:0:0:0:
256,160,111929,1,8,0:0:0:0:
256,160,112020,1,8,0:0:0:0:
256,160,112110,1,0,0:0:0:0:
256,160,112201,1,8,0:0:0:0:
256,160,112292,1,0,0:0:0:0:
256,192,112474,12,0,116292,0:0:0:0:
