osu file format v14

[General]
AudioFilename: audio.mp3
AudioLeadIn: 0
PreviewTime: 77787
Countdown: 0
SampleSet: Soft
StackLeniency: 0.3
Mode: 0
LetterboxInBreaks: 0
WidescreenStoryboard: 1

[Editor]
DistanceSpacing: 1.4
BeatDivisor: 16
GridSize: 16
TimelineZoom: 1

[Metadata]
Title:Caring Dance
TitleUnicode:Caring Dance
Artist:Nekomata Master
ArtistUnicode:猫叉Master
Creator:Cellina
Version:Normal
Source:pop'n music 15 ADVENTURE
Tags:佐藤直之 Sato Naoyuki Instrumental Video Game CELTIC WIND Beomsan Seonah milr_ [_White_Music_] dailycare morinaga
BeatmapID:3538081
BeatmapSetID:1673628

[Difficulty]
HPDrainRate:4
CircleSize:3.6
OverallDifficulty:4.5
ApproachRate:5.5
SliderMultiplier:1.2
SliderTickRate:1

[Events]
//Background and Video events
0,0,"bh.jpg",0,0
//Break Periods
//Storyboard Layer 0 (Background)
//Storyboard Layer 1 (Fail)
//Storyboard Layer 2 (Pass)
//Storyboard Layer 3 (Foreground)
//Storyboard Layer 4 (Overlay)
//Storyboard Sound Samples

[TimingPoints]
672,594.059405940594,4,2,1,25,1,0
10176,-100,4,2,1,45,0,0
17305,-100,4,2,1,50,0,0
17602,-100,4,2,1,55,0,0
17899,-100,4,2,1,65,0,0
18196,-100,4,2,1,75,0,0
18493,-100,4,2,1,85,0,0
19087,-100,4,2,1,60,0,0
19681,-100,4,2,1,95,0,0
39285,594.059405940594,4,2,1,60,1,0
48789,-100,4,2,1,85,0,0
49086,-100,4,2,1,70,0,0
58294,-100,4,2,1,52,0,0
67799,-100,4,2,1,75,0,0
78492,594.059405940594,4,2,1,100,1,0
102254,-100,4,2,1,50,0,0
102848,-100,4,2,1,100,0,0
111759,-100,4,2,1,90,0,0
112204,-100,4,2,1,100,0,0

[Colours]
Combo1 : 244,217,230
Combo2 : 183,253,196
Combo3 : 250,216,197
Combo4 : 230,255,187

[HitObjects]
50,348,672,6,0,P|129:330|188:327,1,120,2|0,3:2|3:2,0:0:0:0:
226,267,1563,1,0,3:0:0:0:
154,223,1860,2,0,P|75:241|16:244,1,120,2|0,3:2|3:0,0:0:0:0:
166,137,3048,6,0,P|225:143|283:157,1,120,2|0,3:2|3:0,0:0:0:0:
356,114,3939,1,0,3:0:0:0:
297,54,4236,2,0,P|237:47|179:33,1,120,0|2,0:0|3:2,0:0:0:0:
84,171,5424,6,0,P|103:234|116:309,1,120,2|0,3:2|3:0,0:0:0:0:
187,325,6315,1,0,3:0:0:0:
231,253,6612,2,0,P|212:190|199:115,1,120,2|0,3:2|3:0,0:0:0:0:
365,98,7800,6,0,P|372:135|379:167,1,60,2|0,3:2|0:0,0:0:0:0:
445,205,8394,2,0,P|451:234|456:263,1,60,2|0,3:2|3:0,0:0:0:0:
489,341,8988,2,0,P|415:304|355:304,1,120,2|0,3:2|3:0,0:0:0:0:
309,349,9879,1,2,0:0:0:0:
238,303,10176,6,0,P|181:289|104:282,1,120,2|2,0:0|0:0,0:0:0:0:
67,216,11068,1,2,0:0:0:0:
130,161,11365,2,0,P|172:168|204:174,2,60,2|2|0,0:0|0:0|0:0,0:0:0:0:
81,92,12256,1,0,0:0:0:0:
146,38,12553,6,0,P|217:50|289:62,1,120,2|2,0:0|0:0,0:0:0:0:
334,103,13444,1,2,0:0:0:0:
414,78,13741,2,0,P|429:128|436:144,1,60,2|2,0:0|0:0,0:0:0:0:
504,177,14335,2,0,P|429:179|400:222,1,120,2|2,0:0|0:0,0:0:0:0:
307,348,15523,6,0,P|298:316|290:270,1,60,2|2,0:0|0:0,0:0:0:0:
218,251,16117,2,0,P|209:219|201:173,2,60,2|2|2,0:0|0:0|0:0,0:0:0:0:
179,325,17008,1,0,0:0:0:0:
95,314,17305,6,0,P|81:268|67:231,1,60,0|2,3:0|0:0,0:0:0:0:
29,187,17899,2,0,P|75:173|112:159,1,60,2|2,3:2|3:2,0:0:0:0:
165,195,18493,5,4,1:2:0:0:
207,122,18790,1,4,1:2:0:0:
143,67,19087,2,0,P|100:58|74:51,1,60,4|2,1:2|0:0,0:0:0:0:
39,124,19681,6,0,P|66:214|75:257,1,120,4|0,3:1|1:0,0:0:0:0:
51,320,20572,1,0,3:0:0:0:
130,348,20870,2,0,P|174:332|203:326,1,60,0|0,3:0|0:0,0:0:0:0:
232,258,21464,2,0,P|276:272|315:278,1,60,0|0,1:0|0:0,0:0:0:0:
355,326,22058,6,0,P|415:294|422:228,1,120,0|0,3:0|1:0,0:0:0:0:
469,175,22949,2,0,L|457:137,1,30,0|2,3:0|1:2,0:0:0:0:
479,108,23246,2,0,P|421:72|360:98,1,120,0|2,1:2|3:2,0:0:0:0:
321,149,24137,1,2,3:2:0:0:
267,84,24434,6,0,P|191:68|133:52,1,120,4|0,3:1|1:0,0:0:0:0:
93,119,25325,1,0,3:0:0:0:
147,183,25622,2,0,P|188:192|216:198,1,60,0|0,3:0|0:0,0:0:0:0:
270,249,26216,2,0,P|260:283|254:323,1,60,0|0,1:0|3:0,0:0:0:0:
194,364,26810,6,0,P|141:347|82:334,1,90,2|0,1:2|3:0,0:0:0:0:
66,345,27404,2,0,P|83:292|96:233,1,90,6|0,1:2|3:0,0:0:0:0:
131,245,27998,1,6,1:2:0:0:
115,162,28295,2,0,P|83:151|51:144,1,60,0|4,3:0|1:2,0:0:0:0:
204,63,29186,6,0,P|270:77|337:89,1,120,4|0,3:1|1:0,0:0:0:0:
377,149,30077,1,0,3:0:0:0:
460,142,30374,2,0,P|472:182|460:217,1,60,0|0,3:0|0:0,0:0:0:0:
492,279,30969,2,0,P|457:289|409:305,1,60,0|0,1:0|0:0,0:0:0:0:
387,366,31563,6,0,P|311:363|285:308,1,120,0|0,3:0|1:0,0:0:0:0:
314,251,32454,2,0,L|263:241,1,30,0|2,3:0|1:2,0:0:0:0:
256,214,32751,2,0,P|180:217|154:272,1,120,0|2,1:0|3:2,0:0:0:0:
109,317,33642,1,2,3:2:0:0:
39,269,33939,6,0,P|53:187|62:136,1,120,4|0,3:1|1:0,0:0:0:0:
126,100,34830,1,0,3:0:0:0:
203,132,35127,2,0,P|251:119|280:111,1,60,0|0,3:0|0:0,0:0:0:0:
320,56,35721,2,0,P|369:72|403:77,1,60,0|0,1:0|3:0,0:0:0:0:
441,127,36315,6,0,P|427:195|422:238,1,90,2|0,1:2|3:0,0:0:0:0:
406,253,36909,2,0,P|338:239|295:234,1,90,6|0,1:2|3:0,0:0:0:0:
277,249,37503,1,6,1:2:0:0:
215,306,37800,2,0,P|165:315|138:328,1,60,0|4,3:0|1:2,0:0:0:0:
81,280,38394,1,4,1:2:0:0:
184,50,39285,6,0,P|227:64|267:70,1,60,0|2,3:0|0:0,0:0:0:0:
266,147,39879,2,0,P|295:153|323:163,1,60,2|2,0:0|0:0,0:0:0:0:
398,125,40473,2,0,P|365:202|353:256,1,120,2|2,0:0|0:0,0:0:0:0:
387,315,41364,1,0,0:0:0:0:
469,300,41661,6,0,P|488:251|504:220,1,60,0|2,3:0|0:0,0:0:0:0:
472,162,42255,2,0,P|484:134|494:106,1,60,2|2,0:0|0:0,0:0:0:0:
456,31,42849,1,2,0:0:0:0:
392,86,43146,1,2,0:0:0:0:
317,48,43443,2,0,P|268:64|201:79,1,120,2|0,0:0|3:0,0:0:0:0:
124,45,44334,6,0,P|104:91|99:115,1,60,2|2,0:0|0:0,0:0:0:0:
152,167,44928,1,2,0:0:0:0:
112,241,45225,2,0,P|68:251|45:256,1,60,2|2,0:0|0:0,0:0:0:0:
62,337,45819,2,0,P|106:327|129:322,1,60,2|0,0:0|0:0,0:0:0:0:
187,273,46413,6,0,P|231:263|254:258,2,60,2|0|2,3:2|0:0|3:2,0:0:0:0:
120,323,47304,1,2,0:0:0:0:
45,285,47601,2,0,P|34:242|23:204,1,60,2|0,3:2|3:0,0:0:0:0:
97,177,48195,1,0,1:0:0:0:
28,128,48492,1,0,3:2:0:0:
91,73,48789,6,0,P|134:83|176:89,1,60,4|2,3:1|0:0,0:0:0:0:
223,45,49384,1,0,1:0:0:0:
223,128,49681,1,2,0:0:0:0:
297,90,49978,2,0,P|363:109|388:166,1,120,2|2,3:2|1:2,0:0:0:0:
445,210,50869,1,0,0:0:0:0:
402,282,51166,6,0,P|365:270|325:265,1,60,4|0,3:0|0:0,0:0:0:0:
278,214,51760,2,0,P|259:248|266:291,1,60,0|2,1:0|0:0,0:0:0:0:
295,343,52354,1,2,3:2:0:0:
216,372,52651,2,0,P|180:358|153:348,1,60,2|0,0:0|1:0,0:0:0:0:
115,279,53245,1,2,3:2:0:0:
175,220,53542,6,0,P|186:179|194:149,1,60,4|0,3:0|0:0,0:0:0:0:
153,86,54136,1,2,1:2:0:0:
233,61,54433,1,2,0:0:0:0:
279,131,54730,2,0,P|328:119|351:112,1,60,2|0,0:0|3:2,0:0:0:0:
405,68,55324,2,0,P|429:103|423:138,1,60,2|2,1:2|3:2,0:0:0:0:
380,187,55918,5,2,3:2:0:0:
449,234,56215,1,0,3:0:0:0:
400,302,56512,2,0,P|360:313|326:326,1,60,2|0,1:2|0:0,0:0:0:0:
273,366,57106,2,0,P|254:300|233:236,1,120,0|2,1:0|1:2,0:0:0:0:
253,168,57997,1,6,0:0:0:0:
175,200,58294,6,0,P|90:189|32:180,1,120,2|10,0:0|0:0,0:0:0:0:
38,351,59483,2,0,P|97:358|156:367,1,120,2|10,0:0|0:0,0:0:0:0:
316,313,60671,6,0,P|359:250|339:203,1,120,2|10,0:0|0:0,0:0:0:0:
282,159,61562,1,2,0:0:0:0:
206,195,61859,2,0,P|185:126|190:56,1,120,2|10,0:0|0:0,0:0:0:0:
340,14,63047,6,0,P|361:83|356:153,1,120,2|10,0:0|0:0,0:0:0:0:
347,213,63938,1,2,0:0:0:0:
421,250,64235,2,0,P|353:267|295:290,1,120,2|10,0:0|0:0,0:0:0:0:
157,362,65423,6,0,P|142:261|125:175,1,180,2|0,0:0|3:0,0:0:0:0:
55,141,66611,2,0,P|36:111|41:77,2,60,2|2|10,0:0|0:0|0:0,0:0:0:0:
207,71,67799,6,0,P|262:85|339:103,1,120,4|10,3:1|1:2,0:0:0:0:
342,181,68690,1,0,0:0:0:0:
415,140,68987,2,0,P|401:195|383:272,1,120,2|10,0:2|1:2,0:0:0:0:
264,372,70176,6,0,P|219:323|237:271,1,120,2|10,3:2|1:2,0:0:0:0:
217,193,71067,1,2,0:0:0:0:
297,217,71364,2,0,P|364:206|430:191,1,120,2|10,3:2|1:2,0:0:0:0:
424,27,72552,6,0,P|357:38|291:53,1,120,2|10,3:2|1:2,0:0:0:0:
254,115,73443,1,2,0:0:0:0:
191,58,73740,2,0,P|127:67|104:117,1,120,2|10,0:0|1:2,0:0:0:0:
47,174,74631,1,0,0:0:0:0:
121,213,74928,6,0,P|107:276|87:351,1,120,2|8,3:2|1:2,0:0:0:0:
226,231,76116,2,0,P|240:168|260:93,1,120,2|8,3:2|1:2,0:0:0:0:
324,68,77007,1,8,1:2:0:0:
106,44,78492,6,0,P|54:88|68:149,1,120,6|0,3:2|1:0,0:0:0:0:
48,218,79383,1,4,3:0:0:0:
122,256,79680,2,0,P|165:241|198:232,1,60,0|4,0:2|3:0,0:0:0:0:
236,176,80274,1,0,1:0:0:0:
301,228,80571,2,0,P|325:232|344:237,1,30,0|0,3:2|3:2,0:0:0:0:
371,225,80868,6,0,P|355:279|339:358,1,120,4|0,3:0|1:0,0:0:0:0:
261,367,81759,1,4,3:0:0:0:
196,312,82056,2,0,P|150:321|119:331,2,60,0|4|0,0:0|3:0|1:0,0:0:0:0:
274,282,82947,1,0,3:0:0:0:
292,199,83244,6,0,P|275:125|268:68,1,120,4|0,3:0|1:0,0:0:0:0:
352,87,84135,1,4,3:0:0:0:
424,44,84432,2,0,P|443:83|442:125,1,60,0|4,0:0|3:0,0:0:0:0:
413,176,85026,1,0,1:0:0:0:
480,226,85323,2,0,L|475:278,1,30,0|0,3:0|3:0,0:0:0:0:
489,296,85620,6,0,P|451:287|419:284,1,60,4|4,3:0|3:0,0:0:0:0:
356,244,86214,2,0,P|317:267|306:284,1,60,0|4,1:0|3:0,0:0:0:0:
267,351,86808,2,0,P|195:331|189:276,1,120,0|0,0:0|1:0,0:0:0:0:
229,222,87699,2,0,L|223:186,1,30,0|0,1:0|1:0,0:0:0:0:
245,156,87996,6,0,P|178:171|121:175,1,120,6|0,3:2|1:0,0:0:0:0:
70,112,88888,1,4,3:0:0:0:
124,48,89185,2,0,P|167:37|202:36,1,60,0|4,0:2|3:0,0:0:0:0:
258,71,89779,1,0,1:0:0:0:
335,38,90076,2,0,L|380:47,1,30,0|0,3:2|3:2,0:0:0:0:
405,34,90373,6,0,P|391:107|383:157,1,120,4|0,3:0|1:0,0:0:0:0:
431,221,91264,2,0,P|398:249|377:272,1,60,4|0,3:0|0:0,0:0:0:0:
310,226,91858,1,4,3:0:0:0:
268,299,92155,2,0,P|230:279|209:271,1,60,0|0,1:0|3:0,0:0:0:0:
149,219,92749,6,0,P|87:246|87:313,1,120,4|0,3:0|1:0,0:0:0:0:
133,356,93640,1,4,3:0:0:0:
213,333,93937,2,0,P|251:341|280:352,1,60,0|4,0:0|3:0,0:0:0:0:
347,313,94531,1,0,1:0:0:0:
418,357,94828,2,0,P|440:352|464:347,1,30,0|0,3:0|3:0,0:0:0:0:
488,358,95125,6,0,P|478:313|472:282,1,60,4|4,3:0|3:0,0:0:0:0:
407,249,95719,2,0,P|397:204|391:173,1,60,0|4,1:0|3:0,0:0:0:0:
431,114,96313,1,0,3:0:0:0:
364,62,96610,2,0,P|340:70|320:75,1,30,4|4,3:0|3:0,0:0:0:0:
318,109,96907,2,0,P|269:124|236:132,1,60,8|4,1:3|3:0,0:0:0:0:
179,103,97501,6,0,P|119:132|67:146,1,120,6|0,3:2|1:0,0:0:0:0:
112,216,98392,1,4,3:0:0:0:
76,292,98690,2,0,P|112:305|143:321,1,60,0|4,0:0|3:0,0:0:0:0:
198,264,99284,1,0,1:0:0:0:
244,334,99581,2,0,P|278:328|298:327,1,30,2|2,0:0|0:0,0:0:0:0:
309,349,99878,6,0,P|326:266|357:159,1,180,6|4,3:2|3:0,0:0:0:0:
309,102,101066,2,0,P|254:69|213:82,1,90,2|2,0:0|3:2,0:0:0:0:
198,98,101660,1,2,1:2:0:0:
150,167,101957,2,0,L|100:158,1,30,0|0,1:3|3:0,0:0:0:0:
88,134,102254,6,0,P|110:222|119:268,1,120,0|4,3:0|1:2,0:0:0:0:
199,261,103145,1,4,3:0:0:0:
213,343,103442,2,0,P|163:358|135:369,1,60,0|4,0:0|3:0,0:0:0:0:
73,344,104036,1,0,1:0:0:0:
23,276,104333,2,0,L|28:229,1,30,2|2,3:2|3:2,0:0:0:0:
17,204,104630,6,0,P|85:216|127:222,1,90,4|0,1:2|3:0,0:0:0:0:
136,248,105224,2,0,P|149:176|160:135,1,90,4|0,1:2|3:0,0:0:0:0:
132,123,105818,1,4,1:2:0:0:
229,42,106264,2,0,L|280:55,1,30,0|4,3:0|1:2,0:0:0:0:
308,116,106709,1,0,1:0:0:0:
386,85,107006,6,0,P|357:146|334:202,1,120,6|0,3:2|1:0,0:0:0:0:
397,252,107897,1,4,3:0:0:0:
354,324,108194,2,0,P|404:340|433:355,2,60,0|4|0,0:0|3:0|1:0,0:0:0:0:
280,365,109086,2,0,P|253:356|241:354,1,30,2|2,0:0|0:0,0:0:0:0:
214,374,109383,6,0,P|229:282|241:182,1,180,6|4,3:2|3:0,0:0:0:0:
198,122,110571,2,0,P|153:90|103:97,1,90,2|2,0:0|3:2,0:0:0:0:
81,108,111165,1,2,1:2:0:0:
30,175,111462,2,0,P|42:202|47:226,1,30,2|2,3:0|3:0,0:0:0:0:
37,244,111759,6,0,P|112:217|177:201,1,120,0|4,1:0|1:2,0:0:0:0:
223,249,112650,1,4,3:0:0:0:
288,196,112947,2,0,P|337:207|357:217,2,60,0|4|0,3:0|3:0|1:0,0:0:0:0:
308,114,113838,2,0,P|314:86|316:74,1,30,2|2,3:2|3:2,0:0:0:0:
300,44,114135,6,0,P|366:57|404:63,1,90,4|0,1:2|3:0,0:0:0:0:
428,47,114729,2,0,P|415:113|409:151,1,90,4|0,1:2|3:0,0:0:0:0:
438,167,115323,1,4,1:2:0:0:
460,291,115769,2,0,L|415:295,1,30,0|0,3:0|1:0,0:0:0:0:
368,351,116214,1,0,1:0:0:0:
298,304,116511,6,0,P|238:312|161:331,1,120,6|0,1:2|0:0,0:0:0:0:
106,284,117402,1,0,0:0:0:0:
163,223,117699,5,12,1:3:0:0:
95,172,117996,2,0,P|54:187|19:197,1,60,4|12,1:3|1:3,0:0:0:0:
