osu file format v14

[General]
AudioFilename: Nekomata Master - Call.mp3
AudioLeadIn: 0
PreviewTime: 32421
Countdown: 0
SampleSet: Soft
StackLeniency: 0.7
Mode: 1
LetterboxInBreaks: 0
WidescreenStoryboard: 1

[Editor]
Bookmarks: 5079,14193,23307,32421,41535,48370,50649,59763,66598,68877,71155,80269,89383,105332,107611
DistanceSpacing: 0.8
BeatDivisor: 4
GridSize: 16
TimelineZoom: 1.3

[Metadata]
Title:Call
TitleUnicode:Call
Artist:Nekomata Master
ArtistUnicode:Nekomata Master
Creator:Onicorn
Version:Muzukashii
Source:
Tags:chill instrumental snowball112 god
BeatmapID:457266
BeatmapSetID:192240

[Difficulty]
HPDrainRate:6
CircleSize:5
OverallDifficulty:5
ApproachRate:5
SliderMultiplier:1.4
SliderTickRate:1

[Events]
//Background and Video events
0,0,"maxresdefault+(1) (1).jpg",0,0
//Break Periods
//Storyboard Layer 0 (Background)
//Storyboard Layer 1 (Fail)
//Storyboard Layer 2 (Pass)
//Storyboard Layer 3 (Foreground)
Sprite,Foreground,Centre,"Songs/Nekomata Master - Call(1)/onicornpng_medium.png",320,240 M,0,117042,,320,240
Sprite,Foreground,Centre,"onicornpng_medium.png",320,240 M,0,117042,,336,221
Sprite,Foreground,Centre,"Songs/Nekomata Master - Call(1)/onicornpng_tiny.png",320,240 M,0,7445,,320,240
//Storyboard Sound Samples

[TimingPoints]
5079.74007909313,379.746835443038,3,2,0,80,1,0
32421,-100,3,1,0,75,0,1
50649,-100,3,2,0,80,0,0
71155,-100,3,1,0,75,0,0
80269,-100,3,1,0,75,0,0
89383,-100,3,1,0,75,0,1
105332,-100,3,2,0,75,0,0
105332,-100,3,2,0,75,0,0
107611,-100,3,2,0,50,0,0

[HitObjects]
176,128,5079,5,0,0:0:0:0:
192,128,5459,1,8,0:0:0:0:
192,80,6218,1,8,0:0:0:0:
192,48,6598,1,8,0:0:0:0:
272,96,7358,1,0,0:0:0:0:
224,96,7737,1,8,0:0:0:0:
128,80,8497,1,0,0:0:0:0:
256,144,9636,1,0,0:0:0:0:
240,96,10016,1,8,0:0:0:0:
208,64,10775,1,8,0:0:0:0:
144,160,11155,1,0,0:0:0:0:
96,128,11915,1,0,0:0:0:0:
96,128,12294,1,8,0:0:0:0:
112,128,12484,1,0,0:0:0:0:
144,80,13054,1,8,0:0:0:0:
80,144,14193,1,0,0:0:0:0:
272,64,14573,1,0,0:0:0:0:
272,64,14953,1,0,0:0:0:0:
240,144,15332,1,0,0:0:0:0:
240,144,15712,1,0,0:0:0:0:
208,128,16092,1,0,0:0:0:0:
208,80,16472,1,0,0:0:0:0:
208,80,16851,1,8,0:0:0:0:
208,80,17231,1,0,0:0:0:0:
176,96,17421,1,8,0:0:0:0:
160,80,17611,1,0,0:0:0:0:
256,160,18370,1,0,0:0:0:0:
176,64,18750,1,0,0:0:0:0:
288,64,19130,1,0,0:0:0:0:
224,32,19510,1,0,0:0:0:0:
192,144,19889,1,0,0:0:0:0:
192,144,20269,1,8,0:0:0:0:
144,96,21029,1,0,0:0:0:0:
272,112,21408,1,0,0:0:0:0:
240,64,22168,1,8,0:0:0:0:
240,64,22927,1,8,0:0:0:0:
112,144,23307,1,0,0:0:0:0:
144,112,23497,1,8,0:0:0:0:
224,128,23592,1,8,0:0:0:0:
144,112,23687,1,8,0:0:0:0:
144,112,23877,1,0,0:0:0:0:
208,80,24067,1,8,0:0:0:0:
256,80,24446,1,0,0:0:0:0:
240,112,25016,1,8,0:0:0:0:
192,112,25206,1,8,0:0:0:0:
160,64,25586,1,0,0:0:0:0:
208,48,25965,1,8,0:0:0:0:
208,64,26535,1,8,0:0:0:0:
208,64,26725,1,0,0:0:0:0:
384,96,27105,1,0,0:0:0:0:
160,128,27294,1,0,0:0:0:0:
160,128,27484,1,8,0:0:0:0:
224,128,27864,1,0,0:0:0:0:
272,64,28244,1,8,0:0:0:0:
160,96,28813,1,8,0:0:0:0:
160,96,29003,1,0,0:0:0:0:
224,64,29383,1,0,0:0:0:0:
224,64,29573,1,0,0:0:0:0:
224,64,29763,1,8,0:0:0:0:
160,64,30143,1,8,0:0:0:0:
176,64,30332,1,0,0:0:0:0:
192,64,30522,1,0,0:0:0:0:
176,64,30712,1,8,0:0:0:0:
176,64,31092,1,0,0:0:0:0:
208,160,31282,1,8,0:0:0:0:
256,128,31662,1,0,0:0:0:0:
240,96,31851,1,8,0:0:0:0:
240,96,32041,1,0,0:0:0:0:
224,144,32136,1,0,0:0:0:0:
240,96,32231,1,0,0:0:0:0:
240,96,32421,1,4,0:0:0:0:
112,144,32801,1,8,0:0:0:0:
112,128,32991,1,0,0:0:0:0:
112,128,33181,1,8,0:0:0:0:
160,96,33560,1,0,0:0:0:0:
176,64,33940,1,8,0:0:0:0:
176,64,34130,1,0,0:0:0:0:
160,64,34320,1,8,0:0:0:0:
192,144,34699,1,8,0:0:0:0:
192,128,34889,1,0,0:0:0:0:
192,128,35079,1,8,0:0:0:0:
176,96,35459,1,0,0:0:0:0:
176,96,35649,1,8,0:0:0:0:
160,48,35744,1,8,0:0:0:0:
176,96,35839,1,8,0:0:0:0:
224,96,36029,1,0,0:0:0:0:
240,48,36218,1,8,0:0:0:0:
240,48,36408,1,0,0:0:0:0:
240,32,36598,1,8,0:0:0:0:
192,144,36978,1,0,0:0:0:0:
144,80,37737,1,8,0:0:0:0:
176,80,38117,1,8,0:0:0:0:
144,144,38307,1,0,0:0:0:0:
176,32,38497,1,8,0:0:0:0:
224,176,38687,1,0,0:0:0:0:
240,80,38877,1,8,0:0:0:0:
240,64,39256,1,0,0:0:0:0:
272,112,39446,1,8,0:0:0:0:
256,176,39636,1,0,0:0:0:0:
208,160,39826,1,0,0:0:0:0:
176,64,40016,1,0,0:0:0:0:
144,64,40396,1,8,0:0:0:0:
96,176,40586,1,0,0:0:0:0:
144,64,40775,1,8,0:0:0:0:
160,64,40965,1,8,0:0:0:0:
160,64,41155,1,8,0:0:0:0:
144,160,41535,1,4,0:0:0:0:
240,80,41915,1,8,0:0:0:0:
224,80,42105,1,0,0:0:0:0:
160,64,42294,1,8,0:0:0:0:
224,48,42674,1,8,0:0:0:0:
192,48,42864,1,0,0:0:0:0:
192,48,43054,1,8,0:0:0:0:
192,48,43244,1,0,0:0:0:0:
176,48,43434,1,8,0:0:0:0:
224,192,43813,1,0,0:0:0:0:
224,144,44193,1,8,0:0:0:0:
240,112,44573,1,0,0:0:0:0:
240,112,44763,1,8,0:0:0:0:
224,112,44953,1,8,0:0:0:0:
240,16,45143,1,0,0:0:0:0:
224,32,45332,1,8,0:0:0:0:
208,32,45522,1,0,0:0:0:0:
160,32,45712,1,8,0:0:0:0:
144,96,46092,1,0,0:0:0:0:
288,80,46472,1,0,0:0:0:0:
240,80,46851,1,0,0:0:0:0:
192,64,47041,1,8,0:0:0:0:
192,64,47231,1,0,0:0:0:0:
192,112,47611,1,8,0:0:0:0:
176,112,47801,1,8,0:0:0:0:
176,112,47991,1,0,0:0:0:0:
224,48,48370,1,12,0:0:0:0:
224,48,48750,1,0,0:0:0:0:
128,144,48940,1,8,0:0:0:0:
240,96,49320,1,0,0:0:0:0:
224,48,49510,1,8,0:0:0:0:
288,96,50079,1,0,0:0:0:0:
240,80,50269,1,12,0:0:0:0:
176,128,50649,1,4,0:0:0:0:
176,96,51029,1,0,0:0:0:0:
240,48,51218,1,8,0:0:0:0:
240,64,51408,1,0,0:0:0:0:
208,64,51788,1,0,0:0:0:0:
208,64,52548,1,0,0:0:0:0:
192,112,52927,1,0,0:0:0:0:
192,112,53307,1,8,0:0:0:0:
176,96,53497,1,8,0:0:0:0:
144,48,53687,1,0,0:0:0:0:
256,80,54067,1,0,0:0:0:0:
240,32,54446,1,8,0:0:0:0:
240,32,54636,1,0,0:0:0:0:
240,32,54826,1,8,0:0:0:0:
176,128,55206,1,4,0:0:0:0:
144,96,55586,1,0,0:0:0:0:
144,96,55775,1,8,0:0:0:0:
144,80,55965,1,0,0:0:0:0:
288,96,56345,1,0,0:0:0:0:
288,96,56725,1,0,0:0:0:0:
240,80,56915,1,8,0:0:0:0:
208,32,57105,1,0,0:0:0:0:
32,144,57484,1,0,0:0:0:0:
208,112,57864,1,0,0:0:0:0:
256,80,58054,1,0,0:0:0:0:
208,112,58244,1,8,0:0:0:0:
240,80,58624,1,8,0:0:0:0:
176,80,59003,1,8,0:0:0:0:
176,80,59383,1,8,0:0:0:0:
176,80,59763,1,4,0:0:0:0:
240,96,59953,1,0,0:0:0:0:
240,96,60143,1,0,0:0:0:0:
288,144,60332,1,8,0:0:0:0:
272,96,60902,1,8,0:0:0:0:
176,160,61282,1,0,0:0:0:0:
176,144,61472,1,8,0:0:0:0:
208,48,62041,1,0,0:0:0:0:
208,48,62231,1,0,0:0:0:0:
208,48,62326,1,0,0:0:0:0:
208,48,62421,1,0,0:0:0:0:
176,16,62611,1,8,0:0:0:0:
160,128,63181,1,8,0:0:0:0:
160,128,63560,1,0,0:0:0:0:
160,128,63750,1,8,0:0:0:0:
192,64,64320,1,4,0:0:0:0:
176,176,64699,1,8,0:0:0:0:
176,176,64889,1,4,0:0:0:0:
240,128,65269,1,8,0:0:0:0:
240,128,65459,1,4,0:0:0:0:
240,128,65839,1,8,0:0:0:0:
240,128,66029,1,4,0:0:0:0:
224,128,66408,1,0,0:0:0:0:
176,80,66598,1,12,0:0:0:0:
160,176,66978,1,0,0:0:0:0:
240,64,67073,1,0,0:0:0:0:
144,160,67168,1,0,0:0:0:0:
160,176,67358,1,8,0:0:0:0:
160,176,67737,1,8,0:0:0:0:
176,112,67832,1,8,0:0:0:0:
176,112,67927,1,8,0:0:0:0:
176,112,68117,1,0,0:0:0:0:
304,80,68307,1,0,0:0:0:0:
192,112,68497,1,8,0:0:0:0:
192,112,68877,1,4,0:0:0:0:
256,160,69256,1,0,0:0:0:0:
272,160,69636,1,8,0:0:0:0:
224,64,70016,1,0,0:0:0:0:
240,64,70206,1,0,0:0:0:0:
144,64,70396,5,8,0:0:0:0:
240,64,70586,1,0,0:0:0:0:
176,96,70775,1,8,0:0:0:0:
160,160,70870,1,8,0:0:0:0:
160,160,70965,1,8,0:0:0:0:
160,80,71155,1,4,0:0:0:0:
224,112,71535,1,8,0:0:0:0:
224,112,71725,1,0,0:0:0:0:
224,112,71915,1,8,0:0:0:0:
96,80,72294,1,8,0:0:0:0:
160,48,72674,1,0,0:0:0:0:
160,48,72864,1,0,0:0:0:0:
160,48,73054,1,8,0:0:0:0:
240,80,73434,1,8,0:0:0:0:
240,80,73624,1,0,0:0:0:0:
240,64,73813,1,0,0:0:0:0:
240,64,74003,1,0,0:0:0:0:
224,64,74193,1,8,0:0:0:0:
224,64,74383,1,8,0:0:0:0:
224,64,74573,1,8,0:0:0:0:
144,128,74953,1,0,0:0:0:0:
176,96,75332,1,0,0:0:0:0:
256,64,75427,1,0,0:0:0:0:
176,96,75522,1,0,0:0:0:0:
176,80,75712,1,8,0:0:0:0:
176,64,76092,1,8,0:0:0:0:
192,64,76282,1,0,0:0:0:0:
176,64,76472,1,8,0:0:0:0:
176,64,76662,1,0,0:0:0:0:
112,144,76851,1,8,0:0:0:0:
256,80,77231,1,0,0:0:0:0:
256,80,77421,1,0,0:0:0:0:
240,80,77611,1,8,0:0:0:0:
240,64,77801,1,0,0:0:0:0:
240,64,77991,1,8,0:0:0:0:
144,80,78370,1,0,0:0:0:0:
160,64,78560,1,0,0:0:0:0:
144,64,78750,1,8,0:0:0:0:
144,64,78940,1,8,0:0:0:0:
144,64,79130,1,0,0:0:0:0:
144,64,79320,1,0,0:0:0:0:
240,80,79415,1,0,0:0:0:0:
176,160,79510,1,0,0:0:0:0:
240,128,79699,1,8,0:0:0:0:
240,128,79889,1,8,0:0:0:0:
128,144,80269,1,4,0:0:0:0:
176,64,80649,1,8,0:0:0:0:
176,64,80839,1,0,0:0:0:0:
176,64,81029,1,8,0:0:0:0:
224,64,81408,1,8,0:0:0:0:
240,64,81598,1,0,0:0:0:0:
240,64,81788,1,8,0:0:0:0:
240,64,81978,1,0,0:0:0:0:
240,64,82168,1,0,0:0:0:0:
192,112,82548,1,0,0:0:0:0:
192,112,82737,1,8,0:0:0:0:
192,112,82832,1,8,0:0:0:0:
192,112,82927,1,8,0:0:0:0:
160,48,83117,1,0,0:0:0:0:
224,64,83307,1,8,0:0:0:0:
176,112,83497,1,0,0:0:0:0:
176,112,83687,1,0,0:0:0:0:
192,112,84067,1,0,0:0:0:0:
160,64,84256,1,8,0:0:0:0:
192,160,84446,1,0,0:0:0:0:
96,144,84826,1,0,0:0:0:0:
256,208,85206,1,8,0:0:0:0:
256,192,85396,1,8,0:0:0:0:
256,192,85586,1,0,0:0:0:0:
256,192,85775,1,0,0:0:0:0:
256,144,85965,1,8,0:0:0:0:
288,64,86345,1,0,0:0:0:0:
288,64,86535,1,0,0:0:0:0:
288,64,86725,1,8,0:0:0:0:
144,112,86915,1,0,0:0:0:0:
288,64,87105,1,8,0:0:0:0:
192,64,87484,1,0,0:0:0:0:
192,64,87674,1,0,0:0:0:0:
192,64,87864,1,0,0:0:0:0:
192,64,88054,1,0,0:0:0:0:
192,64,88244,1,8,0:0:0:0:
96,128,88434,1,0,0:0:0:0:
224,128,88624,1,8,0:0:0:0:
224,128,88718,1,8,0:0:0:0:
224,128,88813,1,8,0:0:0:0:
128,128,89003,1,0,0:0:0:0:
144,80,89383,1,4,0:0:0:0:
144,144,89573,1,0,0:0:0:0:
224,96,89763,1,0,0:0:0:0:
208,96,89953,1,8,0:0:0:0:
192,64,90143,1,0,0:0:0:0:
224,192,90522,1,8,0:0:0:0:
224,176,90712,1,8,0:0:0:0:
224,176,90902,1,0,0:0:0:0:
224,176,91092,1,8,0:0:0:0:
224,176,91282,1,0,0:0:0:0:
192,128,91662,1,0,0:0:0:0:
192,128,91851,1,0,0:0:0:0:
192,128,92041,1,0,0:0:0:0:
192,128,92421,1,8,0:0:0:0:
160,48,92611,1,8,0:0:0:0:
160,144,92801,1,0,0:0:0:0:
208,64,93181,1,0,0:0:0:0:
208,16,93370,1,8,0:0:0:0:
208,16,93560,1,0,0:0:0:0:
208,16,93750,1,0,0:0:0:0:
208,16,93940,1,0,0:0:0:0:
192,96,94320,1,0,0:0:0:0:
192,96,94510,1,8,0:0:0:0:
208,96,94699,1,8,0:0:0:0:
208,96,94889,1,8,0:0:0:0:
192,96,95079,1,0,0:0:0:0:
208,128,95459,1,8,0:0:0:0:
208,64,95649,1,0,0:0:0:0:
208,64,95839,1,8,0:0:0:0:
320,112,96029,1,8,0:0:0:0:
160,112,96218,1,0,0:0:0:0:
208,80,96598,1,0,0:0:0:0:
208,80,96788,1,0,0:0:0:0:
208,80,96978,1,0,0:0:0:0:
192,64,97168,1,0,0:0:0:0:
64,80,97358,1,8,0:0:0:0:
256,80,97548,1,8,0:0:0:0:
256,80,97643,1,8,0:0:0:0:
256,80,97737,1,8,0:0:0:0:
176,176,97927,1,0,0:0:0:0:
176,176,98117,1,8,0:0:0:0:
144,96,98497,1,4,0:0:0:0:
224,96,98877,1,8,0:0:0:0:
224,96,99067,1,0,0:0:0:0:
192,64,99256,1,8,0:0:0:0:
80,192,99636,1,8,0:0:0:0:
96,192,99826,1,8,0:0:0:0:
96,192,100016,1,0,0:0:0:0:
96,192,100206,1,8,0:0:0:0:
96,192,100396,1,0,0:0:0:0:
112,128,100775,1,0,0:0:0:0:
144,112,101155,1,8,0:0:0:0:
224,96,101345,1,0,0:0:0:0:
192,32,101535,1,8,0:0:0:0:
208,80,101725,1,0,0:0:0:0:
224,80,101915,1,0,0:0:0:0:
224,128,102105,1,0,0:0:0:0:
224,112,102199,1,0,0:0:0:0:
224,112,102294,1,0,0:0:0:0:
192,160,102484,1,0,0:0:0:0:
192,160,102674,1,8,0:0:0:0:
144,64,103054,1,0,0:0:0:0:
224,96,103434,1,0,0:0:0:0:
208,48,103624,1,8,0:0:0:0:
128,144,103813,1,0,0:0:0:0:
256,96,104003,1,0,0:0:0:0:
256,96,104193,1,8,0:0:0:0:
176,144,104573,1,8,0:0:0:0:
176,144,104763,1,0,0:0:0:0:
176,144,104953,1,8,0:0:0:0:
176,128,105143,1,8,0:0:0:0:
224,80,105332,1,0,0:0:0:0:
224,80,105712,1,0,0:0:0:0:
96,128,105902,1,0,0:0:0:0:
128,128,106092,1,8,0:0:0:0:
128,128,106472,1,8,0:0:0:0:
224,160,106662,1,0,0:0:0:0:
224,144,106756,1,0,0:0:0:0:
224,176,106851,1,0,0:0:0:0:
224,144,107041,1,0,0:0:0:0:
224,112,107231,1,8,0:0:0:0:
144,112,107421,1,8,0:0:0:0:
176,96,107611,1,4,0:0:0:0:
288,128,108181,1,0,0:0:0:0:
192,64,108370,1,0,0:0:0:0:
288,128,108560,1,8,0:0:0:0:
224,112,109320,1,8,0:0:0:0:
224,96,109510,1,0,0:0:0:0:
208,96,109699,1,8,0:0:0:0:
144,80,110459,1,0,0:0:0:0:
144,80,110649,1,8,0:0:0:0:
144,80,110839,1,0,0:0:0:0:
208,112,111598,1,0,0:0:0:0:
208,96,111788,1,8,0:0:0:0:
208,96,111978,1,8,0:0:0:0:
192,32,112927,1,8,0:0:0:0:
256,64,113117,1,8,0:0:0:0:
208,176,113877,1,0,0:0:0:0:
144,144,114067,1,8,0:0:0:0:
160,128,114256,1,8,0:0:0:0:
208,96,115206,1,0,0:0:0:0:
240,96,115396,1,8,0:0:0:0:
240,96,115965,1,0,0:0:0:0:
