osu file format v14

[General]
AudioFilename: audio.ogg
AudioLeadIn: 0
PreviewTime: 71121
Countdown: 0
SampleSet: Soft
StackLeniency: 0.7
Mode: 3
LetterboxInBreaks: 0
SpecialStyle: 0
WidescreenStoryboard: 0

[Editor]
DistanceSpacing: 0.8
BeatDivisor: 4
GridSize: 32
TimelineZoom: 1.7

[Metadata]
Title:CALL
TitleUnicode:CALL
Artist:Nekomata Master
ArtistUnicode:猫叉Master
Creator:Syrion-
Version:Another
Source:‎beatmania IIDX 19 Lincle
Tags:antipole symmatrix- LC-2146 Crevice WORLD electronic instrumental video game videogame naoyuki sato 佐藤直之
BeatmapID:3794353
BeatmapSetID:1847096

[Difficulty]
HPDrainRate:8.5
CircleSize:7
OverallDifficulty:7.7
ApproachRate:5
SliderMultiplier:1.4
SliderTickRate:1

[Events]
//Background and Video events
0,0,"05a965e4-4a12-49c6-a964-aabc77d73a7b.jpg",0,0
//Break Periods
//Storyboard Layer 0 (Background)
//Storyboard Layer 1 (Fail)
//Storyboard Layer 2 (Pass)
//Storyboard Layer 3 (Foreground)
//Storyboard Layer 4 (Overlay)
//Storyboard Sound Samples

[TimingPoints]
5046,379.746835443038,3,2,1,50,1,0
71121,-100,3,2,1,50,0,1
105299,-100,3,2,1,50,0,0

[HitObjects]
109,192,489,1,0,0:0:0:0:
256,192,489,1,0,0:0:0:0:
402,192,489,1,0,0:0:0:0:
36,192,1628,1,0,0:0:0:0:
182,192,1628,1,0,0:0:0:0:
329,192,1628,1,0,0:0:0:0:
109,192,2767,1,0,0:0:0:0:
256,192,2767,1,0,0:0:0:0:
475,192,2767,1,0,0:0:0:0:
36,192,3906,1,0,0:0:0:0:
329,192,3906,1,0,0:0:0:0:
402,192,3906,1,0,0:0:0:0:
109,192,4476,1,0,0:0:0:0:
182,192,4476,1,0,0:0:0:0:
475,192,4476,1,0,0:0:0:0:
36,192,5045,1,0,0:0:0:0:
256,192,5045,1,0,0:0:0:0:
329,192,5140,1,0,0:0:0:0:
402,192,5235,1,0,0:0:0:0:
475,192,5330,1,0,0:0:0:0:
109,192,5425,1,0,0:0:0:0:
329,192,5520,128,0,5995:0:0:0:0:
256,192,5615,128,0,5995:0:0:0:0:
182,192,5805,128,0,5995:0:0:0:0:
36,192,5995,128,0,7134:0:0:0:0:
475,192,6185,1,0,0:0:0:0:
402,192,6375,1,0,0:0:0:0:
329,192,6564,1,0,0:0:0:0:
109,192,6754,128,0,7134:0:0:0:0:
182,192,6944,128,0,7134:0:0:0:0:
475,192,7134,128,0,8273:0:0:0:0:
256,192,7324,1,0,0:0:0:0:
329,192,7514,1,0,0:0:0:0:
182,192,7609,1,0,0:0:0:0:
36,192,7704,1,0,0:0:0:0:
402,192,7894,128,0,8273:0:0:0:0:
329,192,8083,128,0,8273:0:0:0:0:
109,192,8273,128,0,9413:0:0:0:0:
256,192,8463,1,0,0:0:0:0:
329,192,8653,1,0,0:0:0:0:
402,192,8843,1,0,0:0:0:0:
182,192,9033,128,0,9413:0:0:0:0:
256,192,9223,128,0,9413:0:0:0:0:
402,192,9413,128,0,10552:0:0:0:0:
36,192,9602,1,0,0:0:0:0:
109,192,9792,1,0,0:0:0:0:
256,192,9887,1,0,0:0:0:0:
109,192,9982,1,0,0:0:0:0:
329,192,10172,128,0,10552:0:0:0:0:
256,192,10362,128,0,10552:0:0:0:0:
182,192,10552,128,0,11691:0:0:0:0:
475,192,10742,1,0,0:0:0:0:
329,192,10932,1,0,0:0:0:0:
256,192,11027,1,0,0:0:0:0:
475,192,11121,1,0,0:0:0:0:
402,192,11311,128,0,11691:0:0:0:0:
36,192,11501,128,0,11691:0:0:0:0:
475,192,11691,128,0,12830:0:0:0:0:
36,192,11881,1,0,0:0:0:0:
256,192,11881,1,0,0:0:0:0:
109,192,12071,1,0,0:0:0:0:
182,192,12261,1,0,0:0:0:0:
36,192,12451,1,0,0:0:0:0:
402,192,12451,128,0,12830:0:0:0:0:
329,192,12640,128,0,12830:0:0:0:0:
36,192,12830,128,0,13590:0:0:0:0:
109,192,12830,1,0,0:0:0:0:
182,192,12878,1,0,0:0:0:0:
256,192,12925,1,0,0:0:0:0:
329,192,12973,1,0,0:0:0:0:
402,192,13020,1,0,0:0:0:0:
475,192,13020,1,0,0:0:0:0:
475,192,13210,128,0,13447:0:0:0:0:
402,192,13447,1,0,0:0:0:0:
329,192,13495,1,0,0:0:0:0:
256,192,13542,1,0,0:0:0:0:
182,192,13590,1,0,0:0:0:0:
182,192,14064,1,0,0:0:0:0:
256,192,14112,1,0,0:0:0:0:
36,192,14159,128,0,15299:0:0:0:0:
329,192,14159,1,0,0:0:0:0:
402,192,14159,1,0,0:0:0:0:
475,192,14159,128,0,14254:0:0:0:0:
109,192,14349,1,0,0:0:0:0:
256,192,14349,1,0,0:0:0:0:
402,192,14539,128,0,14634:0:0:0:0:
475,192,14539,1,0,0:0:0:0:
256,192,14729,1,0,0:0:0:0:
182,192,14824,1,0,0:0:0:0:
109,192,14919,1,0,0:0:0:0:
329,192,14919,128,0,15014:0:0:0:0:
402,192,15109,1,0,0:0:0:0:
256,192,15299,128,0,15394:0:0:0:0:
475,192,15299,1,0,0:0:0:0:
182,192,15489,1,0,0:0:0:0:
329,192,15583,1,0,0:0:0:0:
109,192,15678,128,0,15773:0:0:0:0:
475,192,15678,1,0,0:0:0:0:
36,192,15868,1,0,0:0:0:0:
256,192,15868,1,0,0:0:0:0:
182,192,16058,1,0,0:0:0:0:
402,192,16058,128,0,16153:0:0:0:0:
109,192,16248,1,0,0:0:0:0:
329,192,16248,1,0,0:0:0:0:
36,192,16438,1,0,0:0:0:0:
256,192,16438,128,0,16533:0:0:0:0:
402,192,16628,1,0,0:0:0:0:
256,192,16723,1,0,0:0:0:0:
109,192,16818,128,0,16913:0:0:0:0:
475,192,16818,128,0,17577:0:0:0:0:
182,192,17008,1,0,0:0:0:0:
329,192,17008,1,0,0:0:0:0:
109,192,17197,1,0,0:0:0:0:
256,192,17197,1,0,0:0:0:0:
182,192,17387,128,0,17482:0:0:0:0:
256,192,17482,1,0,0:0:0:0:
329,192,17482,1,0,0:0:0:0:
36,192,17577,128,0,17672:0:0:0:0:
109,192,17577,1,0,0:0:0:0:
182,192,17767,1,0,0:0:0:0:
256,192,17862,1,0,0:0:0:0:
329,192,17957,1,0,0:0:0:0:
402,192,17957,1,0,0:0:0:0:
36,192,18147,1,0,0:0:0:0:
475,192,18147,1,0,0:0:0:0:
109,192,18337,1,0,0:0:0:0:
402,192,18337,1,0,0:0:0:0:
182,192,18527,1,0,0:0:0:0:
329,192,18527,1,0,0:0:0:0:
256,192,18716,128,0,18811:0:0:0:0:
475,192,18716,1,0,0:0:0:0:
36,192,18906,1,0,0:0:0:0:
109,192,18906,1,0,0:0:0:0:
182,192,19096,128,0,19856:0:0:0:0:
329,192,19096,128,0,19191:0:0:0:0:
402,192,19286,1,0,0:0:0:0:
256,192,19381,1,0,0:0:0:0:
36,192,19476,128,0,19571:0:0:0:0:
109,192,19476,1,0,0:0:0:0:
402,192,19666,1,0,0:0:0:0:
475,192,19666,1,0,0:0:0:0:
109,192,19856,1,0,0:0:0:0:
329,192,19856,128,0,19951:0:0:0:0:
256,192,20046,1,0,0:0:0:0:
329,192,20140,1,0,0:0:0:0:
36,192,20235,1,0,0:0:0:0:
402,192,20235,128,0,20330:0:0:0:0:
109,192,20425,1,0,0:0:0:0:
256,192,20425,1,0,0:0:0:0:
182,192,20615,1,0,0:0:0:0:
329,192,20615,1,0,0:0:0:0:
402,192,20805,1,0,0:0:0:0:
36,192,20900,1,0,0:0:0:0:
182,192,20900,1,0,0:0:0:0:
329,192,20995,128,0,21090:0:0:0:0:
475,192,20995,1,0,0:0:0:0:
36,192,21185,1,0,0:0:0:0:
109,192,21280,1,0,0:0:0:0:
182,192,21375,1,0,0:0:0:0:
402,192,21375,128,0,22134:0:0:0:0:
109,192,21564,1,0,0:0:0:0:
256,192,21564,1,0,0:0:0:0:
36,192,21754,1,0,0:0:0:0:
182,192,21754,1,0,0:0:0:0:
109,192,21849,1,0,0:0:0:0:
256,192,21944,1,0,0:0:0:0:
329,192,21944,1,0,0:0:0:0:
182,192,22134,1,0,0:0:0:0:
329,192,22134,128,0,22229:0:0:0:0:
109,192,22229,1,0,0:0:0:0:
36,192,22324,1,0,0:0:0:0:
475,192,22419,1,0,0:0:0:0:
256,192,22514,1,0,0:0:0:0:
402,192,22514,1,0,0:0:0:0:
182,192,22609,1,0,0:0:0:0:
109,192,22704,1,0,0:0:0:0:
475,192,22704,1,0,0:0:0:0:
402,192,22799,1,0,0:0:0:0:
36,192,22894,128,0,22989:0:0:0:0:
182,192,22894,1,0,0:0:0:0:
256,192,22989,1,0,0:0:0:0:
329,192,23083,1,0,0:0:0:0:
402,192,23178,1,0,0:0:0:0:
36,192,23273,1,0,0:0:0:0:
109,192,23273,1,0,0:0:0:0:
475,192,23273,128,0,23558:0:0:0:0:
182,192,23463,1,0,0:0:0:0:
256,192,23463,1,0,0:0:0:0:
109,192,23653,1,0,0:0:0:0:
329,192,23653,128,0,23938:0:0:0:0:
36,192,23843,1,0,0:0:0:0:
109,192,23938,1,0,0:0:0:0:
182,192,24033,128,0,24318:0:0:0:0:
256,192,24033,1,0,0:0:0:0:
402,192,24223,1,0,0:0:0:0:
329,192,24318,1,0,0:0:0:0:
36,192,24413,128,0,24697:0:0:0:0:
256,192,24413,1,0,0:0:0:0:
329,192,24602,1,0,0:0:0:0:
402,192,24697,1,0,0:0:0:0:
256,192,24792,128,0,25077:0:0:0:0:
475,192,24792,1,0,0:0:0:0:
36,192,24982,1,0,0:0:0:0:
109,192,25077,1,0,0:0:0:0:
182,192,25172,1,0,0:0:0:0:
402,192,25172,128,0,25457:0:0:0:0:
329,192,25362,1,0,0:0:0:0:
256,192,25457,1,0,0:0:0:0:
36,192,25552,1,0,0:0:0:0:
109,192,25552,128,0,25837:0:0:0:0:
182,192,25552,1,0,0:0:0:0:
475,192,25742,1,0,0:0:0:0:
402,192,25837,1,0,0:0:0:0:
256,192,25932,1,0,0:0:0:0:
329,192,25932,128,0,26216:0:0:0:0:
36,192,26121,1,0,0:0:0:0:
109,192,26216,1,0,0:0:0:0:
182,192,26311,1,0,0:0:0:0:
402,192,26311,1,0,0:0:0:0:
475,192,26501,1,0,0:0:0:0:
256,192,26596,1,0,0:0:0:0:
329,192,26596,1,0,0:0:0:0:
109,192,26691,128,0,26976:0:0:0:0:
182,192,26691,1,0,0:0:0:0:
402,192,26881,1,0,0:0:0:0:
329,192,26976,1,0,0:0:0:0:
36,192,27071,1,0,0:0:0:0:
256,192,27071,1,0,0:0:0:0:
109,192,27261,1,0,0:0:0:0:
329,192,27261,1,0,0:0:0:0:
182,192,27451,1,0,0:0:0:0:
402,192,27451,1,0,0:0:0:0:
329,192,27640,1,0,0:0:0:0:
256,192,27735,1,0,0:0:0:0:
36,192,27830,1,0,0:0:0:0:
182,192,27830,1,0,0:0:0:0:
475,192,27830,128,0,28115:0:0:0:0:
109,192,28020,1,0,0:0:0:0:
182,192,28115,1,0,0:0:0:0:
36,192,28210,1,0,0:0:0:0:
256,192,28210,128,0,28495:0:0:0:0:
402,192,28400,1,0,0:0:0:0:
182,192,28495,1,0,0:0:0:0:
36,192,28590,1,0,0:0:0:0:
475,192,28590,1,0,0:0:0:0:
329,192,28780,1,0,0:0:0:0:
182,192,28875,1,0,0:0:0:0:
256,192,28875,1,0,0:0:0:0:
36,192,28970,128,0,29254:0:0:0:0:
109,192,28970,1,0,0:0:0:0:
256,192,29159,1,0,0:0:0:0:
329,192,29254,1,0,0:0:0:0:
402,192,29349,1,0,0:0:0:0:
475,192,29349,128,0,29634:0:0:0:0:
182,192,29539,1,0,0:0:0:0:
109,192,29634,1,0,0:0:0:0:
36,192,29729,1,0,0:0:0:0:
329,192,29729,128,0,30014:0:0:0:0:
109,192,29919,1,0,0:0:0:0:
182,192,29919,1,0,0:0:0:0:
475,192,30014,1,0,0:0:0:0:
36,192,30109,1,0,0:0:0:0:
182,192,30109,128,0,30394:0:0:0:0:
256,192,30109,1,0,0:0:0:0:
329,192,30299,1,0,0:0:0:0:
402,192,30299,1,0,0:0:0:0:
475,192,30299,1,0,0:0:0:0:
256,192,30394,1,0,0:0:0:0:
36,192,30489,1,0,0:0:0:0:
182,192,30489,1,0,0:0:0:0:
402,192,30678,1,0,0:0:0:0:
475,192,30678,128,0,31248:0:0:0:0:
329,192,30726,1,0,0:0:0:0:
256,192,30773,1,0,0:0:0:0:
182,192,30821,1,0,0:0:0:0:
36,192,30868,1,0,0:0:0:0:
109,192,30868,1,0,0:0:0:0:
329,192,31058,1,0,0:0:0:0:
402,192,31058,1,0,0:0:0:0:
36,192,31248,1,0,0:0:0:0:
256,192,31248,128,0,31818:0:0:0:0:
109,192,31438,1,0,0:0:0:0:
329,192,31438,1,0,0:0:0:0:
182,192,31628,1,0,0:0:0:0:
402,192,31628,1,0,0:0:0:0:
36,192,31818,128,0,32292:0:0:0:0:
329,192,31818,1,0,0:0:0:0:
475,192,31818,128,0,32292:0:0:0:0:
109,192,31913,128,0,32197:0:0:0:0:
182,192,32008,128,0,32102:0:0:0:70:tom01.wav
402,192,32102,128,0,32387:0:0:0:70:tom01.wav
329,192,32197,128,0,32387:0:0:0:70:tom02.wav
256,192,32292,128,0,32387:0:0:0:70:tom03.wav
36,192,32387,1,2,0:0:0:0:
109,192,32387,128,4,32767:0:0:0:0:
182,192,32387,1,0,0:0:0:0:
475,192,32387,1,0,0:0:0:0:
329,192,32577,1,0,0:0:0:0:
402,192,32672,1,0,0:0:0:0:
36,192,32767,1,2,0:0:0:0:
256,192,32767,128,0,33147:0:0:0:0:
475,192,32767,1,0,0:0:0:0:
109,192,32957,1,0,0:0:0:0:
329,192,32957,1,0,0:0:0:0:
36,192,33147,1,2,0:0:0:0:
182,192,33147,1,0,0:0:0:0:
402,192,33147,128,0,33527:0:0:0:0:
329,192,33337,1,0,0:0:0:0:
182,192,33432,1,0,0:0:0:0:
36,192,33527,1,2,0:0:0:0:
109,192,33527,128,0,33906:0:0:0:0:
475,192,33527,1,0,0:0:0:0:
402,192,33716,1,0,0:0:0:0:
256,192,33811,1,0,0:0:0:0:
36,192,33906,1,2,0:0:0:0:
182,192,33906,1,0,0:0:0:0:
329,192,33906,128,0,34286:0:0:0:0:
109,192,34096,1,0,0:0:0:0:
475,192,34096,1,0,0:0:0:0:
36,192,34286,1,2,0:0:0:0:
182,192,34286,128,0,34666:0:0:0:0:
256,192,34286,1,0,0:0:0:0:
402,192,34476,1,0,0:0:0:0:
329,192,34571,1,0,0:0:0:0:
109,192,34666,1,2,0:0:0:0:
256,192,34666,128,0,35046:0:0:0:0:
475,192,34666,1,0,0:0:0:0:
36,192,34856,1,0,0:0:0:0:
109,192,34951,1,0,0:0:0:0:
182,192,35046,1,2,0:0:0:0:
329,192,35046,128,0,35425:0:0:0:0:
475,192,35046,1,0,0:0:0:0:
36,192,35235,1,0,0:0:0:0:
402,192,35235,1,0,0:0:0:0:
109,192,35425,1,2,0:0:0:0:
256,192,35425,1,0,0:0:0:0:
475,192,35425,1,0,0:0:0:0:
182,192,35615,1,0,0:0:0:0:
36,192,35710,1,0,0:0:0:0:
475,192,35710,1,0,0:0:0:0:
256,192,35805,128,2,36185:0:0:0:0:
329,192,35805,1,0,0:0:0:0:
402,192,35805,1,0,0:0:0:0:
109,192,35995,1,0,0:0:0:0:
182,192,36090,1,0,0:0:0:0:
36,192,36185,1,2,0:0:0:0:
329,192,36185,1,0,0:0:0:0:
475,192,36185,1,0,0:0:0:0:
109,192,36375,1,0,0:0:0:0:
402,192,36375,1,0,0:0:0:0:
182,192,36564,1,2,0:0:0:0:
329,192,36564,1,0,0:0:0:0:
475,192,36564,1,0,0:0:0:0:
256,192,36754,1,0,0:0:0:0:
329,192,36849,1,0,0:0:0:0:
36,192,36944,128,2,37324:0:0:0:0:
182,192,36944,1,0,0:0:0:0:
402,192,36944,1,0,0:0:0:0:
329,192,37134,1,0,0:0:0:0:
256,192,37229,1,0,0:0:0:0:
109,192,37324,128,2,37704:0:0:0:0:
182,192,37324,1,0,0:0:0:0:
475,192,37324,1,0,0:0:0:0:
329,192,37514,1,0,0:0:0:0:
402,192,37514,1,0,0:0:0:0:
182,192,37704,128,2,38083:0:0:0:0:
256,192,37704,1,0,0:0:0:0:
475,192,37704,1,0,0:0:0:0:
36,192,37894,1,0,0:0:0:0:
402,192,37989,1,0,0:0:0:0:
256,192,38083,128,2,38463:0:0:0:0:
329,192,38083,1,0,0:0:0:0:
475,192,38083,1,0,0:0:0:0:
109,192,38273,1,0,0:0:0:0:
475,192,38368,1,0,0:0:0:0:
36,192,38463,1,2,0:0:0:0:
182,192,38463,1,0,0:0:0:0:
329,192,38463,128,0,38843:0:0:0:0:
109,192,38653,1,0,0:0:0:0:
36,192,38748,1,0,0:0:0:0:
182,192,38843,1,2,0:0:0:0:
256,192,38843,1,0,0:0:0:0:
402,192,38843,128,0,39223:0:0:0:0:
36,192,39033,1,0,0:0:0:0:
109,192,39128,1,0,0:0:0:0:
182,192,39223,1,2,0:0:0:0:
329,192,39223,1,0,0:0:0:0:
475,192,39223,128,0,39602:0:0:0:0:
256,192,39413,1,0,0:0:0:0:
182,192,39508,1,0,0:0:0:0:
36,192,39602,1,2,0:0:0:0:
109,192,39602,1,0,0:0:0:0:
402,192,39602,1,0,0:0:0:0:
182,192,39792,1,0,0:0:0:0:
329,192,39792,1,0,0:0:0:0:
256,192,39982,1,2,0:0:0:0:
402,192,39982,1,0,0:0:0:0:
475,192,39982,1,0,0:0:0:0:
36,192,40172,1,0,0:0:0:0:
109,192,40267,1,0,0:0:0:0:
182,192,40362,1,2,0:0:0:0:
256,192,40362,128,0,40742:0:0:0:0:
402,192,40362,1,0,0:0:0:0:
475,192,40552,1,0,0:0:0:0:
402,192,40647,1,0,0:0:0:0:
36,192,40742,1,2,0:0:0:0:
182,192,40742,1,0,0:0:0:0:
329,192,40742,1,0,0:0:0:0:
402,192,40932,1,0,0:0:0:0:
475,192,40932,1,0,0:0:0:0:
36,192,41121,1,2,0:0:0:0:
109,192,41121,128,0,41501:0:0:0:0:
182,192,41121,1,0,0:0:0:0:
329,192,41121,1,0,0:0:0:0:
256,192,41311,1,0,0:0:0:0:
329,192,41406,1,0,0:0:0:0:
36,192,41501,1,2,0:0:0:0:
182,192,41501,1,4,0:0:0:0:
402,192,41501,128,0,42261:0:0:0:0:
475,192,41501,1,0,0:0:0:0:
256,192,41691,1,0,0:0:0:0:
182,192,41786,1,0,0:0:0:0:
36,192,41881,128,2,42640:0:0:0:0:
109,192,41881,1,0,0:0:0:0:
329,192,41881,1,0,0:0:0:0:
182,192,42071,1,0,0:0:0:0:
256,192,42071,1,0,0:0:0:0:
109,192,42261,1,2,0:0:0:0:
329,192,42261,1,0,0:0:0:0:
475,192,42261,128,0,43020:0:0:0:0:
256,192,42451,1,0,0:0:0:0:
329,192,42546,1,0,0:0:0:0:
109,192,42640,1,2,0:0:0:0:
182,192,42640,128,0,43400:0:0:0:0:
402,192,42640,1,0,0:0:0:0:
256,192,42830,1,0,0:0:0:0:
109,192,42925,1,0,0:0:0:0:
36,192,43020,1,2,0:0:0:0:
329,192,43020,128,0,43780:0:0:0:0:
402,192,43020,1,0,0:0:0:0:
109,192,43210,1,0,0:0:0:0:
475,192,43210,1,0,0:0:0:0:
36,192,43400,1,2,0:0:0:0:
256,192,43400,128,0,44159:0:0:0:0:
402,192,43400,1,0,0:0:0:0:
109,192,43590,1,0,0:0:0:0:
182,192,43685,1,0,0:0:0:0:
36,192,43780,1,2,0:0:0:0:
109,192,43780,128,0,44539:0:0:0:0:
475,192,43780,1,0,0:0:0:0:
329,192,43970,1,0,0:0:0:0:
475,192,44064,1,0,0:0:0:0:
182,192,44159,1,2,0:0:0:0:
329,192,44159,1,0,0:0:0:0:
402,192,44159,128,0,44539:0:0:0:0:
182,192,44349,1,0,0:0:0:0:
256,192,44349,1,0,0:0:0:0:
36,192,44539,1,2,0:0:0:0:
329,192,44539,1,0,0:0:0:0:
475,192,44539,1,0,0:0:0:0:
256,192,44729,1,0,0:0:0:0:
182,192,44824,1,0,0:0:0:0:
329,192,44824,1,0,0:0:0:0:
36,192,44919,128,2,46058:0:0:0:0:
402,192,44919,1,0,0:0:0:0:
475,192,44919,128,0,46058:0:0:0:0:
182,192,45109,1,0,0:0:0:0:
256,192,45204,1,0,0:0:0:0:
109,192,45299,1,2,0:0:0:0:
329,192,45299,1,0,0:0:0:0:
402,192,45299,1,0,0:0:0:0:
182,192,45489,1,0,0:0:0:0:
256,192,45489,1,0,0:0:0:0:
109,192,45678,1,2,0:0:0:0:
329,192,45678,1,0,0:0:0:0:
402,192,45678,1,0,0:0:0:0:
182,192,45868,1,0,0:0:0:0:
329,192,45963,1,0,0:0:0:0:
109,192,46058,1,2,0:0:0:0:
256,192,46058,128,0,46818:0:0:0:0:
402,192,46058,1,0,0:0:0:0:
182,192,46248,1,0,0:0:0:0:
109,192,46343,1,0,0:0:0:0:
36,192,46438,1,2,0:0:0:0:
402,192,46438,128,0,46818:0:0:0:0:
475,192,46438,1,0,0:0:0:0:
109,192,46628,1,0,0:0:0:0:
182,192,46628,1,0,0:0:0:0:
36,192,46818,1,2,0:0:0:0:
329,192,46818,1,0,0:0:0:0:
475,192,46818,1,0,0:0:0:0:
109,192,47008,1,0,0:0:0:0:
36,192,47102,1,0,0:0:0:0:
182,192,47102,1,0,0:0:0:0:
256,192,47197,1,2,0:0:0:0:
329,192,47197,128,0,47577:0:0:0:0:
475,192,47197,128,0,47957:0:0:0:0:
182,192,47387,1,0,0:0:0:0:
109,192,47482,1,0,0:0:0:0:
36,192,47577,1,2,0:0:0:0:
256,192,47577,1,0,0:0:0:0:
402,192,47577,128,0,48337:0:0:0:0:
109,192,47767,1,0,0:0:0:0:
182,192,47767,1,0,0:0:0:0:
36,192,47957,1,2,0:0:0:0:
256,192,47957,1,0,0:0:0:0:
329,192,47957,128,0,48337:0:0:0:0:
182,192,48147,1,0,0:0:0:0:
109,192,48242,1,0,0:0:0:0:
36,192,48337,1,2,0:0:0:0:
182,192,48337,1,4,0:0:0:70:cymbal.wav
256,192,48337,1,0,0:0:0:0:
475,192,48337,1,0,0:0:0:0:
109,192,48527,1,0,0:0:0:0:
182,192,48621,1,0,0:0:0:0:
256,192,48716,1,0,0:0:0:0:
182,192,48906,1,0,0:0:0:0:
329,192,48906,1,0,0:0:0:0:
475,192,48906,1,0,0:0:0:0:
182,192,49096,1,0,0:0:0:0:
329,192,49096,1,0,0:0:0:0:
475,192,49096,1,0,0:0:0:0:
109,192,49286,1,0,0:0:0:0:
402,192,49286,1,0,0:0:0:0:
36,192,49476,1,0,0:0:0:0:
256,192,49476,1,0,0:0:0:0:
475,192,49476,1,0,0:0:0:0:
329,192,49571,1,0,0:0:0:0:
402,192,49666,1,0,0:0:0:0:
109,192,49761,1,0,0:0:0:0:
182,192,49856,1,0,0:0:0:0:
256,192,49951,1,0,0:0:0:0:
36,192,50046,1,2,0:0:0:0:
109,192,50046,1,4,0:0:0:70:cymbal.wav
329,192,50046,1,0,0:0:0:0:
402,192,50046,1,0,0:0:0:0:
36,192,50235,1,2,0:0:0:0:
256,192,50235,1,0,0:0:0:0:
329,192,50235,1,0,0:0:0:0:
475,192,50235,1,0,0:0:0:0:
109,192,50330,1,0,0:0:0:0:
182,192,50425,1,0,0:0:0:70:tom01.wav
256,192,50520,1,0,0:0:0:70:tom02.wav
36,192,50615,1,2,0:0:0:0:
109,192,50615,1,4,0:0:0:0:
329,192,50615,1,0,0:0:0:0:
402,192,50615,1,0,0:0:0:0:
182,192,50805,1,0,0:0:0:0:
475,192,50805,1,0,0:0:0:0:
256,192,50995,1,2,0:0:0:35:soft-hitwhistle.wav
402,192,50995,1,0,0:0:0:0:
109,192,51185,128,0,51280:0:0:0:0:
182,192,51185,128,0,51280:0:0:0:0:
329,192,51185,128,0,51280:0:0:0:0:
36,192,51375,1,2,0:0:0:35:soft-hitwhistle.wav
475,192,51375,1,0,0:0:0:0:
109,192,51564,1,0,0:0:0:0:
402,192,51564,1,0,0:0:0:0:
36,192,51754,128,2,51849:0:0:0:35:soft-hitwhistle.wav
256,192,51754,128,0,51849:0:0:0:0:
329,192,51754,128,0,51849:0:0:0:0:
182,192,51944,1,0,0:0:0:0:
402,192,51944,1,0,0:0:0:0:
109,192,52134,1,2,0:0:0:35:soft-hitwhistle.wav
329,192,52134,1,0,0:0:0:0:
475,192,52134,1,0,0:0:0:0:
36,192,52324,128,0,52419:0:0:0:0:
182,192,52324,128,0,52419:0:0:0:0:
402,192,52324,128,0,52419:0:0:0:0:
109,192,52514,1,2,0:0:0:35:soft-hitwhistle.wav
256,192,52514,1,0,0:0:0:0:
475,192,52514,1,0,0:0:0:0:
182,192,52704,1,0,0:0:0:0:
329,192,52704,1,0,0:0:0:0:
109,192,52894,128,2,52989:0:0:0:35:soft-hitwhistle.wav
256,192,52894,128,0,52989:0:0:0:0:
402,192,52894,128,0,52989:0:0:0:0:
36,192,53083,1,0,0:0:0:0:
475,192,53083,1,0,0:0:0:0:
109,192,53273,1,2,0:0:0:35:soft-hitwhistle.wav
329,192,53273,1,0,0:0:0:0:
402,192,53273,1,0,0:0:0:0:
182,192,53463,128,0,53558:0:0:0:0:
256,192,53463,128,0,53558:0:0:0:0:
475,192,53463,128,0,53558:0:0:0:0:
36,192,53653,1,2,0:0:0:35:soft-hitwhistle.wav
329,192,53653,1,0,0:0:0:0:
402,192,53653,1,0,0:0:0:0:
182,192,53843,1,0,0:0:0:0:
329,192,53843,1,0,0:0:0:0:
109,192,54033,128,2,54128:0:0:0:35:soft-hitwhistle.wav
256,192,54033,128,0,54128:0:0:0:0:
475,192,54033,128,0,54128:0:0:0:0:
36,192,54223,1,0,0:0:0:0:
182,192,54223,1,0,0:0:0:0:
109,192,54413,1,2,0:0:0:35:soft-hitwhistle.wav
329,192,54413,1,0,0:0:0:0:
475,192,54413,1,0,0:0:0:0:
36,192,54602,128,0,54697:0:0:0:0:
256,192,54602,128,0,54697:0:0:0:0:
402,192,54602,128,0,54697:0:0:0:0:
109,192,54792,1,2,0:0:0:35:soft-hitwhistle.wav
329,192,54792,1,0,0:0:0:0:
475,192,54792,1,0,0:0:0:0:
182,192,54982,1,0,0:0:0:0:
256,192,54982,1,0,0:0:0:0:
36,192,55172,128,2,55267:0:0:0:0:
329,192,55172,128,0,55267:0:0:0:0:
402,192,55172,128,0,55267:0:0:0:0:
475,192,55172,128,0,55267:0:0:0:0:
109,192,55362,1,0,0:0:0:0:
182,192,55362,1,0,0:0:0:0:
256,192,55552,1,2,0:0:0:35:soft-hitwhistle.wav
402,192,55552,1,0,0:0:0:0:
475,192,55552,1,0,0:0:0:0:
36,192,55742,128,0,55837:0:0:0:0:
109,192,55742,128,0,55837:0:0:0:0:
182,192,55742,128,0,55837:0:0:0:0:
256,192,55932,1,2,0:0:0:35:soft-hitwhistle.wav
402,192,55932,1,0,0:0:0:0:
475,192,55932,1,0,0:0:0:0:
109,192,56121,1,0,0:0:0:0:
329,192,56121,1,0,0:0:0:0:
36,192,56311,128,2,56406:0:0:0:35:soft-hitwhistle.wav
182,192,56311,128,0,56406:0:0:0:0:
402,192,56311,128,0,56406:0:0:0:0:
329,192,56501,1,0,0:0:0:0:
475,192,56501,1,0,0:0:0:0:
36,192,56691,1,2,0:0:0:35:soft-hitwhistle.wav
182,192,56691,1,0,0:0:0:0:
402,192,56691,1,0,0:0:0:0:
109,192,56881,128,0,56976:0:0:0:0:
256,192,56881,128,0,56976:0:0:0:0:
475,192,56881,128,0,56976:0:0:0:0:
182,192,57071,1,2,0:0:0:35:soft-hitwhistle.wav
329,192,57071,1,0,0:0:0:0:
256,192,57261,1,0,0:0:0:0:
402,192,57261,1,0,0:0:0:0:
182,192,57451,128,2,57546:0:0:0:35:soft-hitwhistle.wav
329,192,57451,128,0,57546:0:0:0:0:
475,192,57451,128,0,57546:0:0:0:0:
36,192,57640,1,0,0:0:0:0:
109,192,57640,1,0,0:0:0:0:
256,192,57830,128,2,58020:0:0:0:35:soft-hitwhistle.wav
329,192,57830,1,0,0:0:0:0:
475,192,57830,128,0,58020:0:0:0:0:
36,192,58020,1,8,0:0:0:0:
182,192,58020,128,0,58210:0:0:0:0:
402,192,58020,128,0,58210:0:0:0:0:
109,192,58210,128,2,58400:0:0:0:35:soft-hitwhistle.wav
329,192,58210,128,0,58400:0:0:0:0:
475,192,58210,1,0,0:0:0:0:
36,192,58400,128,0,58590:0:0:0:0:
256,192,58400,128,0,58590:0:0:0:0:
182,192,58590,1,2,0:0:0:35:soft-hitwhistle.wav
402,192,58590,1,0,0:0:0:0:
475,192,58590,1,0,0:0:0:0:
36,192,58780,1,0,0:0:0:0:
475,192,58780,1,0,0:0:0:0:
109,192,58970,1,2,0:0:0:35:soft-hitwhistle.wav
182,192,58970,1,0,0:0:0:0:
329,192,58970,1,0,0:0:0:0:
36,192,59159,128,0,59349:0:0:0:0:
256,192,59159,128,0,59349:0:0:0:0:
109,192,59349,128,2,59539:0:0:0:35:soft-hitwhistle.wav
329,192,59349,128,0,59539:0:0:0:0:
182,192,59539,128,0,59729:0:0:0:0:
402,192,59539,128,0,59729:0:0:0:0:
36,192,59729,1,2,0:0:0:0:
256,192,59729,1,4,0:0:0:0:
329,192,59729,1,0,0:0:0:0:
475,192,59729,1,0,0:0:0:0:
109,192,59919,1,0,0:0:0:0:
402,192,59919,1,0,0:0:0:0:
182,192,60109,1,0,0:0:0:0:
329,192,60109,1,0,0:0:0:0:
36,192,60299,1,0,0:0:0:0:
109,192,60299,1,0,0:0:0:0:
256,192,60299,1,0,0:0:0:0:
329,192,60394,1,0,0:0:0:0:
402,192,60489,1,0,0:0:0:0:
475,192,60489,1,0,0:0:0:0:
256,192,60583,1,0,0:0:0:0:
182,192,60678,1,0,0:0:0:0:
329,192,60678,1,0,0:0:0:0:
109,192,60773,1,0,0:0:0:0:
36,192,60868,1,0,0:0:0:0:
256,192,60868,1,0,0:0:0:0:
475,192,60868,1,0,0:0:0:0:
402,192,60963,1,0,0:0:0:0:
182,192,61058,1,0,0:0:0:0:
329,192,61058,1,0,0:0:0:0:
109,192,61153,1,0,0:0:0:0:
36,192,61248,1,0,0:0:0:0:
475,192,61248,1,0,0:0:0:0:
402,192,61343,1,0,0:0:0:0:
182,192,61438,1,0,0:0:0:0:
256,192,61438,1,0,0:0:0:0:
329,192,61438,1,0,0:0:0:0:
109,192,61533,1,0,0:0:0:0:
36,192,61628,1,0,0:0:0:0:
475,192,61628,1,0,0:0:0:0:
402,192,61723,1,0,0:0:0:0:
182,192,61818,1,0,0:0:0:0:
329,192,61818,1,0,0:0:0:0:
109,192,61913,1,0,0:0:0:0:
36,192,62008,1,2,0:0:0:0:
256,192,62008,1,0,0:0:0:0:
402,192,62008,1,0,0:0:0:0:
475,192,62008,1,0,0:0:0:0:
182,192,62197,1,0,0:0:0:0:
329,192,62197,1,0,0:0:0:0:
109,192,62387,1,0,0:0:0:0:
402,192,62387,1,0,0:0:0:0:
36,192,62577,1,0,0:0:0:0:
256,192,62577,1,0,0:0:0:0:
475,192,62577,1,0,0:0:0:0:
109,192,62672,1,0,0:0:0:0:
182,192,62767,1,0,0:0:0:0:
329,192,62767,1,0,0:0:0:0:
402,192,62862,1,0,0:0:0:0:
109,192,62957,1,0,0:0:0:0:
475,192,62957,1,0,0:0:0:0:
182,192,63052,1,0,0:0:0:0:
36,192,63147,1,0,0:0:0:0:
256,192,63147,1,0,0:0:0:0:
329,192,63147,1,0,0:0:0:0:
402,192,63242,1,0,0:0:0:0:
109,192,63337,1,0,0:0:0:0:
475,192,63337,1,0,0:0:0:0:
182,192,63432,1,0,0:0:0:0:
256,192,63527,1,0,0:0:0:0:
329,192,63527,1,0,0:0:0:0:
402,192,63621,1,0,0:0:0:0:
36,192,63716,1,0,0:0:0:0:
109,192,63716,1,0,0:0:0:0:
475,192,63716,1,0,0:0:0:0:
182,192,63811,1,0,0:0:0:0:
256,192,63906,1,0,0:0:0:0:
329,192,63906,1,0,0:0:0:0:
109,192,64096,1,0,0:0:0:0:
402,192,64096,1,0,0:0:0:0:
36,192,64286,1,2,0:0:0:0:
182,192,64286,1,0,0:0:0:0:
329,192,64286,1,0,0:0:0:0:
475,192,64286,1,0,0:0:0:0:
256,192,64476,1,0,0:0:0:0:
402,192,64476,1,0,0:0:0:0:
109,192,64666,1,0,0:0:0:0:
329,192,64666,1,0,0:0:0:0:
36,192,64856,1,2,0:0:0:0:
182,192,64856,1,4,0:0:0:70:cymbal.wav
256,192,64856,1,0,0:0:0:0:
475,192,64856,1,0,0:0:0:0:
402,192,64951,1,0,0:0:0:0:
109,192,65046,1,0,0:0:0:0:
329,192,65046,1,0,0:0:0:0:
36,192,65140,1,0,0:0:0:0:
402,192,65235,1,0,0:0:0:0:
475,192,65235,1,0,0:0:0:0:
329,192,65330,1,0,0:0:0:0:
36,192,65425,1,2,0:0:0:0:
182,192,65425,1,0,0:0:0:0:
256,192,65425,1,0,0:0:0:0:
475,192,65425,1,0,0:0:0:0:
109,192,65615,1,0,0:0:0:0:
402,192,65615,1,0,0:0:0:0:
182,192,65710,1,0,0:0:0:0:
256,192,65805,1,2,0:0:0:0:
329,192,65805,1,0,0:0:0:0:
402,192,65900,1,0,0:0:0:0:
36,192,65995,1,2,0:0:0:0:
109,192,65995,1,0,0:0:0:0:
182,192,65995,1,0,0:0:0:0:
475,192,65995,1,0,0:0:0:0:
256,192,66090,1,0,0:0:0:0:
329,192,66185,1,0,0:0:0:0:
402,192,66185,1,0,0:0:0:0:
475,192,66280,1,0,0:0:0:0:
36,192,66375,1,0,0:0:0:0:
109,192,66375,1,0,0:0:0:0:
182,192,66470,1,0,0:0:0:0:
36,192,66564,1,2,0:0:0:0:
256,192,66564,1,4,0:0:0:70:cymbal.wav
402,192,66564,1,0,0:0:0:0:
475,192,66564,1,0,0:0:0:0:
109,192,66754,1,0,0:0:0:0:
329,192,66754,1,0,0:0:0:0:
256,192,66944,1,2,0:0:0:0:
402,192,66944,1,0,0:0:0:0:
475,192,66944,1,0,0:0:0:0:
182,192,67039,1,0,0:0:0:0:
36,192,67134,1,0,0:0:0:0:
109,192,67134,1,0,0:0:0:0:
329,192,67229,1,0,0:0:0:0:
182,192,67324,1,2,0:0:0:0:
256,192,67324,1,0,0:0:0:0:
475,192,67324,1,0,0:0:0:0:
109,192,67419,1,0,0:0:0:0:
36,192,67514,1,0,0:0:0:0:
329,192,67514,1,0,0:0:0:0:
256,192,67609,1,0,0:0:0:0:
109,192,67704,1,2,0:0:0:0:
182,192,67704,1,0,0:0:0:0:
475,192,67704,1,0,0:0:0:0:
36,192,67799,1,0,0:0:0:0:
256,192,67894,1,0,0:0:0:0:
329,192,67894,1,0,0:0:0:0:
402,192,67989,1,0,0:0:0:0:
36,192,68083,1,2,0:0:0:0:
109,192,68083,1,0,0:0:0:0:
475,192,68083,1,0,0:0:0:0:
182,192,68178,1,0,0:0:0:0:
256,192,68273,1,0,0:0:0:0:
329,192,68273,1,0,0:0:0:0:
402,192,68368,1,0,0:0:0:0:
36,192,68463,1,2,0:0:0:0:
109,192,68463,1,0,0:0:0:0:
475,192,68463,1,0,0:0:0:0:
182,192,68558,1,0,0:0:0:0:
256,192,68653,1,0,0:0:0:0:
329,192,68653,1,0,0:0:0:0:
402,192,68748,1,0,0:0:0:0:
36,192,68843,1,2,0:0:0:0:
109,192,68843,1,4,0:0:0:0:
182,192,68843,1,0,0:0:0:0:
475,192,68843,1,0,0:0:0:0:
109,192,69223,1,0,0:0:0:70:tom01.wav
402,192,69223,1,0,0:0:0:0:
36,192,69602,1,8,0:0:0:0:
256,192,69602,1,0,0:0:0:0:
475,192,69602,1,0,0:0:0:0:
109,192,69982,1,0,0:0:0:70:tom02.wav
182,192,70030,1,0,0:0:0:0:
256,192,70077,1,0,0:0:0:0:
329,192,70125,1,0,0:0:0:0:
402,192,70172,1,2,0:0:0:0:
475,192,70172,1,0,0:0:0:0:
182,192,70362,1,0,0:0:0:70:tom03.wav
329,192,70362,1,0,0:0:0:0:
109,192,70552,1,0,0:0:0:0:
182,192,70647,1,0,0:0:0:0:
36,192,70742,1,8,0:0:0:0:
256,192,70742,1,0,0:0:0:0:
402,192,70742,1,0,0:0:0:0:
109,192,70837,1,8,0:0:0:0:
475,192,70837,1,0,0:0:0:0:
182,192,70932,1,0,0:0:0:70:tom01.wav
329,192,70932,1,0,0:0:0:0:
256,192,71027,1,0,0:0:0:70:tom02.wav
402,192,71027,1,0,0:0:0:0:
36,192,71121,1,2,0:0:0:0:
109,192,71121,128,4,72261:0:0:0:0:
329,192,71121,1,0,0:0:0:0:
475,192,71121,1,0,0:0:0:0:
182,192,71311,1,0,0:0:0:0:
402,192,71311,128,0,71406:0:0:0:0:
256,192,71501,128,2,71596:0:0:0:0:
329,192,71501,1,0,0:0:0:0:
475,192,71501,1,0,0:0:0:0:
36,192,71691,1,0,0:0:0:0:
402,192,71691,1,0,0:0:0:0:
256,192,71881,1,2,0:0:0:0:
329,192,71881,1,0,0:0:0:0:
475,192,71881,1,0,0:0:0:0:
182,192,72071,128,0,72261:0:0:0:0:
402,192,72071,1,0,0:0:0:0:
256,192,72166,128,0,72261:0:0:0:0:
36,192,72261,1,2,0:0:0:0:
329,192,72261,1,0,0:0:0:0:
475,192,72261,128,0,73210:0:0:0:0:
36,192,72451,128,0,72546:0:0:0:0:
256,192,72451,1,0,0:0:0:0:
402,192,72451,1,0,0:0:0:0:
182,192,72546,1,0,0:0:0:0:
36,192,72640,128,2,72735:0:0:0:0:
109,192,72640,1,0,0:0:0:0:
329,192,72640,1,0,0:0:0:0:
182,192,72830,128,0,72925:0:0:0:0:
402,192,72830,1,0,0:0:0:0:
36,192,73020,1,2,0:0:0:0:
256,192,73020,1,0,0:0:0:0:
329,192,73020,128,0,73115:0:0:0:0:
109,192,73210,128,0,73305:0:0:0:0:
402,192,73210,128,0,73305:0:0:0:0:
182,192,73305,128,0,73400:0:0:0:0:
329,192,73305,128,0,73400:0:0:0:0:
36,192,73400,128,2,74539:0:0:0:0:
256,192,73400,1,0,0:0:0:0:
475,192,73400,1,0,0:0:0:0:
109,192,73590,1,0,0:0:0:0:
402,192,73590,128,0,73685:0:0:0:0:
182,192,73685,1,0,0:0:0:0:
256,192,73780,1,2,0:0:0:0:
329,192,73780,128,0,73875:0:0:0:0:
475,192,73780,1,0,0:0:0:0:
182,192,73970,1,0,0:0:0:0:
402,192,73970,1,0,0:0:0:0:
109,192,74159,128,2,74539:0:0:0:0:
329,192,74159,1,0,0:0:0:0:
475,192,74159,1,0,0:0:0:0:
182,192,74349,128,0,74539:0:0:0:0:
256,192,74349,1,0,0:0:0:0:
329,192,74539,1,2,0:0:0:0:
402,192,74539,128,0,75489:0:0:0:0:
475,192,74539,1,0,0:0:0:0:
182,192,74729,1,0,0:0:0:0:
256,192,74729,128,0,74824:0:0:0:0:
109,192,74824,1,0,0:0:0:0:
36,192,74919,128,2,75014:0:0:0:0:
329,192,74919,1,0,0:0:0:0:
475,192,74919,1,0,0:0:0:0:
109,192,75109,1,0,0:0:0:0:
256,192,75109,128,0,75204:0:0:0:0:
109,192,75299,128,2,75489:0:0:0:0:
182,192,75299,1,0,0:0:0:0:
329,192,75299,1,0,0:0:0:0:
36,192,75489,128,0,75583:0:0:0:0:
475,192,75489,128,0,75583:0:0:0:0:
182,192,75583,128,0,75678:0:0:0:0:
329,192,75583,128,0,75678:0:0:0:0:
109,192,75678,1,2,0:0:0:0:
256,192,75678,128,0,76628:0:0:0:0:
402,192,75678,1,0,0:0:0:0:
36,192,75868,128,0,75963:0:0:0:0:
475,192,75868,1,0,0:0:0:0:
402,192,75963,1,0,0:0:0:0:
109,192,76058,1,2,0:0:0:0:
182,192,76058,128,0,76153:0:0:0:0:
329,192,76058,1,0,0:0:0:0:
36,192,76248,1,0,0:0:0:0:
475,192,76248,1,0,0:0:0:0:
109,192,76438,1,2,0:0:0:0:
182,192,76438,1,0,0:0:0:0:
402,192,76438,1,0,0:0:0:0:
329,192,76628,128,0,76723:0:0:0:0:
475,192,76628,128,0,76723:0:0:0:0:
36,192,76723,128,0,76818:0:0:0:0:
182,192,76723,128,0,76818:0:0:0:0:
109,192,76818,1,2,0:0:0:0:
256,192,76818,1,0,0:0:0:0:
402,192,76818,128,0,77957:0:0:0:0:
36,192,77008,128,0,77102:0:0:0:0:
182,192,77008,1,0,0:0:0:0:
256,192,77102,1,0,0:0:0:0:
36,192,77197,128,2,77292:0:0:0:0:
329,192,77197,1,0,0:0:0:0:
475,192,77197,1,0,0:0:0:0:
109,192,77387,128,0,77482:0:0:0:0:
256,192,77387,1,0,0:0:0:0:
36,192,77577,1,2,0:0:0:0:
182,192,77577,128,0,77672:0:0:0:0:
475,192,77577,1,0,0:0:0:0:
109,192,77767,1,0,0:0:0:0:
256,192,77767,128,0,77957:0:0:0:0:
182,192,77862,1,0,0:0:0:0:
36,192,77957,128,2,79096:0:0:0:0:
109,192,77957,1,4,0:0:0:0:
329,192,77957,1,0,0:0:0:0:
475,192,77957,1,0,0:0:0:0:
182,192,78147,1,0,0:0:0:0:
475,192,78147,128,0,78242:0:0:0:0:
256,192,78242,1,0,0:0:0:0:
329,192,78337,1,2,0:0:0:0:
402,192,78337,1,0,0:0:0:0:
475,192,78337,128,0,78432:0:0:0:0:
182,192,78527,1,0,0:0:0:0:
256,192,78527,128,0,78621:0:0:0:0:
109,192,78716,128,2,79096:0:0:0:0:
402,192,78716,128,0,78811:0:0:0:0:
475,192,78716,1,0,0:0:0:0:
182,192,78906,128,0,79096:0:0:0:0:
329,192,78906,1,0,0:0:0:0:
256,192,79096,1,2,0:0:0:0:
402,192,79096,128,0,79476:0:0:0:0:
475,192,79096,128,0,79476:0:0:0:0:
329,192,79191,1,0,0:0:0:0:
182,192,79286,1,0,0:0:0:0:
256,192,79381,1,0,0:0:0:0:
36,192,79476,128,2,79856:0:0:0:0:
109,192,79476,128,0,79856:0:0:0:0:
329,192,79476,1,0,0:0:0:0:
256,192,79571,1,0,0:0:0:0:
182,192,79666,1,2,0:0:0:0:
402,192,79666,1,0,0:0:0:70:cymbal.wav
329,192,79761,1,0,0:0:0:0:
256,192,79856,1,2,0:0:0:0:
402,192,79856,128,0,80235:0:0:0:0:
475,192,79856,128,0,80235:0:0:0:0:
329,192,79951,1,0,0:0:0:0:
109,192,80046,1,0,0:0:0:0:
182,192,80140,1,0,0:0:0:0:
36,192,80235,128,2,81185:0:0:0:0:
109,192,80235,1,4,0:0:0:0:
256,192,80235,1,0,0:0:0:0:
329,192,80235,1,0,0:0:0:0:
182,192,80425,128,0,80520:0:0:0:0:
475,192,80425,1,0,0:0:0:0:
402,192,80520,1,0,0:0:0:0:
256,192,80615,128,2,80710:0:0:0:0:
329,192,80615,1,0,0:0:0:0:
109,192,80805,1,0,0:0:0:0:
402,192,80805,1,0,0:0:0:0:
182,192,80995,1,2,0:0:0:0:
329,192,80995,1,0,0:0:0:0:
475,192,80995,1,0,0:0:0:0:
109,192,81185,128,0,81280:0:0:0:0:
402,192,81185,128,0,81280:0:0:0:0:
182,192,81280,128,0,81375:0:0:0:0:
329,192,81280,128,0,81375:0:0:0:0:
36,192,81375,1,2,0:0:0:0:
256,192,81375,1,0,0:0:0:0:
475,192,81375,128,0,82324:0:0:0:0:
109,192,81564,128,0,81659:0:0:0:0:
402,192,81564,1,0,0:0:0:0:
329,192,81659,1,0,0:0:0:0:
36,192,81754,1,2,0:0:0:0:
109,192,81754,128,0,81849:0:0:0:0:
256,192,81754,1,0,0:0:0:0:
182,192,81944,1,0,0:0:0:0:
402,192,81944,128,0,82039:0:0:0:0:
36,192,82134,1,2,0:0:0:0:
109,192,82134,1,0,0:0:0:0:
256,192,82134,128,0,82229:0:0:0:0:
182,192,82324,128,0,82419:0:0:0:0:
329,192,82324,128,0,82419:0:0:0:0:
109,192,82419,128,0,82514:0:0:0:0:
402,192,82419,128,0,82514:0:0:0:0:
36,192,82514,1,2,0:0:0:0:
256,192,82514,128,0,83083:0:0:0:0:
475,192,82514,1,0,0:0:0:0:
182,192,82704,1,0,0:0:0:0:
329,192,82704,128,0,82799:0:0:0:0:
109,192,82799,1,0,0:0:0:0:
36,192,82894,128,2,82989:0:0:0:0:
402,192,82894,1,0,0:0:0:0:
475,192,82894,1,0,0:0:0:0:
109,192,83083,1,0,0:0:0:0:
329,192,83083,128,0,83653:0:0:0:0:
182,192,83273,1,2,0:0:0:0:
402,192,83273,1,0,0:0:0:0:
475,192,83273,1,0,0:0:0:0:
36,192,83463,1,0,0:0:0:0:
109,192,83463,1,0,0:0:0:0:
182,192,83653,1,2,0:0:0:0:
256,192,83653,1,0,0:0:0:0:
402,192,83653,128,0,84033:0:0:0:0:
475,192,83653,1,0,0:0:0:0:
109,192,83843,128,0,83938:0:0:0:0:
329,192,83843,1,0,0:0:0:0:
256,192,83938,1,0,0:0:0:0:
36,192,84033,128,2,84128:0:0:0:0:
182,192,84033,1,0,0:0:0:0:
475,192,84033,128,0,84413:0:0:0:0:
256,192,84223,128,0,84318:0:0:0:0:
329,192,84223,1,0,0:0:0:0:
36,192,84413,128,2,84792:0:0:0:0:
109,192,84413,1,0,0:0:0:0:
402,192,84413,1,0,0:0:0:0:
182,192,84602,1,0,0:0:0:0:
329,192,84602,1,0,0:0:0:0:
402,192,84697,1,0,0:0:0:0:
109,192,84792,1,2,0:0:0:0:
256,192,84792,128,0,85172:0:0:0:0:
475,192,84792,1,0,0:0:0:0:
329,192,84982,1,0,0:0:0:0:
402,192,84982,128,0,85077:0:0:0:0:
182,192,85077,1,0,0:0:0:0:
36,192,85172,1,2,0:0:0:0:
109,192,85172,128,0,86311:0:0:0:0:
402,192,85172,128,0,85267:0:0:0:0:
182,192,85362,1,0,0:0:0:0:
256,192,85362,128,0,85457:0:0:0:0:
182,192,85552,1,2,0:0:0:0:
329,192,85552,1,0,0:0:0:0:
475,192,85552,128,0,85647:0:0:0:0:
36,192,85742,1,0,0:0:0:0:
329,192,85742,128,0,85837:0:0:0:0:
402,192,85837,1,0,0:0:0:0:
182,192,85932,1,2,0:0:0:0:
256,192,85932,1,0,0:0:0:0:
475,192,85932,128,0,86027:0:0:0:0:
329,192,86121,128,0,86216:0:0:0:0:
402,192,86121,1,0,0:0:0:0:
256,192,86216,1,0,0:0:0:0:
36,192,86311,1,2,0:0:0:0:
182,192,86311,128,0,86406:0:0:0:0:
475,192,86311,1,0,0:0:0:0:
36,192,86501,128,0,86596:0:0:0:0:
329,192,86501,1,0,0:0:0:0:
109,192,86691,1,2,0:0:0:0:
182,192,86691,128,0,86786:0:0:0:0:
402,192,86691,128,0,87071:0:0:0:0:
256,192,86881,1,0,0:0:0:0:
329,192,86881,128,0,86976:0:0:0:0:
182,192,86976,1,0,0:0:0:0:
36,192,87071,128,2,87451:0:0:0:0:
109,192,87071,1,0,0:0:0:0:
475,192,87071,128,0,87166:0:0:0:0:
182,192,87261,128,0,87356:0:0:0:0:
329,192,87261,1,0,0:0:0:0:
402,192,87356,1,0,0:0:0:0:
182,192,87451,128,2,87546:0:0:0:0:
329,192,87451,128,0,88210:0:0:0:0:
475,192,87451,1,0,0:0:0:0:
109,192,87640,1,0,0:0:0:0:
256,192,87640,128,0,87735:0:0:0:0:
36,192,87830,1,2,0:0:0:0:
182,192,87830,1,0,0:0:0:0:
475,192,87830,128,0,87925:0:0:0:0:
109,192,88020,128,0,88115:0:0:0:0:
402,192,88020,1,0,0:0:0:0:
36,192,88210,1,2,0:0:0:0:
182,192,88210,1,0,0:0:0:0:
475,192,88210,1,0,0:0:0:0:
109,192,88400,1,2,0:0:0:0:
256,192,88400,1,0,0:0:0:0:
402,192,88400,1,0,0:0:0:0:
36,192,88590,1,2,0:0:0:0:
329,192,88590,1,0,0:0:0:0:
475,192,88590,1,0,0:0:0:0:
109,192,88780,1,2,0:0:0:0:
256,192,88780,1,0,0:0:0:0:
402,192,88780,1,0,0:0:0:0:
36,192,88970,1,2,0:0:0:0:
182,192,88970,1,0,0:0:0:0:
475,192,88970,1,0,0:0:0:0:
109,192,89159,1,0,0:0:0:70:tom01.wav
256,192,89159,1,0,0:0:0:0:
402,192,89159,1,0,0:0:0:0:
182,192,89254,1,0,0:0:0:70:tom02.wav
329,192,89254,1,0,0:0:0:0:
36,192,89349,1,2,0:0:0:0:
256,192,89349,1,4,0:0:0:0:
402,192,89349,1,0,0:0:0:0:
475,192,89349,128,0,90299:0:0:0:0:
109,192,89539,128,0,89634:0:0:0:0:
329,192,89539,1,0,0:0:0:0:
36,192,89729,1,2,0:0:0:0:
182,192,89729,128,0,89824:0:0:0:0:
256,192,89729,1,0,0:0:0:0:
109,192,89919,1,0,0:0:0:0:
329,192,89919,1,0,0:0:0:0:
36,192,90109,1,2,0:0:0:0:
182,192,90109,1,0,0:0:0:0:
256,192,90109,1,0,0:0:0:0:
182,192,90299,128,0,90394:0:0:0:0:
329,192,90299,128,0,90394:0:0:0:0:
109,192,90394,128,0,90489:0:0:0:0:
402,192,90394,128,0,90489:0:0:0:0:
36,192,90489,128,2,91438:0:0:0:0:
256,192,90489,1,0,0:0:0:0:
475,192,90489,1,0,0:0:0:0:
329,192,90678,1,0,0:0:0:0:
475,192,90678,128,0,90773:0:0:0:0:
256,192,90773,1,0,0:0:0:0:
109,192,90868,1,2,0:0:0:0:
182,192,90868,1,0,0:0:0:0:
475,192,90868,128,0,90963:0:0:0:0:
256,192,91058,128,0,91153:0:0:0:0:
329,192,91058,1,0,0:0:0:0:
182,192,91248,1,2,0:0:0:0:
475,192,91248,128,0,91343:0:0:0:0:
109,192,91438,128,0,91533:0:0:0:0:
402,192,91438,128,0,91533:0:0:0:0:
182,192,91533,128,0,91628:0:0:0:0:
329,192,91533,128,0,91628:0:0:0:0:
36,192,91628,1,2,0:0:0:0:
256,192,91628,1,0,0:0:0:0:
475,192,91628,128,0,92767:0:0:0:0:
109,192,91818,128,0,91913:0:0:0:0:
402,192,91818,1,0,0:0:0:0:
329,192,91913,1,0,0:0:0:0:
36,192,92008,1,2,0:0:0:0:
182,192,92008,128,0,92102:0:0:0:0:
256,192,92008,1,0,0:0:0:0:
109,192,92197,1,0,0:0:0:0:
329,192,92197,1,0,0:0:0:0:
36,192,92387,1,2,0:0:0:0:
182,192,92387,1,0,0:0:0:0:
402,192,92387,128,0,92767:0:0:0:0:
256,192,92577,1,0,0:0:0:0:
329,192,92577,128,0,92767:0:0:0:0:
36,192,92767,1,2,0:0:0:0:
109,192,92767,128,0,93716:0:0:0:0:
182,192,92767,1,0,0:0:0:0:
256,192,92957,1,0,0:0:0:0:
329,192,92957,128,0,93052:0:0:0:0:
402,192,93052,1,0,0:0:0:0:
36,192,93147,1,2,0:0:0:0:
182,192,93147,1,0,0:0:0:0:
475,192,93147,128,0,93242:0:0:0:0:
329,192,93337,128,0,93432:0:0:0:0:
402,192,93337,1,0,0:0:0:0:
182,192,93527,1,2,0:0:0:0:
256,192,93527,1,0,0:0:0:0:
402,192,93527,128,0,93716:0:0:0:0:
36,192,93716,128,0,93811:0:0:0:0:
475,192,93716,128,0,93811:0:0:0:0:
182,192,93811,128,0,93906:0:0:0:0:
329,192,93811,128,0,93906:0:0:0:0:
109,192,93906,1,2,0:0:0:0:
256,192,93906,128,0,94856:0:0:0:0:
402,192,93906,1,0,0:0:0:0:
36,192,94096,1,0,0:0:0:0:
475,192,94096,128,0,94191:0:0:0:0:
109,192,94191,1,0,0:0:0:0:
182,192,94286,128,2,94381:0:0:0:0:
329,192,94286,1,0,0:0:0:0:
402,192,94286,1,0,0:0:0:0:
36,192,94476,1,0,0:0:0:0:
402,192,94476,1,0,0:0:0:0:
109,192,94666,1,2,0:0:0:0:
329,192,94666,1,0,0:0:0:0:
475,192,94666,1,0,0:0:0:0:
36,192,94856,128,0,94951:0:0:0:0:
182,192,94856,128,0,94951:0:0:0:0:
329,192,94951,128,0,95046:0:0:0:0:
475,192,94951,128,0,95046:0:0:0:0:
109,192,95046,128,2,96185:0:0:0:0:
256,192,95046,1,0,0:0:0:0:
402,192,95046,1,0,0:0:0:0:
329,192,95235,1,0,0:0:0:0:
402,192,95235,128,0,95330:0:0:0:0:
256,192,95330,1,0,0:0:0:0:
36,192,95425,1,2,0:0:0:0:
182,192,95425,1,0,0:0:0:0:
402,192,95425,128,0,95520:0:0:0:0:
256,192,95615,1,0,0:0:0:0:
329,192,95615,128,0,95710:0:0:0:0:
36,192,95805,1,2,0:0:0:0:
182,192,95805,1,0,0:0:0:0:
475,192,95805,128,0,95900:0:0:0:0:
256,192,95995,128,0,96185:0:0:0:0:
402,192,95995,1,0,0:0:0:0:
329,192,96090,1,0,0:0:0:0:
36,192,96185,1,2,0:0:0:0:
182,192,96185,1,0,0:0:0:0:
402,192,96185,1,0,0:0:0:0:
475,192,96185,128,0,97324:0:0:0:0:
182,192,96375,128,0,96470:0:0:0:0:
329,192,96375,1,0,0:0:0:0:
256,192,96470,1,0,0:0:0:0:
36,192,96564,1,2,0:0:0:0:
182,192,96564,128,0,96659:0:0:0:0:
402,192,96564,1,0,0:0:0:0:
36,192,96754,128,0,96849:0:0:0:0:
329,192,96754,1,0,0:0:0:0:
109,192,96944,1,2,0:0:0:0:
182,192,96944,128,0,97039:0:0:0:0:
402,192,96944,128,0,97324:0:0:0:0:
36,192,97134,1,0,0:0:0:0:
329,192,97134,128,0,97324:0:0:0:0:
36,192,97324,128,2,97704:0:0:0:0:
109,192,97324,128,0,97704:0:0:0:0:
256,192,97324,1,0,0:0:0:0:
182,192,97419,1,0,0:0:0:0:
329,192,97514,1,0,0:0:0:0:
256,192,97609,1,0,0:0:0:0:
182,192,97704,1,2,0:0:0:0:
402,192,97704,128,0,98083:0:0:0:0:
475,192,97704,128,0,98083:0:0:0:0:
256,192,97799,1,0,0:0:0:0:
109,192,97894,1,2,0:0:0:0:
329,192,97894,1,0,0:0:0:0:
182,192,97989,1,0,0:0:0:0:
36,192,98083,128,2,98463:0:0:0:0:
109,192,98083,128,0,98463:0:0:0:0:
256,192,98083,1,0,0:0:0:0:
182,192,98178,1,0,0:0:0:0:
402,192,98273,1,0,0:0:0:70:tom02.wav
329,192,98368,1,0,0:0:0:70:tom03.wav
182,192,98463,1,2,0:0:0:0:
256,192,98463,1,0,0:0:0:0:
402,192,98463,1,0,0:0:0:0:
475,192,98463,128,0,99413:0:0:0:0:
109,192,98653,1,0,0:0:0:0:
329,192,98653,128,0,98748:0:0:0:0:
182,192,98748,1,0,0:0:0:0:
36,192,98843,128,2,98938:0:0:0:0:
256,192,98843,1,0,0:0:0:0:
329,192,98843,1,0,0:0:0:0:
109,192,99033,1,0,0:0:0:0:
402,192,99033,1,0,0:0:0:0:
36,192,99223,1,2,0:0:0:0:
182,192,99223,1,0,0:0:0:0:
329,192,99223,1,0,0:0:0:0:
109,192,99413,128,0,99508:0:0:0:0:
402,192,99413,128,0,99508:0:0:0:0:
182,192,99508,128,0,99602:0:0:0:0:
329,192,99508,128,0,99602:0:0:0:0:
36,192,99602,128,2,100552:0:0:0:0:
256,192,99602,1,0,0:0:0:0:
475,192,99602,1,0,0:0:0:0:
109,192,99792,1,0,0:0:0:0:
402,192,99792,128,0,99887:0:0:0:0:
182,192,99887,1,0,0:0:0:0:
256,192,99982,1,2,0:0:0:0:
329,192,99982,1,0,0:0:0:0:
402,192,99982,128,0,100077:0:0:0:0:
182,192,100172,128,0,100267:0:0:0:0:
475,192,100172,1,0,0:0:0:0:
109,192,100362,1,2,0:0:0:0:
256,192,100362,1,0,0:0:0:0:
402,192,100362,128,0,100457:0:0:0:0:
182,192,100552,128,0,100647:0:0:0:0:
329,192,100552,128,0,100647:0:0:0:0:
109,192,100647,128,0,100742:0:0:0:0:
402,192,100647,128,0,100742:0:0:0:0:
36,192,100742,1,2,0:0:0:0:
256,192,100742,128,0,101311:0:0:0:0:
475,192,100742,1,0,0:0:0:0:
329,192,100932,1,0,0:0:0:0:
475,192,100932,128,0,101027:0:0:0:0:
182,192,101027,1,0,0:0:0:0:
36,192,101121,128,2,101216:0:0:0:0:
109,192,101121,1,0,0:0:0:0:
402,192,101121,1,0,0:0:0:0:
182,192,101311,128,0,101881:0:0:0:0:
475,192,101311,1,0,0:0:0:0:
36,192,101501,1,2,0:0:0:0:
109,192,101501,1,0,0:0:0:0:
329,192,101501,1,0,0:0:0:0:
402,192,101691,1,0,0:0:0:0:
475,192,101691,1,0,0:0:0:0:
36,192,101881,1,2,0:0:0:0:
109,192,101881,128,0,102261:0:0:0:0:
256,192,101881,1,0,0:0:0:0:
329,192,101881,1,0,0:0:0:0:
182,192,102071,1,0,0:0:0:0:
402,192,102071,1,0,0:0:0:0:
256,192,102166,1,0,0:0:0:0:
36,192,102261,128,2,102640:0:0:0:0:
329,192,102261,1,0,0:0:0:0:
475,192,102261,1,0,0:0:0:0:
182,192,102451,1,0,0:0:0:0:
256,192,102451,1,0,0:0:0:0:
109,192,102640,1,2,0:0:0:0:
329,192,102640,1,0,0:0:0:0:
475,192,102640,128,0,103020:0:0:0:0:
182,192,102830,1,0,0:0:0:0:
402,192,102830,1,0,0:0:0:0:
109,192,102925,1,0,0:0:0:0:
36,192,103020,1,2,0:0:0:0:
256,192,103020,128,0,103400:0:0:0:0:
329,192,103020,1,0,0:0:0:0:
182,192,103210,1,0,0:0:0:0:
402,192,103210,128,0,103305:0:0:0:0:
36,192,103400,1,2,0:0:0:0:
109,192,103400,128,0,103590:0:0:0:0:
402,192,103400,128,0,103495:0:0:0:0:
329,192,103590,128,0,103685:0:0:0:0:
475,192,103590,1,0,0:0:0:0:
109,192,103780,128,2,104539:0:0:0:0:
182,192,103780,1,0,0:0:0:0:
256,192,103780,128,0,103875:0:0:0:0:
402,192,103780,1,0,0:0:0:0:
36,192,103970,1,0,0:0:0:0:
475,192,103970,128,0,104064:0:0:0:0:
402,192,104064,1,0,0:0:0:0:
182,192,104159,1,2,0:0:0:0:
256,192,104159,128,0,104254:0:0:0:0:
329,192,104159,1,0,0:0:0:0:
329,192,104349,1,0,0:0:0:0:
402,192,104349,128,0,104444:0:0:0:0:
256,192,104444,1,0,0:0:0:0:
36,192,104539,1,2,0:0:0:0:
182,192,104539,128,0,104634:0:0:0:0:
475,192,104539,1,0,0:0:0:0:
256,192,104729,1,0,0:0:0:0:
329,192,104729,128,0,104824:0:0:0:0:
36,192,104919,1,2,0:0:0:0:
109,192,104919,128,0,105014:0:0:0:0:
402,192,104919,128,0,105299:0:0:0:0:
256,192,105109,128,0,105204:0:0:0:0:
329,192,105109,1,0,0:0:0:0:
182,192,105204,1,0,0:0:0:0:
36,192,105299,1,2,0:0:0:0:
109,192,105299,128,0,105678:0:0:0:70:cymbal.wav
475,192,105299,128,0,105394:0:0:0:0:
182,192,105489,1,0,0:0:0:0:
256,192,105489,128,0,105583:0:0:0:0:
402,192,105583,1,0,0:0:0:0:
36,192,105678,1,0,0:0:0:0:
256,192,105678,128,0,105773:0:0:0:0:
329,192,105678,128,0,105868:0:0:0:0:
475,192,105678,1,0,0:0:0:0:
109,192,105868,1,0,0:0:0:0:
182,192,105868,128,0,105963:0:0:0:0:
36,192,106058,128,0,106153:0:0:0:0:
329,192,106058,128,0,107008:0:0:0:0:
475,192,106058,1,0,0:0:0:0:
256,192,106248,128,0,106343:0:0:0:0:
402,192,106248,1,0,0:0:0:0:
36,192,106438,1,0,0:0:0:0:
109,192,106438,128,0,106533:0:0:0:0:
182,192,106628,1,0,0:0:0:0:
402,192,106628,128,0,106723:0:0:0:0:
182,192,106818,128,0,106913:0:0:0:0:
475,192,106818,1,0,0:0:0:0:
36,192,107008,128,0,107102:0:0:0:0:
256,192,107008,1,0,0:0:0:0:
475,192,107008,128,0,107102:0:0:0:0:
182,192,107197,128,0,107292:0:0:0:0:
329,192,107197,128,0,107292:0:0:0:0:
109,192,107292,128,0,107387:0:0:0:0:
402,192,107292,128,0,107387:0:0:0:0:
36,192,107387,128,0,107482:0:0:0:70:tom01.wav
475,192,107387,128,0,107482:0:0:0:0:
182,192,107482,128,0,107577:0:0:0:70:tom02.wav
329,192,107482,128,0,107577:0:0:0:0:
36,192,107577,1,4,0:0:0:0:
109,192,107577,1,2,0:0:0:0:
402,192,107577,1,0,0:0:0:0:
475,192,107577,1,0,0:0:0:0:
329,192,108147,128,0,108716:0:0:0:0:
475,192,108147,128,0,108716:0:0:0:0:
256,192,108337,128,0,108716:0:0:0:0:
182,192,108527,128,0,108716:0:0:0:0:
36,192,108716,128,0,109666:0:0:0:0:
402,192,108906,1,0,0:0:0:0:
256,192,109001,1,0,0:0:0:0:
402,192,109096,1,0,0:0:0:0:
109,192,109286,128,0,109666:0:0:0:0:
182,192,109476,128,0,109666:0:0:0:0:
475,192,109666,128,0,110805:0:0:0:0:
329,192,109856,1,0,0:0:0:0:
109,192,110046,1,0,0:0:0:0:
256,192,110140,1,0,0:0:0:0:
36,192,110235,128,0,110805:0:0:0:0:
182,192,110235,1,0,0:0:0:0:
402,192,110425,128,0,110805:0:0:0:0:
329,192,110615,128,0,110805:0:0:0:0:
109,192,110805,128,0,111944:0:0:0:0:
256,192,110995,1,0,0:0:0:0:
475,192,111185,1,0,0:0:0:0:
329,192,111280,1,0,0:0:0:0:
402,192,111375,1,0,0:0:0:0:
182,192,111564,128,0,111944:0:0:0:0:
256,192,111754,128,0,111944:0:0:0:0:
402,192,111944,128,0,113083:0:0:0:0:
36,192,112134,1,0,0:0:0:0:
109,192,112324,1,0,0:0:0:0:
256,192,112419,1,0,0:0:0:0:
36,192,112514,128,0,113083:0:0:0:0:
109,192,112514,1,0,0:0:0:0:
329,192,112704,128,0,113083:0:0:0:0:
256,192,112894,128,0,113083:0:0:0:0:
182,192,113083,128,0,114223:0:0:0:0:
475,192,113273,1,0,0:0:0:0:
329,192,113463,1,0,0:0:0:0:
402,192,113558,1,0,0:0:0:0:
256,192,113653,1,0,0:0:0:0:
402,192,113843,128,0,114223:0:0:0:0:
36,192,114033,128,0,114223:0:0:0:0:
475,192,114223,128,0,115552:0:0:0:0:
256,192,114413,1,0,0:0:0:0:
329,192,114602,1,0,0:0:0:0:
182,192,114697,1,0,0:0:0:0:
109,192,114792,128,0,115552:0:0:0:0:
329,192,114792,1,0,0:0:0:0:
256,192,115077,1,0,0:0:0:0:
402,192,115172,128,0,115552:0:0:0:0:
329,192,115362,128,0,115552:0:0:0:0:
36,192,115552,1,0,0:0:0:0:
182,192,115742,1,0,0:0:0:0:
329,192,115837,1,0,0:0:0:0:
475,192,115932,1,0,0:0:0:0:
475,192,116216,1,0,0:0:0:0:
475,192,116501,1,0,0:0:0:0:
