osu file format v14

[General]
AudioFilename: audio.mp3
AudioLeadIn: 0
PreviewTime: 64022
Countdown: 0
SampleSet: Normal
StackLeniency: 0.7
Mode: 3
LetterboxInBreaks: 0
SpecialStyle: 1
WidescreenStoryboard: 0

[Editor]
DistanceSpacing: 1.3
BeatDivisor: 4
GridSize: 8
TimelineZoom: 1

[Metadata]
Title:Back to chronos
TitleUnicode:Back to chronos
Artist:Nekomata Master
ArtistUnicode:猫叉Master
Creator:MeowPaz
Version:Normal
Source:beatmania IIDX
Tags:KONAMI BEMANI SYSTEM BGM Naoyuki Sato L.E.D. 22 PENDUAL TALISMAN PRESENT KAIROS IN THE SPACE TIME Spy
BeatmapID:1061577
BeatmapSetID:498694

[Difficulty]
HPDrainRate:7
CircleSize:8
OverallDifficulty:7
ApproachRate:5
SliderMultiplier:1.4
SliderTickRate:1

[Events]
//Background and Video events
0,0,"BG.png",0,0
//Break Periods
//Storyboard Layer 0 (Background)
//Storyboard Layer 1 (Fail)
//Storyboard Layer 2 (Pass)
//Storyboard Layer 3 (Foreground)
//Storyboard Sound Samples

[TimingPoints]
647,375,4,1,1,75,1,0
65147,-100,4,1,1,75,0,1
96647,-100,4,1,1,75,0,0

[HitObjects]
416,192,2147,5,0,0:0:0:0:
96,192,2147,1,2,0:0:0:0:
32,192,2147,1,4,0:0:0:0:
352,192,2709,1,0,0:0:0:0:
288,192,3084,1,0,0:0:0:0:
416,192,3272,1,0,0:0:0:0:
480,192,3834,1,0,0:0:0:0:
224,192,3834,1,0,0:0:0:0:
288,192,4397,1,0,0:0:0:0:
416,192,4584,1,0,0:0:0:0:
288,192,4772,1,0,0:0:0:0:
160,192,4959,1,0,0:0:0:0:
288,192,5522,1,0,0:0:0:0:
480,192,5522,1,0,0:0:0:0:
96,192,5897,1,0,0:0:0:0:
224,192,6084,1,0,0:0:0:0:
352,192,6272,1,0,0:0:0:0:
224,192,6459,1,0,0:0:0:0:
352,192,6647,1,0,0:0:0:0:
480,192,6647,1,0,0:0:0:0:
32,192,6647,1,0,0:0:0:0:
288,192,7209,1,0,0:0:0:0:
96,192,7584,1,0,0:0:0:0:
224,192,7772,1,0,0:0:0:0:
352,192,8334,1,0,0:0:0:0:
96,192,8334,1,0,0:0:0:0:
160,192,8897,1,0,0:0:0:0:
288,192,9084,1,0,0:0:0:0:
416,192,9272,1,0,0:0:0:0:
288,192,9459,1,0,0:0:0:0:
96,192,10022,1,0,0:0:0:0:
224,192,10209,1,0,0:0:0:0:
352,192,10397,1,0,0:0:0:0:
480,192,10584,1,0,0:0:0:0:
416,192,10772,1,0,0:0:0:0:
160,192,10772,1,0,0:0:0:0:
96,192,11147,1,0,0:0:0:0:
352,192,11147,1,0,0:0:0:0:
160,192,11709,1,0,0:0:0:0:
352,192,12084,1,0,0:0:0:0:
224,192,12272,1,0,0:0:0:0:
288,192,12834,1,0,0:0:0:0:
96,192,12834,1,0,0:0:0:0:
224,192,13397,1,0,0:0:0:0:
352,192,13584,1,0,0:0:0:0:
480,192,13772,1,0,0:0:0:0:
352,192,13959,1,0,0:0:0:0:
160,192,14334,1,0,0:0:0:0:
288,192,14522,1,0,0:0:0:0:
416,192,14522,1,0,0:0:0:0:
96,192,14897,1,0,0:0:0:0:
224,192,15084,1,0,0:0:0:0:
352,192,15272,1,0,0:0:0:0:
224,192,15459,1,0,0:0:0:0:
96,192,15647,1,0,0:0:0:0:
480,192,15647,1,0,0:0:0:0:
352,192,16209,1,0,0:0:0:0:
160,192,16584,1,0,0:0:0:0:
288,192,16772,1,0,0:0:0:0:
352,192,17334,1,0,0:0:0:0:
96,192,17334,1,0,0:0:0:0:
224,192,17897,1,0,0:0:0:0:
352,192,18084,1,0,0:0:0:0:
480,192,18272,1,0,0:0:0:0:
352,192,18459,1,0,0:0:0:0:
96,192,19022,1,0,0:0:0:0:
224,192,19022,1,0,0:0:0:0:
416,192,19397,1,0,0:0:0:0:
288,192,19584,1,0,0:0:0:0:
160,192,19772,1,0,0:0:0:0:
288,192,19959,1,0,0:0:0:0:
96,192,20147,1,0,0:0:0:0:
480,192,20147,1,0,0:0:0:0:
224,192,20709,1,0,0:0:0:0:
416,192,21084,1,0,0:0:0:0:
288,192,21272,1,0,0:0:0:0:
224,192,21834,1,0,0:0:0:0:
352,192,21834,1,0,0:0:0:0:
160,192,22397,1,0,0:0:0:0:
288,192,22584,1,0,0:0:0:0:
416,192,22772,1,0,0:0:0:0:
288,192,22959,1,0,0:0:0:0:
224,192,23522,1,0,0:0:0:0:
480,192,23522,1,0,0:0:0:0:
160,192,23897,1,0,0:0:0:0:
288,192,24084,1,0,0:0:0:0:
416,192,24272,1,0,0:0:0:0:
288,192,24459,1,0,0:0:0:0:
480,192,24647,1,0,0:0:0:0:
96,192,24647,1,0,0:0:0:0:
416,192,25209,1,0,0:0:0:0:
96,192,25584,1,0,0:0:0:0:
224,192,25772,1,0,0:0:0:0:
160,192,26334,1,0,0:0:0:0:
416,192,26334,1,0,0:0:0:0:
352,192,26897,1,0,0:0:0:0:
224,192,27084,1,0,0:0:0:0:
96,192,27272,1,0,0:0:0:0:
224,192,27459,1,0,0:0:0:0:
416,192,28022,1,0,0:0:0:0:
288,192,28022,1,0,0:0:0:0:
224,192,28397,1,0,0:0:0:0:
352,192,28584,1,0,0:0:0:0:
480,192,28772,1,0,0:0:0:0:
352,192,28959,1,0,0:0:0:0:
224,192,29147,1,0,0:0:0:0:
96,192,29147,1,0,0:0:0:0:
288,192,29709,1,0,0:0:0:0:
416,192,29709,1,0,0:0:0:0:
224,192,30272,1,0,0:0:0:0:
96,192,30272,1,0,0:0:0:0:
160,192,30834,1,0,0:0:0:0:
288,192,30834,1,0,0:0:0:0:
480,192,31397,1,0,0:0:0:0:
352,192,31584,1,0,0:0:0:0:
96,192,32147,1,0,0:0:0:0:
352,192,32334,1,0,0:0:0:0:
224,192,32522,1,0,0:0:0:0:
352,192,32709,1,0,0:0:0:0:
224,192,32897,1,0,0:0:0:0:
352,192,33084,1,0,0:0:0:0:
224,192,33272,1,0,0:0:0:0:
352,192,33459,1,0,0:0:0:0:
32,192,33647,1,4,0:0:0:0:
96,192,33647,1,2,0:0:0:0:
480,192,33647,128,0,35897:0:0:0:0:
352,192,35897,128,0,37022:0:0:0:0:
224,192,37022,128,0,38147:0:0:0:0:
416,192,38147,128,0,40397:0:0:0:0:
96,192,38147,1,0,0:0:0:0:
160,192,40397,128,0,41522:0:0:0:0:
480,192,41522,1,0,0:0:0:0:
352,192,41709,1,0,0:0:0:0:
96,192,41897,1,0,0:0:0:0:
224,192,42084,1,0,0:0:0:0:
416,192,42272,1,0,0:0:0:0:
288,192,42459,1,0,0:0:0:0:
32,192,42647,1,4,0:0:0:0:
352,192,42647,128,0,44897:0:0:0:0:
160,192,44897,128,0,46022:0:0:0:0:
352,192,46022,128,0,47147:0:0:0:0:
224,192,47147,1,0,0:0:0:0:
96,192,47147,128,0,49397:0:0:0:0:
288,192,49397,128,0,51647:0:0:0:0:
96,192,51647,1,0,0:0:0:0:
480,192,51647,1,0,0:0:0:0:
224,192,52022,128,0,54459:0:0:0:0:
416,192,54459,128,0,55022:0:0:0:0:
288,192,55022,128,0,55584:0:0:0:0:
160,192,55584,128,0,56147:0:0:0:0:
480,192,56147,128,0,58397:0:0:0:0:
96,192,56147,1,0,0:0:0:0:
160,192,58397,128,0,59522:0:0:0:0:
288,192,59522,128,0,60647:0:0:0:0:
352,192,60647,128,0,63647:0:0:0:0:
96,192,60647,1,0,0:0:0:0:
480,192,60647,1,0,0:0:0:0:
160,192,61209,1,0,0:0:0:0:
224,192,61772,1,0,0:0:0:0:
96,192,62334,1,0,0:0:0:0:
160,192,62897,1,0,0:0:0:0:
224,192,63084,1,0,0:0:0:0:
224,192,63834,1,0,0:0:0:0:
160,192,64022,1,0,0:0:0:0:
416,192,64022,1,0,0:0:0:0:
96,192,64397,1,2,0:0:0:0:
96,192,64772,1,2,0:0:0:0:
224,192,64959,1,2,0:0:0:0:
352,192,65147,1,0,0:0:0:0:
32,192,65147,1,4,0:0:0:0:
480,192,65147,1,0,0:0:0:0:
224,192,65709,1,0,0:0:0:0:
352,192,66084,1,0,0:0:0:0:
416,192,66272,1,0,0:0:0:0:
288,192,66272,1,0,0:0:0:0:
160,192,66834,1,0,0:0:0:0:
352,192,66834,1,0,0:0:0:0:
480,192,67397,1,0,0:0:0:0:
352,192,67584,1,0,0:0:0:0:
224,192,67772,1,0,0:0:0:0:
96,192,67959,1,0,0:0:0:0:
352,192,67959,1,0,0:0:0:0:
160,192,68522,1,0,0:0:0:0:
416,192,68522,1,0,0:0:0:0:
352,192,68897,1,0,0:0:0:0:
224,192,69084,1,0,0:0:0:0:
416,192,69272,1,0,0:0:0:0:
288,192,69459,1,0,0:0:0:0:
96,192,69647,1,2,0:0:0:0:
352,192,69647,1,0,0:0:0:0:
224,192,69647,1,0,0:0:0:0:
160,192,70209,1,0,0:0:0:0:
288,192,70584,1,0,0:0:0:0:
224,192,70772,1,0,0:0:0:0:
352,192,70772,1,0,0:0:0:0:
288,192,71334,1,0,0:0:0:0:
416,192,71334,1,0,0:0:0:0:
352,192,71897,1,0,0:0:0:0:
224,192,72084,1,0,0:0:0:0:
96,192,72272,1,0,0:0:0:0:
288,192,72459,1,0,0:0:0:0:
416,192,72459,1,0,0:0:0:0:
480,192,73022,1,0,0:0:0:0:
96,192,73022,1,0,0:0:0:0:
224,192,73209,1,0,0:0:0:0:
160,192,73397,1,0,0:0:0:0:
416,192,73397,1,0,0:0:0:0:
352,192,73584,1,0,0:0:0:0:
224,192,73772,1,0,0:0:0:0:
352,192,73959,1,0,0:0:0:0:
32,192,74147,1,4,0:0:0:0:
480,192,74147,1,0,0:0:0:0:
96,192,74147,1,2,0:0:0:0:
160,192,74709,1,0,0:0:0:0:
288,192,75084,1,0,0:0:0:0:
416,192,75272,1,0,0:0:0:0:
224,192,75272,1,0,0:0:0:0:
96,192,75834,1,0,0:0:0:0:
288,192,75834,1,0,0:0:0:0:
96,192,76397,1,0,0:0:0:0:
224,192,76584,1,0,0:0:0:0:
352,192,76772,1,0,0:0:0:0:
480,192,76959,1,0,0:0:0:0:
224,192,76959,1,0,0:0:0:0:
160,192,77522,1,0,0:0:0:0:
416,192,77522,1,0,0:0:0:0:
96,192,77897,1,0,0:0:0:0:
224,192,78084,1,0,0:0:0:0:
416,192,78272,1,0,0:0:0:0:
288,192,78459,1,0,0:0:0:0:
96,192,78647,1,2,0:0:0:0:
480,192,78647,1,0,0:0:0:0:
224,192,78647,1,0,0:0:0:0:
352,192,79209,1,0,0:0:0:0:
224,192,79584,1,0,0:0:0:0:
96,192,79772,1,0,0:0:0:0:
288,192,79772,1,0,0:0:0:0:
160,192,80334,1,0,0:0:0:0:
352,192,80334,1,0,0:0:0:0:
224,192,80897,1,0,0:0:0:0:
352,192,81084,1,0,0:0:0:0:
480,192,81272,1,0,0:0:0:0:
224,192,81459,1,0,0:0:0:0:
96,192,81459,1,0,0:0:0:0:
416,192,82022,1,0,0:0:0:0:
160,192,82022,1,0,0:0:0:0:
96,192,82397,1,0,0:0:0:0:
352,192,82397,1,0,0:0:0:0:
288,192,82584,1,0,0:0:0:0:
416,192,82772,1,0,0:0:0:0:
224,192,82959,1,0,0:0:0:0:
32,192,83147,1,4,0:0:0:0:
480,192,83147,1,0,0:0:0:0:
96,192,83147,1,2,0:0:0:0:
224,192,83709,1,0,0:0:0:0:
416,192,84084,1,0,0:0:0:0:
480,192,84272,1,0,0:0:0:0:
288,192,84272,1,0,0:0:0:0:
96,192,84834,1,0,0:0:0:0:
224,192,84834,1,0,0:0:0:0:
480,192,85397,1,0,0:0:0:0:
352,192,85584,1,0,0:0:0:0:
224,192,85772,1,0,0:0:0:0:
96,192,85959,1,0,0:0:0:0:
352,192,85959,1,0,0:0:0:0:
224,192,86522,1,0,0:0:0:0:
480,192,86522,1,0,0:0:0:0:
416,192,86897,1,0,0:0:0:0:
288,192,87084,1,0,0:0:0:0:
96,192,87272,1,0,0:0:0:0:
224,192,87459,1,0,0:0:0:0:
96,192,87647,1,2,0:0:0:0:
352,192,87647,1,0,0:0:0:0:
480,192,87647,1,0,0:0:0:0:
416,192,88209,1,0,0:0:0:0:
224,192,88584,1,0,0:0:0:0:
160,192,88772,1,0,0:0:0:0:
352,192,88772,1,0,0:0:0:0:
96,192,89334,1,0,0:0:0:0:
416,192,89334,1,0,0:0:0:0:
224,192,89897,1,0,0:0:0:0:
352,192,90084,1,0,0:0:0:0:
96,192,90272,1,0,0:0:0:0:
160,192,90459,1,0,0:0:0:0:
288,192,90459,1,0,0:0:0:0:
480,192,91022,1,0,0:0:0:0:
352,192,91022,1,0,0:0:0:0:
224,192,91397,1,0,0:0:0:0:
96,192,91397,1,0,0:0:0:0:
352,192,91584,1,0,0:0:0:0:
160,192,91772,1,0,0:0:0:0:
288,192,91959,1,0,0:0:0:0:
32,192,92147,1,4,0:0:0:0:
96,192,92147,1,2,0:0:0:0:
160,192,92709,1,0,0:0:0:0:
224,192,93272,1,0,0:0:0:0:
288,192,93647,1,0,0:0:0:0:
416,192,93834,1,0,0:0:0:0:
416,192,94209,1,0,0:0:0:0:
160,192,94584,1,0,0:0:0:0:
288,192,94772,1,0,0:0:0:0:
416,192,94959,1,0,0:0:0:0:
160,192,95147,1,0,0:0:0:0:
416,192,95334,1,0,0:0:0:0:
160,192,95522,1,0,0:0:0:0:
352,192,95709,1,0,0:0:0:0:
224,192,95897,1,0,0:0:0:0:
352,192,96084,1,0,0:0:0:0:
224,192,96272,1,0,0:0:0:0:
352,192,96459,1,0,0:0:0:0:
32,192,96647,1,4,0:0:0:0:
96,192,96647,1,2,0:0:0:0:
288,192,97209,1,0,0:0:0:0:
160,192,97397,1,0,0:0:0:0:
352,192,97772,1,0,0:0:0:0:
96,192,98147,1,0,0:0:0:0:
416,192,98897,1,0,0:0:0:0:
224,192,99647,1,0,0:0:0:0:
416,192,100209,1,0,0:0:0:0:
288,192,100397,1,0,0:0:0:0:
96,192,101147,1,0,0:0:0:0:
480,192,101147,1,0,0:0:0:0:
160,192,101897,1,0,0:0:0:0:
352,192,102272,1,0,0:0:0:0:
224,192,102647,1,0,0:0:0:0:
352,192,103209,1,0,0:0:0:0:
480,192,103397,1,0,0:0:0:0:
224,192,104147,1,0,0:0:0:0:
160,192,104709,1,0,0:0:0:0:
288,192,104897,1,0,0:0:0:0:
32,192,105647,1,4,0:0:0:0:
96,192,105647,1,2,0:0:0:0:
416,192,105647,1,0,0:0:0:0:
288,192,106209,1,0,0:0:0:0:
160,192,106397,1,0,0:0:0:0:
352,192,106772,1,0,0:0:0:0:
416,192,107147,1,0,0:0:0:0:
352,192,107709,1,0,0:0:0:0:
224,192,107897,1,0,0:0:0:0:
160,192,108647,1,0,0:0:0:0:
416,192,109209,1,0,0:0:0:0:
288,192,109397,1,0,0:0:0:0:
224,192,109772,1,0,0:0:0:0:
352,192,109772,1,0,0:0:0:0:
480,192,110147,1,0,0:0:0:0:
96,192,110147,1,0,0:0:0:0:
416,192,110709,1,0,0:0:0:0:
288,192,110897,1,0,0:0:0:0:
224,192,111272,1,0,0:0:0:0:
352,192,111647,1,0,0:0:0:0:
160,192,112209,1,0,0:0:0:0:
352,192,112397,1,2,0:0:0:0:
224,192,112584,1,2,0:0:0:0:
480,192,112772,1,2,0:0:0:0:
96,192,112959,1,2,0:0:0:0:
352,192,113147,1,2,0:0:0:0:
224,192,113334,1,2,0:0:0:0:
480,192,113522,5,2,0:0:0:0:
96,192,113709,1,2,0:0:0:0:
352,192,113897,1,2,0:0:0:0:
224,192,114084,1,2,0:0:0:0:
480,192,114272,1,2,0:0:0:0:
288,192,114459,1,0,0:0:0:0:
32,192,114647,5,4,0:0:0:0:
