osu file format v14

[General]
AudioFilename: audio.mp3
AudioLeadIn: 0
PreviewTime: 70387
Countdown: 0
SampleSet: Normal
StackLeniency: 0.7
Mode: 1
LetterboxInBreaks: 0
WidescreenStoryboard: 1

[Editor]
Bookmarks: 569,3606,15758,18796,30948,43100,55252,67404,70442,94746,106898,109936,112974
DistanceSpacing: 0.2
BeatDivisor: 6
GridSize: 32
TimelineZoom: 1.800001

[Metadata]
Title:Avalon no Oka
TitleUnicode:アヴァロンの丘
Artist:Nekomata Master
ArtistUnicode:猫叉Master
Creator:Irone OSU
Version:iRedi's Oni
Source:REFLEC BEAT groovin'!!
Tags:ph0eniixz phoeniixz phoenix Fynbi FiNNb iRedi folk rhythm video game instrumental excalibur REFLEC BEAT plus MUSIC PACK 63 Naoyuki Sato Maya Takamura Hill of mapping to pander: taiko m2p #4 m2p#4
BeatmapID:3996276
BeatmapSetID:1930398

[Difficulty]
HPDrainRate:6
CircleSize:2
OverallDifficulty:6
ApproachRate:10
SliderMultiplier:1.6
SliderTickRate:1

[Events]
//Background and Video events
0,0,"103148226_p0.jpg",0,0
//Break Periods
//Storyboard Layer 0 (Background)
//Storyboard Layer 1 (Fail)
//Storyboard Layer 2 (Pass)
//Storyboard Layer 3 (Foreground)
//Storyboard Layer 4 (Overlay)
//Storyboard Sound Samples

[TimingPoints]
577,379.746835443038,4,1,0,60,1,0
3678,-100,4,1,0,70,0,0
9754,-100,4,1,0,80,0,0
15830,-100,4,1,0,70,0,0
18741,-100,4,1,0,80,0,0
31020,-100,4,1,0,60,0,0
37095,-100,4,1,0,70,0,0
43171,-100,4,1,0,80,0,0
55323,-100,4,1,0,70,0,0
61399,-100,4,1,0,80,0,0
67475,-100,4,1,0,60,0,0
67660,-100,4,1,0,60,0,0
67787,-100,4,1,0,61,0,0
67913,-100,4,1,0,62,0,0
68040,-100,4,1,0,63,0,0
68166,-100,4,1,0,64,0,0
68293,-100,4,1,0,65,0,0
68420,-100,4,1,0,66,0,0
68546,-100,4,1,0,67,0,0
68673,-100,4,1,0,68,0,0
68799,-100,4,1,0,69,0,0
68926,-100,4,1,0,87,0,0
69053,-100,4,1,0,72,0,0
69116,-100,4,1,0,72,0,0
69179,-100,4,1,0,73,0,0
69306,-100,4,1,0,90,0,0
69432,-100,4,1,0,75,0,0
69496,-100,4,1,0,75,0,0
69559,-100,4,1,0,76,0,0
69685,-100,4,1,0,93,0,0
69812,-100,4,1,0,78,0,0
69939,-100,4,1,0,79,0,0
70065,-100,4,1,0,96,0,0
70387,-100,4,1,0,90,0,0
70450,-100,4,1,0,90,0,1
85640,-100,4,1,0,90,0,0
85703,-100,4,1,0,80,0,0
88678,-100,4,1,0,90,0,1
94754,-100,4,1,0,90,0,0
94817,-100,4,1,0,70,0,0
100893,-100,4,1,0,80,0,0
102217,-100,4,1,0,70,0,0
109880,-100,4,1,0,90,0,0

[HitObjects]
256,192,577,5,0,0:0:0:0:
256,192,830,1,0,0:0:0:0:
256,192,956,1,8,0:0:0:0:
256,192,1209,1,0,0:0:0:0:
256,192,1336,1,8,0:0:0:0:
256,192,1589,1,8,0:0:0:0:
256,192,1716,1,0,0:0:0:0:
256,192,2095,1,8,0:0:0:0:
256,192,2349,1,0,0:0:0:0:
256,192,2475,1,8,0:0:0:0:
256,192,2728,1,0,0:0:0:0:
256,192,2855,1,0,0:0:0:0:
256,192,3108,1,0,0:0:0:0:
256,192,3235,1,8,0:0:0:0:
512,0,3614,1,12,0:0:0:0:
256,192,3868,1,0,0:0:0:0:
256,192,3994,1,0,0:0:0:0:
256,192,4121,1,8,0:0:0:0:
256,192,4247,1,8,0:0:0:0:
256,192,4374,1,0,0:0:0:0:
256,192,4627,1,8,0:0:0:0:
256,192,4754,1,0,0:0:0:0:
256,192,5007,1,0,0:0:0:0:
256,192,5133,1,8,0:0:0:0:
256,192,5387,1,0,0:0:0:0:
256,192,5513,1,0,0:0:0:0:
256,192,5640,1,8,0:0:0:0:
256,192,5766,1,0,0:0:0:0:
256,192,5893,1,8,0:0:0:0:
256,192,6146,1,8,0:0:0:0:
256,192,6273,1,0,0:0:0:0:
256,192,6652,1,8,0:0:0:0:
256,192,6906,1,8,0:0:0:0:
256,192,7032,1,8,0:0:0:0:
256,192,7159,1,0,0:0:0:0:
256,192,7285,1,8,0:0:0:0:
256,192,7412,1,0,0:0:0:0:
256,192,7665,1,8,0:0:0:0:
256,192,7792,1,0,0:0:0:0:
256,192,8045,1,8,0:0:0:0:
256,192,8171,1,0,0:0:0:0:
256,192,8298,1,8,0:0:0:0:
256,192,8425,1,8,0:0:0:0:
256,192,8551,1,8,0:0:0:0:
256,192,8804,1,0,0:0:0:0:
256,192,8931,1,8,0:0:0:0:
256,192,9058,1,0,0:0:0:0:
256,192,9184,1,0,0:0:0:0:
256,192,9311,1,0,0:0:0:0:
256,192,9690,1,8,0:0:0:0:
256,192,9944,1,0,0:0:0:0:
256,192,10070,1,8,0:0:0:0:
256,192,10197,1,0,0:0:0:0:
256,192,10323,1,8,0:0:0:0:
256,192,10450,1,8,0:0:0:0:
256,192,10577,1,0,0:0:0:0:
256,192,10703,1,8,0:0:0:0:
256,192,10830,1,0,0:0:0:0:
256,192,11083,1,0,0:0:0:0:
256,192,11209,1,8,0:0:0:0:
256,192,11463,1,0,0:0:0:0:
256,192,11589,1,8,0:0:0:0:
256,192,11716,1,0,0:0:0:0:
256,192,11842,1,0,0:0:0:0:
256,192,11969,1,8,0:0:0:0:
256,192,12096,1,8,0:0:0:0:
256,192,12222,1,0,0:0:0:0:
256,192,12349,1,8,0:0:0:0:
256,192,12728,1,8,0:0:0:0:
256,192,12982,1,0,0:0:0:0:
256,192,13108,1,0,0:0:0:0:
256,192,13235,1,8,0:0:0:0:
256,192,13361,1,8,0:0:0:0:
256,192,13488,1,0,0:0:0:0:
256,192,13615,1,8,0:0:0:0:
256,192,13741,1,0,0:0:0:0:
256,192,13868,1,8,0:0:0:0:
256,192,14121,1,0,0:0:0:0:
256,192,14247,1,8,0:0:0:0:
256,192,14374,1,8,0:0:0:0:
256,192,14501,1,8,0:0:0:0:
256,192,14627,1,8,0:0:0:0:
256,192,14754,1,0,0:0:0:0:
256,192,14880,1,0,0:0:0:0:
256,192,15007,1,8,0:0:0:0:
256,192,15070,1,8,0:0:0:0:
256,192,15134,1,0,0:0:0:0:
256,192,15260,1,8,0:0:0:0:
256,192,15387,1,0,0:0:0:0:
256,192,15640,1,0,0:0:0:0:
512,0,15766,1,12,0:0:0:0:
256,192,16020,1,0,0:0:0:0:
256,192,16146,1,0,0:0:0:0:
256,192,16399,1,0,0:0:0:0:
256,192,16526,1,8,0:0:0:0:
256,192,16652,1,8,0:0:0:0:
256,192,16779,1,0,0:0:0:0:
256,192,16906,1,0,0:0:0:0:
256,192,17159,1,8,0:0:0:0:
512,0,17285,1,4,0:0:0:0:
256,192,17539,1,0,0:0:0:0:
256,192,17665,1,8,0:0:0:0:
256,192,17792,1,8,0:0:0:0:
256,192,17918,1,0,0:0:0:0:
512,0,18045,1,12,0:0:0:0:
256,192,18298,1,0,0:0:0:0:
512,0,18425,1,12,0:0:0:0:
256,192,18678,1,8,0:0:0:0:
512,0,18804,1,4,0:0:0:0:
256,192,19058,1,8,0:0:0:0:
256,192,19184,1,8,0:0:0:0:
256,192,19564,1,0,0:0:0:0:
256,192,19817,1,0,0:0:0:0:
256,192,19944,1,8,0:0:0:0:
256,192,20070,1,8,0:0:0:0:
256,192,20197,1,0,0:0:0:0:
256,192,20323,1,8,0:0:0:0:
256,192,20577,1,0,0:0:0:0:
256,192,20703,1,8,0:0:0:0:
256,192,20956,1,8,0:0:0:0:
256,192,21083,1,0,0:0:0:0:
256,192,21209,1,8,0:0:0:0:
256,192,21336,1,0,0:0:0:0:
256,192,21463,1,0,0:0:0:0:
256,192,21716,1,0,0:0:0:0:
256,192,21842,1,8,0:0:0:0:
256,192,21969,1,0,0:0:0:0:
256,192,22095,1,0,0:0:0:0:
256,192,22222,1,8,0:0:0:0:
256,192,22602,1,0,0:0:0:0:
256,192,22728,1,0,0:0:0:0:
256,192,22855,1,8,0:0:0:0:
256,192,22982,1,8,0:0:0:0:
256,192,23108,1,0,0:0:0:0:
256,192,23235,1,0,0:0:0:0:
256,192,23361,1,8,0:0:0:0:
256,192,23614,1,0,0:0:0:0:
256,192,23741,1,8,0:0:0:0:
256,192,23867,1,0,0:0:0:0:
256,192,23994,1,8,0:0:0:0:
256,192,24121,1,0,0:0:0:0:
256,192,24247,1,0,0:0:0:0:
256,192,24374,1,8,0:0:0:0:
256,192,24501,1,8,0:0:0:0:
256,192,24754,1,8,0:0:0:0:
512,0,24880,1,4,0:0:0:0:
256,192,25134,1,8,0:0:0:0:
256,192,25260,1,8,0:0:0:0:
256,192,25640,1,0,0:0:0:0:
256,192,25893,1,0,0:0:0:0:
256,192,26020,1,8,0:0:0:0:
256,192,26146,1,8,0:0:0:0:
256,192,26273,1,0,0:0:0:0:
256,192,26399,1,0,0:0:0:0:
256,192,26653,1,8,0:0:0:0:
256,192,26779,1,0,0:0:0:0:
256,192,26906,1,8,0:0:0:0:
256,192,27032,1,8,0:0:0:0:
256,192,27159,1,8,0:0:0:0:
256,192,27285,1,0,0:0:0:0:
256,192,27412,1,8,0:0:0:0:
256,192,27539,1,0,0:0:0:0:
256,192,27792,1,0,0:0:0:0:
256,192,27918,1,8,0:0:0:0:
256,192,28045,1,0,0:0:0:0:
256,192,28171,1,0,0:0:0:0:
256,192,28298,1,8,0:0:0:0:
256,192,28678,1,0,0:0:0:0:
256,192,28804,1,8,0:0:0:0:
256,192,28931,1,0,0:0:0:0:
256,192,29058,1,8,0:0:0:0:
256,192,29184,1,8,0:0:0:0:
256,192,29311,1,0,0:0:0:0:
256,192,29437,1,8,0:0:0:0:
256,192,29690,1,8,0:0:0:0:
256,192,29817,1,0,0:0:0:0:
256,192,29943,1,0,0:0:0:0:
256,192,30070,1,8,0:0:0:0:
256,192,30197,1,0,0:0:0:0:
256,192,30323,1,8,0:0:0:0:
256,192,30450,1,8,0:0:0:0:
256,192,30577,1,0,0:0:0:0:
256,192,30703,1,8,0:0:0:0:
256,192,30830,1,0,0:0:0:0:
512,0,30956,1,12,0:0:0:0:
512,0,31336,1,12,0:0:0:0:
512,0,31716,1,4,0:0:0:0:
256,192,31969,1,0,0:0:0:0:
256,192,32095,1,8,0:0:0:0:
256,192,32222,1,0,0:0:0:0:
256,192,32349,1,0,0:0:0:0:
256,192,32475,1,8,0:0:0:0:
256,192,32728,1,8,0:0:0:0:
256,192,32855,1,0,0:0:0:0:
256,192,33108,1,0,0:0:0:0:
256,192,33235,1,0,0:0:0:0:
256,192,33488,1,8,0:0:0:0:
256,192,33614,1,8,0:0:0:0:
256,192,33868,1,8,0:0:0:0:
512,0,33994,1,4,0:0:0:0:
512,0,34374,1,12,0:0:0:0:
512,0,34754,1,4,0:0:0:0:
256,192,35133,1,0,0:0:0:0:
256,192,35260,1,0,0:0:0:0:
256,192,35387,1,8,0:0:0:0:
256,192,35513,1,8,0:0:0:0:
256,192,35766,1,0,0:0:0:0:
256,192,35893,1,0,0:0:0:0:
256,192,36146,1,8,0:0:0:0:
256,192,36273,1,0,0:0:0:0:
256,192,36526,1,8,0:0:0:0:
256,192,36652,1,8,0:0:0:0:
256,192,36906,1,0,0:0:0:0:
512,0,37032,1,12,0:0:0:0:
256,192,37412,1,8,0:0:0:0:
256,192,37539,1,0,0:0:0:0:
256,192,37665,1,0,0:0:0:0:
256,192,37792,1,8,0:0:0:0:
256,192,38045,1,0,0:0:0:0:
256,192,38171,1,8,0:0:0:0:
256,192,38425,1,8,0:0:0:0:
256,192,38551,1,0,0:0:0:0:
256,192,38678,1,8,0:0:0:0:
256,192,38804,1,8,0:0:0:0:
256,192,38931,1,8,0:0:0:0:
256,192,39184,1,0,0:0:0:0:
256,192,39311,1,8,0:0:0:0:
256,192,39437,1,0,0:0:0:0:
256,192,39564,1,8,0:0:0:0:
256,192,39690,1,8,0:0:0:0:
256,192,39944,1,8,0:0:0:0:
256,192,40070,1,0,0:0:0:0:
256,192,40323,1,0,0:0:0:0:
256,192,40450,1,8,0:0:0:0:
256,192,40703,1,0,0:0:0:0:
256,192,40830,1,8,0:0:0:0:
256,192,40956,1,8,0:0:0:0:
256,192,41083,1,0,0:0:0:0:
256,192,41209,1,0,0:0:0:0:
256,192,41463,1,0,0:0:0:0:
512,0,41589,1,12,0:0:0:0:
256,192,42349,1,0,0:0:0:0:
256,192,42602,1,8,0:0:0:0:
256,192,42728,1,8,0:0:0:0:
256,192,42982,1,0,0:0:0:0:
512,0,43108,1,12,0:0:0:0:
256,192,43488,1,8,0:0:0:0:
256,192,43614,1,0,0:0:0:0:
256,192,43678,1,0,0:0:0:0:
256,192,43741,1,8,0:0:0:0:
256,192,43868,1,0,0:0:0:0:
256,192,44121,1,0,0:0:0:0:
256,192,44247,1,8,0:0:0:0:
256,192,44374,1,0,0:0:0:0:
256,192,44501,1,8,0:0:0:0:
256,192,44627,1,8,0:0:0:0:
256,192,44880,1,0,0:0:0:0:
256,192,45007,1,8,0:0:0:0:
256,192,45133,1,8,0:0:0:0:
256,192,45260,1,0,0:0:0:0:
256,192,45387,1,8,0:0:0:0:
256,192,45513,1,0,0:0:0:0:
256,192,45640,1,8,0:0:0:0:
256,192,45766,1,8,0:0:0:0:
256,192,46020,1,0,0:0:0:0:
256,192,46146,1,8,0:0:0:0:
256,192,46526,1,8,0:0:0:0:
256,192,46652,1,0,0:0:0:0:
256,192,46716,1,0,0:0:0:0:
256,192,46779,1,8,0:0:0:0:
256,192,46906,1,0,0:0:0:0:
256,192,47159,1,0,0:0:0:0:
256,192,47285,1,8,0:0:0:0:
256,192,47539,1,8,0:0:0:0:
256,192,47665,1,8,0:0:0:0:
256,192,47918,1,0,0:0:0:0:
256,192,48045,1,8,0:0:0:0:
256,192,48171,1,8,0:0:0:0:
256,192,48298,1,8,0:0:0:0:
256,192,48425,1,0,0:0:0:0:
256,192,48678,1,0,0:0:0:0:
256,192,48804,1,8,0:0:0:0:
256,192,49058,1,8,0:0:0:0:
512,0,49184,1,4,0:0:0:0:
256,192,49564,1,8,0:0:0:0:
256,192,49690,1,0,0:0:0:0:
256,192,49754,1,0,0:0:0:0:
256,192,49817,1,8,0:0:0:0:
256,192,49944,1,0,0:0:0:0:
256,192,50197,1,0,0:0:0:0:
256,192,50323,1,8,0:0:0:0:
256,192,50577,1,0,0:0:0:0:
256,192,50703,1,8,0:0:0:0:
256,192,50830,1,8,0:0:0:0:
256,192,50956,1,8,0:0:0:0:
256,192,51083,1,8,0:0:0:0:
256,192,51336,1,0,0:0:0:0:
256,192,51463,1,8,0:0:0:0:
256,192,51589,1,8,0:0:0:0:
256,192,51716,1,0,0:0:0:0:
256,192,51842,1,0,0:0:0:0:
256,192,52096,1,0,0:0:0:0:
256,192,52222,1,8,0:0:0:0:
256,192,52475,1,8,0:0:0:0:
256,192,52539,1,0,0:0:0:0:
256,192,52602,1,8,0:0:0:0:
256,192,52855,1,0,0:0:0:0:
256,192,52982,1,8,0:0:0:0:
256,192,53108,1,0,0:0:0:0:
256,192,53235,1,8,0:0:0:0:
256,192,53361,1,8,0:0:0:0:
256,192,53615,1,0,0:0:0:0:
256,192,53741,1,0,0:0:0:0:
256,192,53868,1,8,0:0:0:0:
256,192,53931,1,8,0:0:0:0:
256,192,53994,1,0,0:0:0:0:
256,192,54121,1,8,0:0:0:0:
256,192,54374,1,0,0:0:0:0:
256,192,54501,1,8,0:0:0:0:
256,192,54754,1,8,0:0:0:0:
256,192,54880,1,8,0:0:0:0:
256,192,55134,1,8,0:0:0:0:
512,0,55260,1,4,0:0:0:0:
256,192,55640,1,8,0:0:0:0:
256,192,55893,1,8,0:0:0:0:
256,192,56020,1,0,0:0:0:0:
256,192,56273,1,0,0:0:0:0:
256,192,56399,1,8,0:0:0:0:
256,192,56526,1,0,0:0:0:0:
256,192,56652,1,0,0:0:0:0:
256,192,56779,1,8,0:0:0:0:
256,192,56906,1,8,0:0:0:0:
256,192,57032,1,0,0:0:0:0:
256,192,57159,1,8,0:0:0:0:
256,192,57412,1,8,0:0:0:0:
256,192,57539,1,0,0:0:0:0:
256,192,57665,1,8,0:0:0:0:
256,192,57728,1,8,0:0:0:0:
256,192,57792,1,0,0:0:0:0:
256,192,57918,1,0,0:0:0:0:
256,192,58171,1,0,0:0:0:0:
512,0,58298,1,12,0:0:0:0:
256,192,58678,1,8,0:0:0:0:
256,192,58931,1,8,0:0:0:0:
256,192,59058,1,0,0:0:0:0:
256,192,59311,1,0,0:0:0:0:
256,192,59437,1,8,0:0:0:0:
256,192,59564,1,0,0:0:0:0:
256,192,59690,1,0,0:0:0:0:
256,192,59817,1,8,0:0:0:0:
256,192,59944,1,0,0:0:0:0:
256,192,60070,1,8,0:0:0:0:
256,192,60197,1,8,0:0:0:0:
256,192,60450,1,0,0:0:0:0:
256,192,60577,1,0,0:0:0:0:
256,192,60703,1,8,0:0:0:0:
256,192,60766,1,8,0:0:0:0:
256,192,60830,1,0,0:0:0:0:
256,192,60956,1,8,0:0:0:0:
256,192,61209,1,8,0:0:0:0:
512,0,61336,1,4,0:0:0:0:
256,192,61716,1,8,0:0:0:0:
256,192,61969,1,8,0:0:0:0:
256,192,62095,1,8,0:0:0:0:
256,192,62349,1,0,0:0:0:0:
256,192,62475,1,0,0:0:0:0:
256,192,62602,1,8,0:0:0:0:
256,192,62728,1,0,0:0:0:0:
256,192,62855,1,8,0:0:0:0:
256,192,63108,1,0,0:0:0:0:
256,192,63235,1,8,0:0:0:0:
256,192,63488,1,0,0:0:0:0:
256,192,63614,1,8,0:0:0:0:
256,192,63741,1,0,0:0:0:0:
256,192,63804,1,8,0:0:0:0:
256,192,63868,1,0,0:0:0:0:
256,192,63994,1,0,0:0:0:0:
256,192,64247,1,0,0:0:0:0:
256,192,64374,1,8,0:0:0:0:
256,192,64754,1,8,0:0:0:0:
256,192,65007,1,0,0:0:0:0:
256,192,65133,1,0,0:0:0:0:
256,192,65387,1,0,0:0:0:0:
256,192,65513,1,8,0:0:0:0:
256,192,65766,1,0,0:0:0:0:
256,192,65893,1,8,0:0:0:0:
256,192,66020,1,8,0:0:0:0:
256,192,66146,1,0,0:0:0:0:
256,192,66273,1,8,0:0:0:0:
256,192,66526,1,0,0:0:0:0:
256,192,66652,1,8,0:0:0:0:
256,192,66779,1,8,0:0:0:0:
256,192,66906,1,8,0:0:0:0:
256,192,67032,1,0,0:0:0:0:
256,192,67285,1,0,0:0:0:0:
512,0,67412,1,12,0:0:0:0:
256,192,67665,1,8,0:0:0:0:
256,192,67792,1,0,0:0:0:0:
256,192,67918,1,0,0:0:0:0:
256,192,68044,1,0,0:0:0:0:
256,192,68171,1,8,0:0:0:0:
256,192,68425,1,0,0:0:0:0:
256,192,68551,1,8,0:0:0:0:
256,192,68804,1,0,0:0:0:0:
256,192,68931,1,8,0:0:0:0:
256,192,68994,1,8,0:0:0:0:
256,192,69058,1,8,0:0:0:0:
256,192,69184,1,0,0:0:0:0:
256,192,69311,1,8,0:0:0:0:
256,192,69564,1,0,0:0:0:0:
256,192,69690,1,8,0:0:0:0:
256,192,69817,1,0,0:0:0:0:
256,192,69944,1,8,0:0:0:0:
256,192,70070,1,8,0:0:0:0:
512,0,70450,1,4,0:0:0:0:
256,192,70577,1,8,0:0:0:0:
256,192,70640,1,8,0:0:0:0:
256,192,70703,1,0,0:0:0:0:
256,192,70830,1,8,0:0:0:0:
256,192,71083,1,0,0:0:0:0:
256,192,71209,1,8,0:0:0:0:
256,192,71336,1,8,0:0:0:0:
256,192,71463,1,0,0:0:0:0:
256,192,71589,1,0,0:0:0:0:
256,192,71842,1,0,0:0:0:0:
256,192,71969,1,8,0:0:0:0:
256,192,72096,1,0,0:0:0:0:
256,192,72159,1,0,0:0:0:0:
256,192,72222,1,8,0:1:0:0:
256,192,72349,1,8,0:0:0:0:
256,192,72602,1,0,0:0:0:0:
256,192,72728,1,8,0:0:0:0:
256,192,72855,1,8,0:0:0:0:
256,192,72982,1,0,0:0:0:0:
256,192,73108,1,0,0:0:0:0:
256,192,73361,1,0,0:0:0:0:
256,192,73488,1,8,0:0:0:0:
256,192,73741,1,8,0:0:0:0:
256,192,73868,1,8,0:0:0:0:
256,192,74121,1,0,0:0:0:0:
256,192,74247,1,8,0:0:0:0:
256,192,74374,1,8,0:0:0:0:
256,192,74501,1,0,0:0:0:0:
256,192,74627,1,8,0:0:0:0:
256,192,74754,1,0,0:0:0:0:
256,192,74817,1,0,0:0:0:0:
256,192,74880,1,8,0:0:0:0:
256,192,75007,1,0,0:0:0:0:
256,192,75260,1,8,0:0:0:0:
256,192,75387,1,8,0:0:0:0:
256,192,75640,1,0,0:0:0:0:
256,192,75766,1,8,0:0:0:0:
256,192,75893,1,0,0:0:0:0:
256,192,76020,1,8,0:0:0:0:
256,192,76146,1,8,0:0:0:0:
256,192,76273,1,0,0:0:0:0:
256,192,76399,1,8,0:0:0:0:
512,0,76526,1,4,0:0:0:0:
256,192,76906,1,0,0:0:0:0:
256,192,77159,1,0,0:0:0:0:
256,192,77285,1,8,0:0:0:0:
256,192,77539,1,0,0:0:0:0:
256,192,77665,1,8,0:0:0:0:
256,192,77918,1,0,0:0:0:0:
256,192,78045,1,8,0:0:0:0:
256,192,78171,1,8,0:0:0:0:
256,192,78235,1,8,0:0:0:0:
256,192,78298,1,0,0:0:0:0:
256,192,78425,1,8,0:0:0:0:
256,192,78678,1,0,0:0:0:0:
256,192,78804,1,8,0:0:0:0:
256,192,78931,1,8,0:0:0:0:
256,192,79058,1,0,0:0:0:0:
256,192,79184,1,0,0:0:0:0:
256,192,79437,1,0,0:0:0:0:
512,0,79564,1,12,0:0:0:0:
256,192,79944,1,0,0:0:0:0:
256,192,80197,1,0,0:0:0:0:
256,192,80323,1,8,0:0:0:0:
256,192,80577,1,0,0:0:0:0:
256,192,80703,1,8,0:0:0:0:
256,192,80956,1,0,0:0:0:0:
256,192,81083,1,8,0:0:0:0:
256,192,81209,1,8,0:0:0:0:
256,192,81273,1,8,0:0:0:0:
256,192,81336,1,0,0:0:0:0:
256,192,81463,1,8,0:0:0:0:
256,192,81716,1,0,0:0:0:0:
256,192,81842,1,8,0:0:0:0:
256,192,81969,1,8,0:0:0:0:
256,192,82096,1,8,0:0:0:0:
256,192,82222,1,0,0:0:0:0:
512,0,82602,1,4,0:0:0:0:
256,192,82729,1,8,0:0:0:0:
256,192,82792,1,8,0:0:0:0:
256,192,82855,1,0,0:0:0:0:
256,192,82982,1,8,0:0:0:0:
256,192,83235,1,8,0:0:0:0:
256,192,83361,1,0,0:0:0:0:
256,192,83488,1,8,0:0:0:0:
256,192,83615,1,8,0:0:0:0:
256,192,83741,1,0,0:0:0:0:
256,192,83994,1,0,0:0:0:0:
256,192,84121,1,8,0:0:0:0:
256,192,84248,1,0,0:0:0:0:
256,192,84311,1,0,0:0:0:0:
256,192,84374,1,8,0:0:0:0:
256,192,84501,1,0,0:0:0:0:
256,192,84754,1,0,0:0:0:0:
256,192,84880,1,0,0:0:0:0:
256,192,85007,1,8,0:0:0:0:
256,192,85134,1,0,0:0:0:0:
256,192,85260,1,8,0:0:0:0:
256,192,85513,1,0,0:0:0:0:
512,0,85640,1,12,0:0:0:0:
256,192,85893,1,8,0:0:0:0:
256,192,86020,1,8,0:0:0:0:
256,192,86273,1,0,0:0:0:0:
256,192,86399,1,8,0:0:0:0:
256,192,86526,1,0,0:0:0:0:
256,192,86653,1,0,0:0:0:0:
256,192,86779,1,8,0:0:0:0:
256,192,86906,1,0,0:0:0:0:
256,192,87032,1,8,0:0:0:0:
256,192,87159,1,0,0:0:0:0:
256,192,87412,1,8,0:0:0:0:
256,192,87539,1,8,0:0:0:0:
256,192,87792,1,0,0:0:0:0:
512,0,87918,1,12,0:0:0:0:
256,192,88172,1,0,0:0:0:0:
512,0,88298,1,12,0:0:0:0:
256,192,88551,1,8,0:0:0:0:
512,0,88678,1,4,0:0:0:0:
256,192,89058,1,0,0:0:0:0:
256,192,89311,1,0,0:0:0:0:
256,192,89437,1,8,0:0:0:0:
256,192,89691,1,0,0:0:0:0:
256,192,89817,1,8,0:0:0:0:
256,192,90070,1,0,0:0:0:0:
256,192,90197,1,8,0:0:0:0:
256,192,90323,1,0,0:0:0:0:
256,192,90387,1,8,0:0:0:0:
256,192,90450,1,0,0:0:0:0:
256,192,90577,1,8,0:0:0:0:
256,192,90830,1,8,0:0:0:0:
256,192,90956,1,0,0:0:0:0:
256,192,91083,1,8,0:0:0:0:
256,192,91210,1,8,0:0:0:0:
256,192,91336,1,0,0:0:0:0:
256,192,91589,1,0,0:0:0:0:
512,0,91716,1,12,0:0:0:0:
256,192,92096,1,0,0:0:0:0:
256,192,92349,1,0,0:0:0:0:
256,192,92475,1,8,0:0:0:0:
256,192,92729,1,0,0:0:0:0:
256,192,92855,1,8,0:0:0:0:
256,192,93108,1,0,0:0:0:0:
256,192,93235,1,8,0:0:0:0:
256,192,93361,1,0,0:0:0:0:
256,192,93425,1,0,0:0:0:0:
256,192,93488,1,8,0:0:0:0:
256,192,93615,1,0,0:0:0:0:
256,192,93868,1,0,0:0:0:0:
256,192,93994,1,8,0:0:0:0:
256,192,94121,1,8,0:0:0:0:
256,192,94248,1,0,0:0:0:0:
256,192,94374,1,8,0:0:0:0:
256,192,94627,1,8,0:0:0:0:
512,0,94754,1,4,0:0:0:0:
256,192,95133,1,8,0:0:0:0:
256,192,95387,1,8,0:0:0:0:
256,192,95513,1,0,0:0:0:0:
256,192,95766,1,0,0:0:0:0:
256,192,95893,1,8,0:0:0:0:
256,192,96146,1,8,0:0:0:0:
256,192,96273,1,8,0:0:0:0:
256,192,96526,1,8,0:0:0:0:
256,192,96652,1,0,0:0:0:0:
256,192,96779,1,8,0:0:0:0:
256,192,96906,1,8,0:0:0:0:
256,192,97032,1,0,0:0:0:0:
256,192,97285,1,8,0:0:0:0:
256,192,97412,1,0,0:0:0:0:
256,192,97665,1,0,0:0:0:0:
256,192,97792,1,8,0:0:0:0:
256,192,98045,1,0,0:0:0:0:
256,192,98171,1,0,0:0:0:0:
256,192,98298,1,8,0:0:0:0:
256,192,98425,1,8,0:0:0:0:
256,192,98551,1,0,0:0:0:0:
256,192,98804,1,0,0:0:0:0:
256,192,98931,1,8,0:0:0:0:
256,192,99184,1,8,0:0:0:0:
256,192,99311,1,0,0:0:0:0:
256,192,99437,1,8,0:0:0:0:
256,192,99564,1,8,0:0:0:0:
256,192,99690,1,8,0:0:0:0:
256,192,99944,1,0,0:0:0:0:
256,192,100070,1,8,0:0:0:0:
256,192,100197,1,0,0:0:0:0:
256,192,100323,1,0,0:0:0:0:
256,192,100450,1,0,0:0:0:0:
256,192,100830,1,8,0:0:0:0:
256,192,101083,1,8,0:0:0:0:
256,192,101209,1,0,0:0:0:0:
256,192,101336,1,0,0:0:0:0:
256,192,101463,1,8,0:0:0:0:
256,192,101589,1,8,0:0:0:0:
256,192,101716,1,0,0:0:0:0:
256,192,101842,1,8,0:0:0:0:
256,192,101969,1,0,0:0:0:0:
256,192,102222,1,0,0:0:0:0:
256,192,102349,1,8,0:0:0:0:
256,192,102602,1,0,0:0:0:0:
256,192,102728,1,0,0:0:0:0:
256,192,102855,1,8,0:0:0:0:
256,192,102982,1,0,0:0:0:0:
256,192,103108,1,8,0:0:0:0:
256,192,103235,1,0,0:0:0:0:
256,192,103361,1,0,0:0:0:0:
256,192,103488,1,8,0:0:0:0:
256,192,103741,1,0,0:0:0:0:
256,192,103868,1,8,0:0:0:0:
256,192,104121,1,8,0:0:0:0:
256,192,104247,1,0,0:0:0:0:
256,192,104374,1,8,0:0:0:0:
256,192,104501,1,8,0:0:0:0:
256,192,104627,1,0,0:0:0:0:
256,192,104754,1,0,0:0:0:0:
256,192,104880,1,8,0:0:0:0:
256,192,105007,1,0,0:0:0:0:
256,192,105260,1,0,0:0:0:0:
256,192,105387,1,8,0:0:0:0:
256,192,105513,1,8,0:0:0:0:
256,192,105640,1,8,0:0:0:0:
256,192,105766,1,8,0:0:0:0:
256,192,105893,1,0,0:0:0:0:
256,192,106020,1,0,0:0:0:0:
256,192,106146,1,8,0:0:0:0:
256,192,106273,1,0,0:0:0:0:
256,192,106336,1,0,0:0:0:0:
256,192,106399,1,8,0:0:0:0:
256,192,106526,1,0,0:0:0:0:
256,192,106779,1,0,0:0:0:0:
512,0,106906,1,12,0:0:0:0:
256,192,107285,1,0,0:0:0:0:
256,192,107539,1,0,0:0:0:0:
256,192,107665,1,8,0:0:0:0:
256,192,107918,1,0,0:0:0:0:
256,192,108045,1,8,0:0:0:0:
256,192,108171,1,0,0:0:0:0:
256,192,108298,1,0,0:0:0:0:
512,0,108425,1,12,0:0:0:0:
256,192,108678,1,8,0:0:0:0:
256,192,108804,1,0,0:0:0:0:
256,192,108931,1,8,0:0:0:0:
256,192,109058,1,0,0:0:0:0:
256,192,109184,1,8,0:0:0:0:
256,192,109311,1,8,0:0:0:0:
256,192,109374,1,8,0:0:0:0:
256,192,109437,1,0,0:0:0:0:
256,192,109564,1,0,0:0:0:0:
256,192,109817,1,0,0:0:0:0:
512,0,109944,1,12,0:0:0:0:
512,0,110070,1,12,0:0:0:0:
512,0,110197,1,12,0:0:0:0:
512,0,110323,1,12,0:0:0:0:
256,192,110703,1,0,0:0:0:0:
256,192,110956,1,8,0:0:0:0:
256,192,111083,1,8,0:0:0:0:
256,192,111209,1,0,0:0:0:0:
256,192,111336,1,8,0:0:0:0:
256,192,111463,1,0,0:0:0:0:
256,192,111589,1,8,0:0:0:0:
256,192,111716,1,8,0:0:0:0:
256,192,111842,1,8,0:0:0:0:
256,192,111969,1,0,0:0:0:0:
256,192,112095,1,0,0:0:0:0:
512,0,112222,1,12,0:0:0:0:
512,0,112475,1,12,0:0:0:0:
512,0,112602,1,12,0:0:0:0:
