osu file format v14

[General]
AudioFilename: audio.mp3
AudioLeadIn: 0
PreviewTime: -1
Countdown: 0
SampleSet: Normal
StackLeniency: 0.5
Mode: 0
LetterboxInBreaks: 0
WidescreenStoryboard: 0

[Editor]
Bookmarks: 3548,13653,23758,43969,54074,65442,75548,95758
DistanceSpacing: 0.8
BeatDivisor: 4
GridSize: 16
TimelineZoom: 1.2

[Metadata]
Title:nightbird lost wing (GITADORA ver.)
TitleUnicode:nightbird lost wing (GITADORA ver.)
Artist:Nekomata Master +
ArtistUnicode:猫叉Master+
Creator:Dementation
Version:Extra
Source:
Tags:iwaifu ioexception deadcode
BeatmapID:2138276
BeatmapSetID:1022012

[Difficulty]
HPDrainRate:4
CircleSize:3.2
OverallDifficulty:8
ApproachRate:9.3
SliderMultiplier:2.3
SliderTickRate:1

[Events]
//Background and Video events
0,0,"dumb.jpg",0,0
//Break Periods
//Storyboard Layer 0 (Background)
//Storyboard Layer 1 (Fail)
//Storyboard Layer 2 (Pass)
//Storyboard Layer 3 (Foreground)
//Storyboard Layer 4 (Overlay)
//Storyboard Sound Samples

[TimingPoints]
3548,315.789473684211,4,1,0,60,1,0
3548,-125,4,1,0,60,0,0
10495,-250,4,1,0,60,0,0
12390,-250,4,1,0,60,0,0
13653,-125,4,1,0,60,0,0
23442,-333.333333333333,4,1,0,60,0,0
23758,-90.9090909090908,4,1,0,60,0,0
24390,-125,4,1,0,60,0,0
24705,-76.9230769230769,4,1,0,60,0,0
25021,-90.9090909090909,4,1,0,60,0,0
25969,-125,4,1,0,60,0,0
26284,-90.9090909090909,4,1,0,60,0,0
26916,-125,4,1,0,60,0,0
27232,-200,4,1,0,60,0,0
27548,-90.9090909090909,4,1,0,60,0,0
29442,-125,4,1,0,60,0,0
29916,-76.9230769230769,4,1,0,60,0,0
32600,-250,4,1,0,60,0,0
33863,-90.9090909090909,4,1,0,60,0,0
34495,-125,4,1,0,60,0,0
34811,-90.9090909090909,4,1,0,60,0,0
36074,-125,4,1,0,60,0,0
36390,-90.9090909090909,4,1,0,60,0,0
36863,-125,4,1,0,60,0,0
37653,-90.9090909090909,4,1,0,60,0,0
39548,-125,4,1,0,60,0,0
40021,-76.9230769230769,4,1,0,60,0,0
42705,-250,4,1,0,60,0,0
43969,-66.6666666666667,4,1,0,60,0,0
44284,-125,4,1,0,60,0,0
44442,-66.6666666666667,4,1,0,60,0,0
44916,-90.9090909090909,4,1,0,60,0,0
46495,-66.6666666666667,4,1,0,60,0,0
46811,-125,4,1,0,60,0,0
46969,-66.6666666666667,4,1,0,60,0,0
47442,-90.9090909090909,4,1,0,60,0,0
49021,-66.6666666666667,4,1,0,60,0,0
49337,-125,4,1,0,60,0,0
49495,-66.6666666666667,4,1,0,60,0,0
50600,-125,4,1,0,60,0,0
51548,-66.6666666666667,4,1,0,60,0,0
52969,-125,4,1,0,60,0,0
54074,-66.6666666666667,4,1,0,60,0,0
54390,-125,4,1,0,60,0,0
54548,-166.666666666667,4,1,0,60,0,0
55495,-250,4,1,0,60,0,0
56600,-66.6666666666667,4,1,0,60,0,0
56916,-125,4,1,0,60,0,0
57074,-166.666666666667,4,1,0,60,0,0
57863,-250,4,1,0,60,0,0
59126,-66.6666666666667,4,1,0,60,0,0
59442,-125,4,1,0,60,0,0
59600,-166.666666666667,4,1,0,60,0,0
61653,-66.6666666666667,4,1,0,60,0,0
62600,-333.333333333333,4,1,0,60,0,0
65442,-142.857142857143,4,1,0,60,0,0
74284,-76.923076923077,4,1,0,60,0,0
75548,-50,4,1,0,60,0,1
76179,-76.9230769230769,4,1,0,60,0,1
76495,-50,4,1,0,60,0,1
77126,-76.9230769230769,4,1,0,60,0,1
78074,-62.5,4,1,0,60,0,1
79021,-50,4,1,0,60,0,1
79495,-76.9230769230769,4,1,0,60,0,1
80600,-50,4,1,0,60,0,1
81232,-76.9230769230769,4,1,0,60,0,1
81548,-50,4,1,0,60,0,1
82179,-76.9230769230769,4,1,0,60,0,1
83126,-50,4,1,0,60,0,1
83442,-66.6666666666667,4,1,0,60,0,1
83600,-50,4,1,0,60,0,1
83916,-66.6666666666667,4,1,0,60,0,1
84074,-50,4,1,0,60,0,1
85653,-50,4,1,0,60,0,1
86284,-76.9230769230769,4,1,0,60,0,1
86600,-41.6666666666667,4,1,0,60,0,1
87232,-76.9230769230769,4,1,0,60,0,1
88179,-62.5,4,1,0,60,0,1
89126,-50,4,1,0,60,0,1
89600,-76.9230769230769,4,1,0,60,0,1
90705,-50,4,1,0,60,0,1
91337,-76.9230769230769,4,1,0,60,0,1
91653,-50,4,1,0,60,0,1
92284,-76.9230769230769,4,1,0,60,0,1
93232,-50,4,1,0,60,0,1
93548,-66.6666666666667,4,1,0,60,0,1
93705,-50,4,1,0,60,0,1
94021,-66.6666666666667,4,1,0,60,0,1
94179,-50,4,1,0,60,0,1
95758,-166.666666666667,4,1,0,60,0,0

[Colours]
Combo1 : 105,151,0
Combo2 : 163,191,0
Combo3 : 191,0,5
Combo4 : 106,91,97

[HitObjects]
30,116,3548,5,0,0:0:0:0:
30,116,3705,1,0,0:0:0:0:
85,263,3863,1,0,0:0:0:0:
89,48,4021,5,0,0:0:0:0:
89,48,4179,1,0,0:0:0:0:
57,153,4337,1,0,0:0:0:0:
291,384,5442,5,0,0:0:0:0:
475,181,6074,5,0,0:0:0:0:
475,181,6231,1,0,0:0:0:0:
420,328,6389,1,0,0:0:0:0:
416,113,6547,5,0,0:0:0:0:
416,113,6705,1,0,0:0:0:0:
448,218,6863,1,0,0:0:0:0:
512,0,7337,5,0,0:0:0:0:
303,112,7653,5,0,0:0:0:0:
333,116,7811,1,0,0:0:0:0:
376,85,7969,1,0,0:0:0:0:
326,18,8126,1,0,0:0:0:0:
241,29,8284,1,0,0:0:0:0:
198,114,8442,1,0,0:0:0:0:
84,139,8600,5,0,0:0:0:0:
84,139,8757,1,0,0:0:0:0:
231,194,8915,1,0,0:0:0:0:
16,198,9073,5,0,0:0:0:0:
16,198,9231,1,0,0:0:0:0:
121,166,9389,1,0,0:0:0:0:
198,343,10337,5,0,0:0:0:0:
198,343,10495,2,0,P|200:314|201:293,1,46
140,251,10811,1,0,0:0:0:0:
230,134,10969,5,0,0:0:0:0:
279,135,11048,1,0,0:0:0:0:
312,101,11126,5,0,0:0:0:0:
312,101,11283,1,0,0:0:0:0:
165,46,11441,1,0,0:0:0:0:
380,42,11599,5,0,0:0:0:0:
380,42,11757,1,0,0:0:0:0:
275,74,11915,1,0,0:0:0:0:
132,312,12390,6,0,P|130:335|129:358,1,46
118,269,12600,5,0,0:0:0:0:
197,309,12705,1,0,0:0:0:0:
273,266,12811,1,0,0:0:0:0:
375,321,12916,1,0,0:0:0:0:
329,348,13021,5,0,0:0:0:0:
302,312,13126,1,0,0:0:0:0:
321,260,13232,1,0,0:0:0:0:
281,209,13337,1,0,0:0:0:0:
320,158,13442,1,0,0:0:0:0:
245,102,13548,5,0,0:0:0:0:
155,140,13653,2,0,L|59:175,1,92
191,343,13969,1,0,0:0:0:0:
269,315,14126,2,0,L|173:280,1,92
365,148,14442,1,0,0:0:0:0:
365,148,14600,1,0,0:0:0:0:
365,148,14916,1,0,0:0:0:0:
365,148,15232,1,0,0:0:0:0:
452,187,15548,5,0,0:0:0:0:
452,187,15863,1,0,0:0:0:0:
477,158,16021,1,0,0:0:0:0:
441,18,16179,6,0,P|391:35|354:50,1,92
156,101,16495,1,0,0:0:0:0:
236,117,16653,1,0,0:0:0:0:
297,254,16811,5,0,0:0:0:0:
297,254,17126,1,0,0:0:0:0:
261,342,17442,5,0,0:0:0:0:
261,342,17758,1,0,0:0:0:0:
167,313,18074,5,0,0:0:0:0:
167,313,18390,1,0,0:0:0:0:
125,352,18548,5,0,0:0:0:0:
125,352,18626,1,0,0:0:0:0:
125,352,18705,2,0,P|75:346|30:339,1,92
192,195,19021,1,0,0:0:0:0:
107,151,19179,2,0,P|60:169|18:188,1,92
245,282,19495,1,0,0:0:0:0:
245,282,19653,1,0,0:0:0:0:
245,282,19969,1,0,0:0:0:0:
245,282,20284,1,0,0:0:0:0:
267,298,20442,5,0,0:0:0:0:
312,283,20600,1,0,0:0:0:0:
322,249,20758,1,0,0:0:0:0:
322,249,20837,1,0,0:0:0:0:
322,249,20916,1,0,0:0:0:0:
354,211,21074,1,0,0:0:0:0:
443,259,21232,5,0,0:0:0:0:
368,288,21390,1,0,0:0:0:0:
285,273,21548,1,0,0:0:0:0:
257,180,21705,1,0,0:0:0:0:
152,148,21863,1,0,0:0:0:0:
49,281,22021,5,0,0:0:0:0:
243,260,22179,1,0,0:0:0:0:
410,180,22337,1,0,0:0:0:0:
197,246,22495,5,0,0:0:0:0:
480,81,23442,5,0,0:0:0:0:
480,81,23758,6,0,B|465:64|437:49|408:42|408:42|368:40|324:51|284:79|260:124,1,253.000007720947
446,261,24232,1,0,0:0:0:0:
446,261,24311,1,0,0:0:0:0:
446,261,24390,2,0,P|440:210|431:160,1,92
109,12,24705,2,0,P|105:74|99:164,1,149.499993156433
254,324,25021,6,0,P|302:272|300:215,1,126.500003860474
247,380,25258,1,0,0:0:0:0:
230,352,25337,2,0,P|210:267|211:218,1,126.500003860474
320,15,25653,2,0,P|390:32|450:50,1,126.500003860474
366,215,25969,2,0,P|441:202|508:187,1,138
448,159,26284,6,0,B|391:140|328:147|328:147|267:194|260:261,1,253.000007720947
459,376,26758,1,0,0:0:0:0:
459,376,26837,1,0,0:0:0:0:
459,376,26916,2,0,P|448:318|435:280,1,92
128,278,27232,2,0,P|119:310|162:349,1,86.25
173,336,27548,6,0,P|169:246|155:143,1,189.750005790711
49,200,27863,2,0,P|70:118|89:70,1,126.500003860474
205,64,28100,1,0,0:0:0:0:
193,33,28179,1,0,0:0:0:0:
105,74,28337,1,0,0:0:0:0:
270,230,28495,5,0,0:0:0:0:
335,243,28600,1,0,0:0:0:0:
370,170,28705,1,0,0:0:0:0:
438,200,28811,6,0,P|339:214|183:243,1,253.000007720947
109,338,29284,1,0,0:0:0:0:
37,287,29442,2,0,P|45:227|50:196,1,92
119,150,29758,2,0,L|111:100,1,46
205,17,29916,6,0,P|244:16|286:31,1,74.7499965782167
377,40,30074,2,0,B|339:71|300:64|300:64|281:99|274:157|305:163|308:164|343:238|326:288,1,298.999986312867
7,172,30548,6,0,P|42:193|63:235,1,74.7499965782167
23,334,30705,2,0,B|45:273|89:255|89:255|146:248|170:270|175:283|181:308|213:324|261:327,1,298.999986312867
503,121,31179,6,0,P|473:144|452:183,1,74.7499965782167
427,285,31337,2,0,B|461:270|475:240|450:195|407:169|361:180|361:180|337:219|301:240|262:237,1,298.999986312867
41,2,31811,6,0,P|63:36|71:68,1,74.7499965782167
0,182,31969,2,0,B|-13:171|-17:138|8:107|55:97|87:99|87:99|135:111|149:128|151:135|174:162|241:157,1,298.999986312867
380,7,32442,6,0,P|362:39|370:75,1,74.7499965782167
404,101,32600,2,0,P|444:95|486:91,1,69
452,141,32916,5,0,0:0:0:0:
391,160,32995,1,0,0:0:0:0:
373,119,33074,1,0,0:0:0:0:
304,107,33153,1,0,0:0:0:0:
267,186,33232,5,0,0:0:0:0:
191,207,33311,1,0,0:0:0:0:
168,192,33390,1,0,0:0:0:0:
173,139,33469,1,0,0:0:0:0:
190,125,33548,1,0,0:0:0:0:
164,73,33626,1,0,0:0:0:0:
111,76,33705,1,0,0:0:0:0:
102,68,33784,1,0,0:0:0:0:
57,0,33863,6,0,B|66:12|74:26|82:60|85:110|84:160|61:260,1,253.000007720947
191,378,34337,1,0,0:0:0:0:
191,378,34416,1,0,0:0:0:0:
191,378,34495,2,0,P|161:338|153:296,1,92
306,188,34811,2,0,P|370:193|423:243,1,126.500003860474
222,76,35126,6,0,P|284:54|348:30,1,126.500003860474
268,277,35442,2,0,P|322:319|394:323,1,126.500003860474
211,286,35679,1,0,0:0:0:0:
239,265,35758,2,0,P|301:243|367:240,1,126.500003860474
135,121,36074,2,0,P|60:108|-7:93,1,138
53,65,36390,6,0,B|110:46|173:53|173:53|234:100|241:167,1,253.000007720947
122,300,36864,1,0,0:0:0:0:
122,300,36943,1,0,0:0:0:0:
122,300,37022,2,0,P|133:242|146:204,1,92
187,363,37337,1,0,0:0:0:0:
355,237,37495,5,0,0:0:0:0:
394,337,37653,2,0,P|390:247|376:144,1,189.750005790711
270,202,37968,2,0,P|286:126|293:68,1,126.500003860474
381,37,38205,1,0,0:0:0:0:
366,8,38284,1,0,0:0:0:0:
265,62,38442,1,0,0:0:0:0:
247,296,38600,5,0,0:0:0:0:
312,309,38705,1,0,0:0:0:0:
355,237,38810,1,0,0:0:0:0:
429,265,38916,6,0,P|330:279|174:308,1,253.000007720947
0,275,39390,1,0,0:0:0:0:
28,198,39548,2,0,P|79:210|130:224,1,92
196,168,39863,2,0,P|221:163|246:160,1,46
494,9,40021,6,0,P|462:16|435:47,1,74.7499965782167
512,148,40179,2,0,B|512:113|486:89|462:81|462:81|422:81|377:102|353:125|328:166|324:220,1,298.999986312867
107,0,40653,6,0,P|106:41|127:83,1,74.7499965782167
204,54,40810,2,0,B|181:51|143:89|133:130|133:130|134:184|156:208|169:213|194:219|210:251|213:299,1,298.999986312867
512,228,41284,6,0,P|476:248|461:276,1,74.7499965782167
453,362,41442,2,0,B|479:346|474:294|452:275|392:282|392:282|351:301|346:339|347:341|333:375|276:386,1,298.999986312867
32,190,41916,6,0,P|70:216|84:249,1,74.7499965782167
51,348,42074,2,0,B|29:328|26:272|81:260|123:262|154:279|154:279|192:259|238:258|264:305,1,298.999986312867
353,45,42547,6,0,P|336:77|343:113,1,74.7499965782167
428,195,42705,6,0,P|468:189|510:185,1,69
469,217,43021,5,0,0:0:0:0:
423,207,43100,1,0,0:0:0:0:
383,256,43179,1,0,0:0:0:0:
314,274,43258,1,0,0:0:0:0:
261,205,43337,5,0,0:0:0:0:
193,258,43416,1,0,0:0:0:0:
211,315,43495,1,0,0:0:0:0:
232,313,43574,1,0,0:0:0:0:
248,240,43653,1,0,0:0:0:0:
220,195,43731,1,0,0:0:0:0:
248,133,43810,1,0,0:0:0:0:
239,124,43889,1,0,0:0:0:0:
180,58,43969,6,0,B|133:101|89:152|89:152|98:211|118:293,1,258.75000987053
129,285,44284,2,0,P|133:252|134:230,1,46
264,0,44442,6,0,P|278:53|304:175,1,172.500006580353
371,39,44758,1,0,0:0:0:0:
458,315,44916,6,0,P|487:191|507:67,1,253.000007720947
238,289,45390,5,0,0:0:0:0:
294,313,45548,1,0,0:0:0:0:
364,264,45705,1,0,0:0:0:0:
356,148,45863,1,0,0:0:0:0:
235,123,46021,1,0,0:0:0:0:
235,123,46100,1,0,0:0:0:0:
235,123,46179,1,0,0:0:0:0:
97,192,46337,1,0,0:0:0:0:
386,384,46495,6,0,B|433:341|477:290|477:290|468:231|448:149,1,258.75000987053
437,157,46811,2,0,P|433:190|432:212,1,46
341,384,46969,6,0,P|327:331|301:209,1,172.500006580353
234,345,47284,1,0,0:0:0:0:
147,69,47442,6,0,P|118:193|98:317,1,253.000007720947
334,88,47916,5,0,0:0:0:0:
242,93,48074,1,0,0:0:0:0:
180,187,48232,1,0,0:0:0:0:
41,250,48390,1,0,0:0:0:0:
36,239,48469,1,0,0:0:0:0:
53,217,48548,1,0,0:0:0:0:
89,223,48626,1,0,0:0:0:0:
124,274,48705,1,0,0:0:0:0:
228,294,48863,1,0,0:0:0:0:
434,241,49021,6,0,B|453:180|465:114|465:114|428:67|370:6,1,258.75000987053
364,17,49337,2,0,P|360:50|359:72,1,46
373,363,49495,6,0,P|359:309|333:188,1,172.500006580353
76,11,49811,6,0,P|62:51|54:98,1,86.2500032901765
54,233,49969,2,0,B|27:232|3:199|14:148|49:115|115:120|115:120|139:156|174:189|221:189|251:183,1,345.000013160706
294,111,50442,1,0,0:0:0:0:
157,344,50600,6,0,P|147:281|140:249,1,92
265,384,50916,1,0,0:0:0:0:
265,384,50995,1,0,0:0:0:0:
265,384,51074,1,0,0:0:0:0:
327,295,51232,1,0,0:0:0:0:
316,250,51390,1,0,0:0:0:0:
378,77,51548,6,0,B|359:38|333:22|298:17|298:17|258:24|205:45|167:89|149:134|149:189,1,345.000013160706
501,240,52021,6,0,B|495:221|462:206|400:219|345:266,1,172.500006580353
29,189,52337,6,0,P|54:228|64:266,1,86.2500032901765
11,384,52495,2,0,B|-3:371|-7:335|19:302|71:291|106:293|106:293|158:306|173:324|176:332|201:362|274:356,1,345.000013160706
423,184,52969,2,0,P|350:195|260:259,1,184
494,117,53442,5,0,0:0:0:0:
502,110,53521,1,0,0:0:0:0:
478,58,53600,1,0,0:0:0:0:
434,44,53679,1,0,0:0:0:0:
382,94,53758,1,0,0:0:0:0:
328,109,53837,1,0,0:0:0:0:
267,56,53916,1,0,0:0:0:0:
212,47,53995,1,0,0:0:0:0:
140,113,54075,6,0,B|120:173|108:239|108:239|145:286|203:347,1,258.75000987053
209,335,54390,2,0,P|206:301|203:278,1,46
14,145,54548,6,0,B|6:146|24:191|56:167|63:117|57:65|38:25|-6:2,1,206.999993682861
375,228,55495,6,0,P|390:202|404:187,2,46
416,313,55969,5,0,0:0:0:0:
416,313,56048,1,0,0:0:0:0:
416,313,56126,1,0,0:0:0:0:
284,283,56284,1,0,0:0:0:0:
252,375,56442,1,0,0:0:0:0:
45,273,56600,6,0,B|25:213|13:147|13:147|50:100|108:39,1,258.75000987053
114,51,56916,2,0,P|111:84|108:107,1,46
180,304,57074,6,0,B|187:305|166:348|136:322|133:271|144:220|166:182|212:163,1,206.999993682861
459,20,58021,6,0,P|485:35|500:49,2,46
318,185,58495,5,0,0:0:0:0:
367,200,58574,1,0,0:0:0:0:
413,143,58653,1,0,0:0:0:0:
483,129,58732,1,0,0:0:0:0:
511,196,58811,5,0,0:0:0:0:
500,245,58890,1,0,0:0:0:0:
435,276,58969,1,0,0:0:0:0:
418,268,59048,1,0,0:0:0:0:
330,296,59126,6,0,B|295:243|266:182|266:182|290:127|330:53,1,258.75000987053
336,58,59442,2,0,P|338:91|339:114,1,46
88,54,59600,6,0,B|95:42|120:37|134:49|147:71|145:71|142:71|145:68|154:85|162:99|183:103|206:98,1,137.999995788574
245,28,60074,1,0,0:0:0:0:
101,320,60705,5,0,0:0:0:0:
45,259,61021,5,0,0:0:0:0:
45,259,61100,1,0,0:0:0:0:
45,259,61179,1,0,0:0:0:0:
113,161,61337,1,0,0:0:0:0:
199,187,61495,1,0,0:0:0:0:
488,277,61653,6,0,B|469:238|443:222|408:217|408:217|368:224|315:245|277:289|259:334|259:389,1,345.000013160706
155,50,62126,2,0,B|98:93|49:182|49:182|75:266|146:353,1,345.000013160706
486,56,62600,1,0,0:0:0:0:
256,192,62679,12,0,64811,0:0:0:0:
122,271,64969,5,0,0:0:0:0:
122,271,65048,1,0,0:0:0:0:
122,271,65126,1,0,0:0:0:0:
172,189,65284,1,0,0:0:0:0:
171,341,65442,6,0,P|160:264|153:212,1,120.749996315003
172,189,65758,1,0,0:0:0:0:
172,189,65916,1,0,0:0:0:0:
256,247,66074,2,0,P|304:263|348:245,1,80.499997543335
427,60,66390,2,0,P|385:79|366:112,1,80.499997543335
417,311,66705,6,0,P|423:257|428:212,1,80.499997543335
277,121,67021,2,0,P|270:67|266:22,1,80.499997543335
238,146,67258,1,0,0:0:0:0:
198,135,67337,5,0,0:0:0:0:
198,135,67495,1,0,0:0:0:0:
129,193,67653,2,0,P|130:212|134:243,1,40.2499987716675
198,278,67811,2,0,P|196:297|193:328,1,40.2499987716675
49,372,67969,5,0,0:0:0:0:
49,372,68126,1,0,0:0:0:0:
0,303,68284,2,0,P|-3:253|-6:209,1,80.499997543335
206,150,68600,5,0,0:0:0:0:
206,150,68757,1,0,0:0:0:0:
255,81,68916,2,0,P|258:31|261:-12,1,80.499997543335
384,346,69232,5,0,0:0:0:0:
384,346,69389,1,0,0:0:0:0:
335,277,69547,2,0,P|332:227|329:183,1,80.499997543335
457,203,69863,5,0,0:0:0:0:
457,203,70020,1,0,0:0:0:0:
506,134,70179,2,0,P|509:84|512:40,1,80.499997543335
455,16,70416,1,0,0:0:0:0:
398,31,70495,5,0,0:0:0:0:
414,128,70653,1,0,0:0:0:0:
500,134,70811,1,0,0:0:0:0:
306,103,70969,5,0,0:0:0:0:
241,177,71126,1,0,0:0:0:0:
261,265,71284,1,0,0:0:0:0:
256,23,71442,6,0,P|208:31|168:42,1,80.499997543335
107,281,71758,6,0,P|56:255|44:226,1,80.499997543335
266,378,72074,1,0,0:0:0:0:
185,350,72232,5,0,0:0:0:0:
249,266,72390,1,0,0:0:0:0:
349,283,72548,1,0,0:0:0:0:
349,283,72626,1,0,0:0:0:0:
349,283,72705,1,0,0:0:0:0:
412,335,72863,1,0,0:0:0:0:
506,326,73021,5,0,0:0:0:0:
506,315,73100,1,0,0:0:0:0:
495,300,73179,1,0,0:0:0:0:
478,303,73258,1,0,0:0:0:0:
486,308,73337,1,0,0:0:0:0:
491,291,73416,1,0,0:0:0:0:
508,234,73495,1,0,0:0:0:0:
489,206,73574,1,0,0:0:0:0:
499,185,73653,1,0,0:0:0:0:
461,132,73732,1,0,0:0:0:0:
427,161,73811,1,0,0:0:0:0:
405,154,73890,1,0,0:0:0:0:
336,110,73969,1,0,0:0:0:0:
280,132,74048,1,0,0:0:0:0:
276,185,74126,1,0,0:0:0:0:
258,192,74205,1,0,0:0:0:0:
167,146,74284,6,0,P|162:98|158:61,1,74.7499965782167
6,247,74442,5,0,0:0:0:0:
60,217,74521,1,0,0:0:0:0:
72,161,74600,1,0,0:0:0:0:
235,357,74758,5,0,0:0:0:0:
173,323,74837,1,0,0:0:0:0:
160,261,74916,1,0,0:0:0:0:
373,177,75074,5,0,0:0:0:0:
326,244,75153,1,0,0:0:0:0:
357,267,75232,2,0,P|397:272|432:276,1,74.7499965782167
270,371,75390,2,0,P|310:365|345:362,1,74.7499965782167
6,247,75548,6,0,B|5:265|22:273|52:273|52:273|82:257|100:211|95:167|115:126|157:94|228:98|272:133,1,345
260,279,75863,2,0,P|371:246|482:203,1,230
232,41,76100,1,0,0:0:0:0:
231,41,76179,2,0,P|309:102|357:123,1,149.499993156433
60,379,76495,6,0,B|136:305|151:187|151:187|108:43|0:-13,1,460
8,133,76969,1,0,0:0:0:0:
149,268,77126,6,0,P|196:258|269:165,1,149.499993156433
304,336,77363,1,0,0:0:0:0:
291,302,77442,2,0,P|291:251|300:140,1,149.499993156433
132,375,77758,2,0,P|118:283|98:217,1,149.499993156433
495,36,78074,6,0,P|372:58|218:90,1,276
53,272,78390,6,0,P|108:247|124:220,1,92
83,44,78548,2,0,P|65:81|58:138,1,92
145,316,78705,6,0,P|140:254|130:210,1,92
32,3,78863,2,0,P|28:44|25:103,1,92
17,363,79021,6,0,B|-16:335|-14:272|-14:272|14:224|71:195|129:191|201:218|257:260|283:343,1,460
391,333,79495,2,0,P|471:317|513:263,1,149.499993156433
136,149,79811,5,0,0:0:0:0:
280,16,79969,1,0,0:0:0:0:
398,55,80126,1,0,0:0:0:0:
302,267,80284,6,0,P|290:216|281:174,1,74.7499965782167
181,212,80442,5,0,0:0:0:0:
182,261,80521,1,0,0:0:0:0:
187,267,80600,6,0,B|211:285|218:316|218:316|243:280|250:213|239:136|217:90|158:61,1,345
419,19,80916,2,0,P|327:63|269:181,1,230
512,209,81153,1,0,0:0:0:0:
512,209,81232,2,0,P|450:179|369:195,1,149.499993156433
160,384,81548,6,0,B|45:343|12:232|12:232|21:87|132:36,1,460
207,122,82021,1,0,0:0:0:0:
317,268,82179,6,0,P|406:275|460:250,1,149.499993156433
168,366,82495,2,0,P|182:303|208:216,1,149.499993156433
156,284,82732,1,0,0:0:0:0:
149,249,82811,2,0,P|135:178|101:100,1,149.499993156433
470,17,83126,6,0,B|506:24|514:55|514:55|486:93|437:115|385:83|384:76|369:45|308:22|254:58,1,345
26,0,83442,6,0,P|50:23|65:78,1,86.2500032901765
65,208,83600,2,0,B|25:190|9:156|38:104|88:74|140:87|140:87|168:132|210:156|254:152,1,345
512,171,83916,6,0,P|487:193|463:243,1,86.2500032901765
512,361,84074,2,0,B|569:354|551:279|492:265|492:265|458:314|391:333|353:289|354:283|328:253|254:248|201:304,1,460
38,295,84548,5,0,0:0:0:0:
93,243,84626,1,0,0:0:0:0:
158,259,84705,1,0,0:0:0:0:
160,267,84784,1,0,0:0:0:0:
167,323,84863,5,0,0:0:0:0:
207,345,84942,1,0,0:0:0:0:
272,311,85021,1,0,0:0:0:0:
297,300,85100,1,0,0:0:0:0:
353,350,85179,5,0,0:0:0:0:
386,361,85258,1,0,0:0:0:0:
419,303,85337,1,0,0:0:0:0:
424,287,85416,1,0,0:0:0:0:
480,265,85495,1,0,0:0:0:0:
475,246,85574,1,0,0:0:0:0:
416,177,85653,6,0,B|391:139|388:84|417:38|468:40|462:57|463:81|436:108|358:108|308:74|269:21,1,345
91,115,85969,2,0,P|202:145|321:182,1,230
62,300,86205,1,0,0:0:0:0:
62,300,86284,2,0,P|137:270|219:246,1,149.499993156433
409,359,86600,6,0,B|441:368|471:398|471:398|500:350|523:290|507:218|468:159|407:155|407:155|352:128|347:37|400:1,1,551.999983154297
496,82,87074,1,0,0:0:0:0:
192,268,87232,6,0,P|160:223|165:120,1,149.499993156433
232,304,87469,1,0,0:0:0:0:
258,293,87548,2,0,P|266:212|278:142,1,149.499993156433
141,383,87784,1,0,0:0:0:0:
115,372,87863,2,0,P|94:287|73:225,1,149.499993156433
292,55,88179,6,0,P|441:81|462:199,1,276
367,334,88495,6,0,P|312:309|296:282,1,92
355,130,88653,2,0,P|373:167|380:224,1,92
275,378,88811,6,0,P|280:316|286:282,1,92
389,39,88969,2,0,P|393:80|396:139,1,92
2,229,89126,6,0,B|-31:201|-29:138|-29:138|-1:90|56:61|114:57|186:84|242:126|268:209,1,460
375,322,89600,2,0,P|455:306|497:252,1,149.499993156433
101,359,89916,5,0,0:0:0:0:
197,85,90074,1,0,0:0:0:0:
213,267,90232,1,0,0:0:0:0:
91,187,90390,6,0,P|79:136|70:94,1,74.7499965782167
299,165,90548,5,0,0:0:0:0:
280,205,90627,1,0,0:0:0:0:
283,212,90706,6,0,B|301:235|300:267|300:267|333:239|357:176|367:98|357:48|308:5,1,345
497,193,91021,2,0,P|405:136|412:18,1,230
196,93,91258,1,0,0:0:0:0:
196,93,91337,2,0,P|264:91|311:22,1,149.499993156433
0,275,91653,6,0,B|4:325|33:364|81:381|81:381|147:381|196:363|217:330|215:327|226:270|257:237|310:228|350:241,1,460
416,336,92126,1,0,0:0:0:0:
272,154,92284,6,0,P|265:65|290:11,1,149.499993156433
68,196,92600,2,0,P|131:210|218:236,1,149.499993156433
0,171,92837,1,0,0:0:0:0:
35,164,92916,2,0,P|106:150|188:125,1,149.499993156433
470,367,93232,6,0,B|506:360|514:329|514:329|486:291|437:269|385:301|384:308|369:339|308:362|254:326,1,345
0,374,93548,6,0,P|24:351|39:296,1,86.2500032901765
39,166,93706,2,0,B|-1:184|-17:218|12:270|62:300|114:287|114:287|142:242|184:218|228:222,1,345
489,191,94022,6,0,P|464:169|440:119,1,86.2500032901765
489,1,94180,2,0,B|546:8|528:83|469:97|469:97|435:48|368:29|330:73|331:79|305:109|231:114|178:58,1,460
346,295,94732,5,0,0:0:0:0:
346,295,94811,1,0,0:0:0:0:
289,119,94969,1,0,0:0:0:0:
192,156,95126,5,0,0:0:0:0:
186,159,95205,1,0,0:0:0:0:
170,187,95284,1,0,0:0:0:0:
176,222,95363,1,0,0:0:0:0:
199,237,95442,1,0,0:0:0:0:
212,237,95521,1,0,0:0:0:0:
215,247,95600,1,0,0:0:0:0:
216,256,95679,1,0,0:0:0:0:
175,324,95758,5,0,0:0:0:0:
256,192,95837,12,0,97653,0:0:0:0:
106,329,98126,5,0,0:0:0:0:
106,329,98284,1,0,0:0:0:0:
228,4,99548,5,0,0:0:0:0:
267,97,100179,1,0,0:0:0:0:
457,13,100653,5,0,0:0:0:0:
457,13,100811,1,0,0:0:0:0:
262,334,103179,5,0,0:0:0:0:
262,334,103337,1,0,0:0:0:0:
310,253,103969,1,0,0:0:0:0:
414,283,104600,1,0,0:0:0:0:
506,171,105232,6,0,P|498:118|494:93,1,68.9999978942872
417,61,105548,5,0,0:0:0:0:
439,12,105705,5,0,0:0:0:0:
