osu file format v14

[General]
AudioFilename: audio.mp3
AudioLeadIn: 0
PreviewTime: 72825
Countdown: 0
SampleSet: Normal
StackLeniency: 0.7
Mode: 3
LetterboxInBreaks: 0
SpecialStyle: 0
WidescreenStoryboard: 0

[Editor]
DistanceSpacing: 2
BeatDivisor: 4
GridSize: 8
TimelineZoom: 2.3

[Metadata]
Title:Chrono Diver -PENDULUMs-
TitleUnicode:Chrono Diver -PENDULUMs-
Artist:Nekomata L.E.D.Master+
ArtistUnicode:猫叉L.E.D.Master+
Creator:Tofu1222
Version:Hyper
Source:beatmania IIDX 22 PENDUAL
Tags:Toshiyuki Kakuta Naoyuki Sato 4th KONAMI Arcade Championship CHRONO BREAKS
BeatmapID:1287719
BeatmapSetID:609806

[Difficulty]
HPDrainRate:7.5
CircleSize:4
OverallDifficulty:8
ApproachRate:5
SliderMultiplier:1.4
SliderTickRate:1

[Events]
//Background and Video events
0,0,"bg.jpg",0,0
//Break Periods
//Storyboard Layer 0 (Background)
//Storyboard Layer 1 (Fail)
//Storyboard Layer 2 (Pass)
//Storyboard Layer 3 (Foreground)
//Storyboard Sound Samples
Sample,1040,0,"LR_RBell_C.wav",20
Sample,3488,0,"LR_RBell_C.wav",20
Sample,5937,0,"LR_RBell_C.wav",20
Sample,8386,0,"LR_RBell_C.wav",20
Sample,69611,0,"G7S_s.wav",100
Sample,70835,0,"A#6S_Bb6S_s.wav",100
Sample,72060,0,"C7S_s.wav",100
Sample,72978,0,"G5S_s.wav",70

[TimingPoints]
1040,306.122448979592,4,1,1,75,1,0
73284,-100,4,1,1,75,0,1
112468,-100,4,1,1,75,0,0

[HitObjects]
64,192,1040,5,4,0:0:0:0:
448,192,1040,1,0,0:0:0:50:G6S_s.wav
320,192,1193,1,0,0:0:0:50:C6S_s.wav
192,192,1346,1,0,0:0:0:50:F6S_s.wav
320,192,1499,1,0,0:0:0:50:C6S_s.wav
64,192,1652,1,0,0:0:0:50:G6S_s.wav
320,192,1805,1,0,0:0:0:50:C6S_s.wav
192,192,1958,1,0,0:0:0:50:F6S_s.wav
320,192,2111,1,0,0:0:0:50:C6S_s.wav
64,192,2264,1,0,0:0:0:50:G6S_s.wav
320,192,2417,1,0,0:0:0:50:C6S_s.wav
192,192,2570,1,0,0:0:0:50:F6S_s.wav
320,192,2723,1,0,0:0:0:50:C6S_s.wav
64,192,2876,1,0,0:0:0:50:G6S_s.wav
192,192,3029,1,0,0:0:0:50:C6S_s.wav
448,192,3182,1,0,0:0:0:50:C7S_s.wav
320,192,3335,1,0,0:0:0:50:C6S_s.wav
64,192,3488,1,4,0:0:0:0:
448,192,3488,1,0,0:0:0:50:G6S_s.wav
192,192,3642,1,0,0:0:0:50:C6S_s.wav
320,192,3795,1,0,0:0:0:50:F6S_s.wav
192,192,3948,1,0,0:0:0:50:C6S_s.wav
448,192,4101,1,0,0:0:0:50:G6S_s.wav
192,192,4254,1,0,0:0:0:50:C6S_s.wav
320,192,4407,1,0,0:0:0:50:A#6S_Bb6S_s.wav
192,192,4560,1,0,0:0:0:50:C6S_s.wav
448,192,4713,1,0,0:0:0:50:C7S_s.wav
192,192,4866,1,0,0:0:0:50:C6S_s.wav
320,192,5019,1,0,0:0:0:50:D#7S_Eb7S_s.wav
192,192,5172,1,0,0:0:0:50:C6S_s.wav
448,192,5325,1,0,0:0:0:50:D7S_s.wav
192,192,5478,1,0,0:0:0:50:G6S_s.wav
64,192,5631,1,0,0:0:0:50:A#6S_Bb6S_s.wav
320,192,5784,1,0,0:0:0:50:F6S_s.wav
64,192,5937,1,4,0:0:0:0:
448,192,5937,1,0,0:0:0:50:G6S_s.wav
320,192,6091,1,0,0:0:0:50:C6S_s.wav
192,192,6244,1,0,0:0:0:50:F6S_s.wav
320,192,6397,1,0,0:0:0:50:C6S_s.wav
64,192,6550,1,0,0:0:0:50:G6S_s.wav
320,192,6703,1,0,0:0:0:50:C6S_s.wav
192,192,6856,1,0,0:0:0:50:F6S_s.wav
320,192,7009,1,0,0:0:0:50:C6S_s.wav
64,192,7162,1,0,0:0:0:50:G6S_s.wav
320,192,7315,1,0,0:0:0:50:C6S_s.wav
192,192,7468,1,0,0:0:0:50:F6S_s.wav
320,192,7621,1,0,0:0:0:50:C6S_s.wav
64,192,7774,1,0,0:0:0:50:G6S_s.wav
192,192,7927,1,0,0:0:0:50:C6S_s.wav
448,192,8080,1,0,0:0:0:50:C7S_s.wav
320,192,8233,1,0,0:0:0:50:C6S_s.wav
64,192,8386,1,4,0:0:0:0:
448,192,8386,1,0,0:0:0:50:G6S_s.wav
192,192,8540,1,0,0:0:0:50:C6S_s.wav
320,192,8693,1,0,0:0:0:50:F6S_s.wav
192,192,8846,1,0,0:0:0:50:C6S_s.wav
448,192,8999,1,0,0:0:0:50:G6S_s.wav
192,192,9152,1,0,0:0:0:50:C6S_s.wav
320,192,9305,1,0,0:0:0:50:A#6S_Bb6S_s.wav
192,192,9458,1,0,0:0:0:50:C6S_s.wav
448,192,9611,1,0,0:0:0:50:C7S_s.wav
192,192,9764,1,0,0:0:0:50:C6S_s.wav
320,192,9917,1,0,0:0:0:50:D#7S_Eb7S_s.wav
192,192,10070,1,0,0:0:0:50:C6S_s.wav
448,192,10223,1,0,0:0:0:50:D7S_s.wav
192,192,10376,1,0,0:0:0:50:F7S_s.wav
64,192,10529,1,0,0:0:0:50:F7S_s.wav
320,192,10682,1,0,0:0:0:50:D7S_s.wav
64,192,10835,1,0,0:0:0:0:
448,192,10835,1,0,0:0:0:0:
192,192,10988,128,0,11142:0:0:0:0:
320,192,11142,128,0,11295:0:0:0:0:
448,192,11295,128,0,11448:0:0:0:0:
64,192,11448,1,0,0:0:0:0:
192,192,11448,1,0,0:0:0:0:
448,192,11601,128,0,11754:0:0:0:0:
320,192,11754,128,0,11907:0:0:0:0:
192,192,11907,128,0,12060:0:0:0:0:
448,192,12060,1,0,0:0:0:0:
64,192,12213,128,0,12366:0:0:0:0:
192,192,12366,128,0,12519:0:0:0:0:
320,192,12519,128,0,12672:0:0:0:0:
64,192,12672,1,0,0:0:0:0:
448,192,12672,1,0,0:0:0:0:
192,192,12825,128,0,12978:0:0:0:0:
320,192,12978,128,0,13131:0:0:0:0:
192,192,13131,128,0,13284:0:0:0:0:
448,192,13284,1,0,0:0:0:0:
64,192,13437,128,0,13591:0:0:0:0:
192,192,13591,128,0,13744:0:0:0:0:
320,192,13744,128,0,13897:0:0:0:0:
64,192,13897,1,0,0:0:0:0:
448,192,13897,128,0,14050:0:0:0:0:
320,192,14050,128,0,14203:0:0:0:0:
192,192,14203,128,0,14356:0:0:0:0:
64,192,14356,128,0,14509:0:0:0:0:
320,192,14509,1,0,0:0:0:0:
192,192,14662,128,0,14815:0:0:0:0:
320,192,14815,128,0,14968:0:0:0:0:
192,192,14968,128,0,15121:0:0:0:0:
64,192,15121,1,0,0:0:0:0:
448,192,15121,1,0,0:0:0:0:
320,192,15274,128,0,15427:0:0:0:0:
192,192,15427,128,0,15580:0:0:0:0:
64,192,15580,128,0,15733:0:0:0:0:
448,192,15733,1,0,0:0:0:0:
320,192,15886,1,0,0:0:0:0:
64,192,16040,1,0,0:0:0:0:
192,192,16040,1,0,0:0:0:0:
448,192,16193,1,0,0:0:0:0:
64,192,16346,1,0,0:0:0:0:
192,192,16499,1,0,0:0:0:0:
320,192,16652,1,0,0:0:0:0:
448,192,16652,1,0,0:0:0:0:
64,192,16805,1,0,0:0:0:0:
192,192,16958,1,0,0:0:0:0:
448,192,17111,1,0,0:0:0:0:
64,192,17264,1,0,0:0:0:0:
320,192,17264,1,0,0:0:0:0:
192,192,17417,1,0,0:0:0:0:
320,192,17570,1,0,0:0:0:0:
64,192,17723,1,0,0:0:0:0:
192,192,17876,1,0,0:0:0:0:
448,192,17876,1,0,0:0:0:0:
320,192,18029,1,0,0:0:0:0:
448,192,18182,1,0,0:0:0:0:
64,192,18335,1,0,0:0:0:0:
192,192,18488,1,0,0:0:0:0:
320,192,18488,1,0,0:0:0:0:
448,192,18642,1,0,0:0:0:0:
64,192,18795,1,0,0:0:0:0:
192,192,18948,1,0,0:0:0:0:
320,192,19101,1,0,0:0:0:0:
448,192,19101,1,0,0:0:0:0:
192,192,19254,1,0,0:0:0:0:
64,192,19407,1,4,0:0:0:0:
448,192,19407,1,0,0:0:0:0:
64,192,19713,1,4,0:0:0:0:
448,192,19713,1,0,0:0:0:0:
64,192,20019,1,4,0:0:0:0:
448,192,20019,128,0,20325:0:0:0:0:
192,192,20325,128,2,20631:0:0:0:0:
64,192,20631,1,8,0:0:0:0:
448,192,20631,1,0,0:0:0:70:Explosion.wav
192,192,20937,1,2,0:0:0:0:
448,192,20937,1,0,0:0:0:0:
64,192,21244,1,0,0:0:0:0:
192,192,21397,1,8,0:0:0:0:
320,192,21550,1,2,0:0:0:0:
448,192,21550,1,0,0:0:0:0:
192,192,21703,1,0,0:0:0:0:
64,192,21856,1,8,0:0:0:0:
448,192,21856,1,0,0:0:0:0:
320,192,22009,1,0,0:0:0:0:
64,192,22162,1,2,0:0:0:0:
192,192,22162,1,0,0:0:0:0:
320,192,22315,1,0,0:0:0:0:
64,192,22621,1,8,0:0:0:0:
320,192,22774,1,2,0:0:0:0:
448,192,22774,1,0,0:0:0:0:
192,192,22927,1,0,0:0:0:0:
64,192,23080,1,8,0:0:0:0:
448,192,23080,1,0,0:0:0:0:
320,192,23233,1,0,0:0:0:0:
64,192,23386,1,2,0:0:0:0:
192,192,23386,1,0,0:0:0:0:
320,192,23540,1,0,0:0:0:0:
448,192,23693,1,0,0:0:0:0:
192,192,23846,1,8,0:0:0:0:
64,192,23999,1,2,0:0:0:0:
448,192,23999,1,0,0:0:0:0:
192,192,24152,1,0,0:0:0:0:
320,192,24305,1,8,0:0:0:0:
448,192,24305,1,0,0:0:0:0:
192,192,24458,1,0,0:0:0:0:
64,192,24611,1,2,0:0:0:0:
448,192,24611,1,0,0:0:0:0:
320,192,24764,1,0,0:0:0:0:
192,192,25070,1,8,0:0:0:0:
320,192,25147,1,0,0:0:0:0:
448,192,25223,1,2,0:0:0:0:
64,192,25223,1,0,0:0:0:0:
320,192,25300,1,0,0:0:0:0:
192,192,25376,1,0,0:0:0:0:
320,192,25529,1,4,0:0:0:0:
448,192,25529,1,8,0:0:0:0:
192,192,25682,1,0,0:0:0:0:
64,192,25835,1,2,0:0:0:0:
448,192,25835,1,0,0:0:0:0:
192,192,25988,1,0,0:0:0:0:
320,192,26295,1,8,0:0:0:0:
64,192,26448,1,2,0:0:0:0:
192,192,26448,1,0,0:0:0:0:
320,192,26601,1,0,0:0:0:0:
64,192,26754,1,8,0:0:0:0:
448,192,26754,1,0,0:0:0:0:
192,192,26907,1,0,0:0:0:0:
320,192,27060,1,2,0:0:0:0:
448,192,27060,1,0,0:0:0:0:
64,192,27366,1,0,0:0:0:0:
192,192,27443,1,0,0:0:0:0:
320,192,27519,1,8,0:0:0:0:
448,192,27596,1,0,0:0:0:0:
64,192,27672,1,2,0:0:0:0:
192,192,27672,1,0,0:0:0:0:
320,192,27749,1,0,0:0:0:0:
192,192,27825,1,0,0:0:0:0:
64,192,27902,1,0,0:0:0:0:
320,192,27978,1,8,0:0:0:0:
448,192,27978,1,0,0:0:0:0:
64,192,28284,1,2,0:0:0:0:
192,192,28284,1,0,0:0:0:0:
320,192,28437,1,0,0:0:0:0:
64,192,28591,1,0,0:0:0:0:
192,192,28744,1,8,0:0:0:0:
320,192,28897,1,2,0:0:0:0:
448,192,28897,1,0,0:0:0:0:
192,192,29050,1,0,0:0:0:0:
64,192,29203,1,8,0:0:0:0:
448,192,29203,1,0,0:0:0:0:
64,192,29509,1,2,0:0:0:0:
192,192,29509,1,0,0:0:0:0:
320,192,29662,1,2,0:0:0:0:
448,192,29662,1,0,0:0:0:0:
192,192,29815,1,0,0:0:0:0:
320,192,29968,1,8,0:0:0:0:
64,192,30121,1,2,0:0:0:0:
448,192,30121,1,0,0:0:0:0:
192,192,30274,1,0,0:0:0:0:
320,192,30427,1,4,0:0:0:0:
448,192,30427,1,8,0:0:0:0:
192,192,30580,1,0,0:0:0:0:
448,192,30733,1,2,0:0:0:0:
64,192,30733,1,0,0:0:0:0:
192,192,30886,1,0,0:0:0:0:
320,192,31040,1,0,0:0:0:0:
192,192,31193,1,8,0:0:0:0:
64,192,31346,1,2,0:0:0:0:
448,192,31346,1,0,0:0:0:0:
320,192,31499,1,0,0:0:0:0:
64,192,31652,1,8,0:0:0:0:
192,192,31652,1,0,0:0:0:0:
448,192,31805,1,0,0:0:0:0:
320,192,31958,1,2,0:0:0:0:
192,192,31958,1,0,0:0:0:0:
64,192,32111,1,0,0:0:0:0:
192,192,32264,1,0,0:0:0:0:
320,192,32417,1,8,0:0:0:0:
64,192,32570,1,2,0:0:0:0:
448,192,32570,1,0,0:0:0:0:
192,192,32723,1,0,0:0:0:0:
320,192,32876,1,8,0:0:0:0:
448,192,32876,1,0,0:0:0:0:
192,192,33029,1,0,0:0:0:0:
64,192,33182,1,2,0:0:0:0:
448,192,33182,1,0,0:0:0:0:
320,192,33335,1,0,0:0:0:0:
192,192,33488,1,0,0:0:0:0:
64,192,33642,1,8,0:0:0:0:
320,192,33795,1,2,0:0:0:0:
448,192,33795,1,0,0:0:0:0:
192,192,33948,1,0,0:0:0:0:
448,192,34101,1,8,0:0:0:0:
64,192,34101,1,0,0:0:0:0:
320,192,34254,1,0,0:0:0:0:
64,192,34407,1,2,0:0:0:0:
192,192,34407,1,0,0:0:0:0:
448,192,34560,1,0,0:0:0:0:
320,192,34713,1,0,0:0:0:0:
192,192,34866,1,8,0:0:0:0:
64,192,35019,1,2,0:0:0:0:
448,192,35019,1,0,0:0:0:0:
192,192,35172,1,0,0:0:0:0:
320,192,35325,1,4,0:0:0:0:
448,192,35325,1,8,0:0:0:0:
64,192,35478,1,0,0:0:0:0:
192,192,35631,1,2,0:0:0:0:
320,192,35631,1,0,0:0:0:0:
448,192,35784,1,0,0:0:0:0:
320,192,35937,1,0,0:0:0:0:
192,192,36091,1,8,0:0:0:0:
64,192,36244,1,2,0:0:0:0:
448,192,36244,1,0,0:0:0:0:
320,192,36397,1,0,0:0:0:0:
192,192,36550,1,8,0:0:0:0:
64,192,36550,1,0,0:0:0:0:
448,192,36703,1,0,0:0:0:0:
320,192,36856,1,2,0:0:0:0:
192,192,36856,1,0,0:0:0:0:
64,192,37009,1,0,0:0:0:0:
192,192,37162,1,0,0:0:0:0:
320,192,37315,1,8,0:0:0:0:
64,192,37468,1,2,0:0:0:0:
448,192,37468,1,0,0:0:0:0:
192,192,37621,1,0,0:0:0:0:
320,192,37774,1,8,0:0:0:0:
448,192,37774,1,0,0:0:0:0:
192,192,37927,1,0,0:0:0:0:
64,192,38080,1,2,0:0:0:0:
448,192,38080,1,0,0:0:0:0:
320,192,38233,1,0,0:0:0:0:
192,192,38386,1,0,0:0:0:0:
320,192,38540,1,8,0:0:0:0:
64,192,38693,1,2,0:0:0:0:
448,192,38693,1,0,0:0:0:0:
320,192,38846,1,0,0:0:0:0:
192,192,38999,1,8,0:0:0:0:
64,192,38999,1,0,0:0:0:0:
320,192,39152,1,0,0:0:0:0:
192,192,39305,1,2,0:0:0:0:
64,192,39305,1,0,0:0:0:0:
320,192,39458,1,2,0:0:0:0:
448,192,39458,1,0,0:0:0:0:
64,192,39611,1,0,0:0:0:0:
192,192,39764,1,8,0:0:0:0:
320,192,39917,1,2,0:0:0:0:
448,192,39917,1,0,0:0:0:0:
192,192,40070,1,0,0:0:0:0:
64,192,40223,1,4,0:0:0:0:
448,192,40223,1,8,0:0:0:0:
320,192,40300,1,0,0:0:0:0:
192,192,40376,1,0,0:0:0:0:
64,192,40453,1,0,0:0:0:0:
448,192,40529,1,2,0:0:0:0:
320,192,40606,1,0,0:0:0:0:
192,192,40682,1,0,0:0:0:0:
64,192,40759,1,0,0:0:0:0:
448,192,40835,1,0,0:0:0:0:
320,192,40912,1,0,0:0:0:0:
64,192,40988,1,8,0:0:0:0:
192,192,41065,1,0,0:0:0:0:
448,192,41142,1,2,0:0:0:0:
320,192,41218,1,0,0:0:0:0:
192,192,41295,1,0,0:0:0:0:
320,192,41371,1,0,0:0:0:0:
64,192,41448,1,8,0:0:0:0:
448,192,41448,1,0,0:0:0:0:
192,192,41524,1,0,0:0:0:0:
320,192,41601,1,0,0:0:0:0:
448,192,41677,1,0,0:0:0:0:
64,192,41754,1,2,0:0:0:0:
192,192,41830,1,0,0:0:0:0:
320,192,41907,1,0,0:0:0:0:
448,192,41983,1,0,0:0:0:0:
64,192,42060,1,0,0:0:0:0:
192,192,42136,1,0,0:0:0:0:
448,192,42213,1,8,0:0:0:0:
320,192,42290,1,0,0:0:0:0:
64,192,42366,1,2,0:0:0:0:
192,192,42443,1,0,0:0:0:0:
320,192,42519,1,0,0:0:0:0:
192,192,42596,1,0,0:0:0:0:
64,192,42672,1,8,0:0:0:0:
448,192,42672,1,0,0:0:0:0:
320,192,42749,1,0,0:0:0:0:
192,192,42825,1,0,0:0:0:0:
64,192,42902,1,0,0:0:0:0:
320,192,42978,1,2,0:0:0:0:
448,192,43131,1,0,0:0:0:0:
320,192,43208,1,0,0:0:0:0:
192,192,43284,1,0,0:0:0:0:
64,192,43361,1,0,0:0:0:0:
320,192,43437,1,8,0:0:0:0:
448,192,43591,1,2,0:0:0:0:
320,192,43667,1,0,0:0:0:0:
192,192,43744,1,0,0:0:0:0:
64,192,43820,1,0,0:0:0:0:
192,192,43897,1,8,0:0:0:0:
448,192,43897,1,0,0:0:0:0:
320,192,44050,1,0,0:0:0:0:
192,192,44126,1,0,0:0:0:0:
64,192,44203,1,2,0:0:0:0:
192,192,44279,1,0,0:0:0:0:
320,192,44356,1,0,0:0:0:0:
64,192,44509,1,0,0:0:0:0:
192,192,44585,1,0,0:0:0:0:
320,192,44662,1,8,0:0:0:0:
192,192,44738,1,0,0:0:0:0:
448,192,44815,1,2,0:0:0:0:
320,192,44892,1,0,0:0:0:0:
192,192,44968,1,0,0:0:0:0:
320,192,45045,1,0,0:0:0:0:
64,192,45121,1,4,0:0:0:0:
448,192,45121,1,8,0:0:0:0:
192,192,45198,1,0,0:0:0:0:
320,192,45274,1,0,0:0:0:0:
448,192,45351,1,0,0:0:0:0:
64,192,45427,1,2,0:0:0:0:
192,192,45504,1,0,0:0:0:0:
320,192,45580,1,0,0:0:0:0:
448,192,45657,1,0,0:0:0:0:
64,192,45733,1,0,0:0:0:0:
192,192,45810,1,0,0:0:0:0:
448,192,45886,1,8,0:0:0:0:
320,192,45963,1,0,0:0:0:0:
64,192,46040,1,2,0:0:0:0:
192,192,46116,1,0,0:0:0:0:
320,192,46193,1,0,0:0:0:0:
192,192,46269,1,0,0:0:0:0:
64,192,46346,1,8,0:0:0:0:
448,192,46346,1,0,0:0:0:0:
320,192,46422,1,0,0:0:0:0:
192,192,46499,1,0,0:0:0:0:
64,192,46575,1,0,0:0:0:0:
448,192,46652,1,2,0:0:0:0:
320,192,46728,1,0,0:0:0:0:
192,192,46805,1,0,0:0:0:0:
64,192,46881,1,0,0:0:0:0:
448,192,46958,1,0,0:0:0:0:
320,192,47034,1,0,0:0:0:0:
64,192,47111,1,8,0:0:0:0:
192,192,47187,1,0,0:0:0:0:
448,192,47264,1,2,0:0:0:0:
320,192,47341,1,0,0:0:0:0:
192,192,47417,1,0,0:0:0:0:
320,192,47494,1,0,0:0:0:0:
64,192,47570,1,8,0:0:0:0:
448,192,47570,1,0,0:0:0:0:
192,192,47647,1,0,0:0:0:0:
320,192,47723,1,0,0:0:0:0:
448,192,47800,1,0,0:0:0:0:
192,192,47876,1,2,0:0:0:0:
64,192,48029,1,0,0:0:0:0:
192,192,48106,1,0,0:0:0:0:
320,192,48182,1,0,0:0:0:0:
448,192,48259,1,0,0:0:0:0:
192,192,48335,1,8,0:0:0:0:
64,192,48488,1,2,0:0:0:0:
192,192,48565,1,0,0:0:0:0:
320,192,48642,1,0,0:0:0:0:
448,192,48718,1,0,0:0:0:0:
64,192,48795,1,8,0:0:0:0:
192,192,48795,1,0,0:0:0:0:
320,192,48948,1,2,0:0:0:0:
448,192,49024,1,0,0:0:0:0:
192,192,49101,1,8,0:0:0:0:
320,192,49177,1,0,0:0:0:0:
448,192,49254,1,2,0:0:0:0:
320,192,49330,1,0,0:0:0:0:
64,192,49407,1,0,0:0:0:0:
192,192,49483,1,0,0:0:0:0:
320,192,49560,1,8,0:0:0:0:
448,192,49636,1,0,0:0:0:0:
192,192,49713,1,2,0:0:0:0:
320,192,49790,1,0,0:0:0:0:
192,192,49866,1,0,0:0:0:0:
64,192,49943,1,0,0:0:0:0:
320,192,50019,1,4,0:0:0:0:
448,192,50019,1,8,0:0:0:0:
192,192,50172,1,0,0:0:0:0:
320,192,50325,1,8,0:0:0:0:
64,192,50478,1,4,0:0:0:0:
192,192,50478,1,2,0:0:0:0:
320,192,50631,1,0,0:0:0:0:
64,192,50784,1,2,0:0:0:0:
448,192,50784,1,0,0:0:0:0:
192,192,50937,1,4,0:0:0:0:
320,192,51091,1,0,0:0:0:0:
64,192,51244,1,8,0:0:0:0:
320,192,51397,1,4,0:0:0:0:
448,192,51397,1,2,0:0:0:0:
192,192,51550,1,0,0:0:0:0:
64,192,51703,1,2,0:0:0:0:
448,192,51703,1,0,0:0:0:0:
320,192,51856,1,8,0:0:0:0:
192,192,52009,1,8,0:0:0:0:
64,192,52162,1,2,0:0:0:0:
320,192,52315,1,0,0:0:0:0:
64,192,52468,1,4,0:0:0:0:
192,192,52468,1,8,0:0:0:0:
448,192,52621,1,0,0:0:0:0:
320,192,52774,1,8,0:0:0:0:
64,192,52927,1,4,0:0:0:0:
192,192,52927,1,2,0:0:0:0:
320,192,53080,1,0,0:0:0:0:
64,192,53233,1,2,0:0:0:0:
448,192,53233,1,0,0:0:0:0:
192,192,53386,1,12,0:0:0:0:
320,192,53540,1,0,0:0:0:0:
64,192,53693,1,8,0:0:0:0:
320,192,53846,1,4,0:0:0:0:
448,192,53846,1,2,0:0:0:0:
192,192,53999,1,0,0:0:0:0:
64,192,54152,1,2,0:0:0:0:
448,192,54152,1,0,0:0:0:0:
320,192,54305,1,8,0:0:0:0:
192,192,54458,1,8,0:0:0:0:
448,192,54611,1,2,0:0:0:0:
192,192,54764,1,0,0:0:0:0:
320,192,54917,1,8,0:0:0:0:
448,192,54917,1,4,0:0:0:0:
64,192,55070,1,0,0:0:0:0:
192,192,55223,1,8,0:0:0:0:
320,192,55376,1,4,0:0:0:0:
448,192,55376,1,2,0:0:0:0:
192,192,55529,1,0,0:0:0:0:
64,192,55682,1,2,0:0:0:0:
448,192,55682,1,0,0:0:0:0:
320,192,55835,1,12,0:0:0:0:
192,192,55988,1,0,0:0:0:0:
448,192,56142,1,8,0:0:0:0:
192,192,56295,1,2,0:0:0:0:
64,192,56295,1,4,0:0:0:0:
320,192,56448,1,0,0:0:0:0:
64,192,56601,1,2,0:0:0:0:
448,192,56601,1,0,0:0:0:0:
192,192,56754,1,12,0:0:0:0:
320,192,56907,1,8,0:0:0:0:
192,192,57060,1,2,0:0:0:0:
320,192,57213,1,0,0:0:0:0:
64,192,57366,1,8,0:0:0:0:
448,192,57366,1,4,0:0:0:0:
320,192,57570,1,8,0:0:0:0:
192,192,57774,1,8,0:0:0:0:
320,192,57876,1,2,0:0:0:0:
64,192,57978,1,8,0:0:0:0:
448,192,57978,1,4,0:0:0:0:
192,192,58182,1,8,0:0:0:0:
320,192,58386,1,8,0:0:0:0:
192,192,58488,1,2,0:0:0:0:
64,192,58591,1,12,0:0:0:0:
448,192,58591,128,0,59815:0:0:0:70:Explosion.wav
192,192,58897,1,8,0:0:0:0:
64,192,59203,1,2,0:0:0:0:
320,192,59203,1,0,0:0:0:0:
192,192,59509,1,0,0:0:0:0:
64,192,59713,1,8,0:0:0:0:
320,192,59815,1,8,0:0:0:0:
64,192,60019,1,8,0:0:0:0:
320,192,60121,1,8,0:0:0:0:
192,192,60427,1,2,0:0:0:0:
448,192,60427,1,0,0:0:0:0:
320,192,60733,1,0,0:0:0:0:
192,192,60937,1,2,0:0:0:0:
64,192,61040,1,8,0:0:0:0:
448,192,61040,1,0,0:0:0:0:
320,192,61346,1,8,0:0:0:0:
192,192,61652,1,2,0:0:0:0:
448,192,61652,1,0,0:0:0:0:
320,192,61958,1,0,0:0:0:0:
448,192,62162,1,8,0:0:0:0:
192,192,62264,1,8,0:0:0:0:
448,192,62468,1,8,0:0:0:0:
192,192,62570,1,8,0:0:0:0:
64,192,62876,1,2,0:0:0:0:
320,192,62876,1,0,0:0:0:0:
192,192,63182,1,8,0:0:0:0:
320,192,63284,1,0,0:0:0:0:
192,192,63386,1,2,0:0:0:0:
64,192,63488,1,4,0:0:0:0:
448,192,63488,1,8,0:0:0:0:
192,192,63591,1,0,0:0:0:0:
320,192,63693,1,0,0:0:0:0:
448,192,63795,1,0,0:0:0:0:
192,192,63897,1,0,0:0:0:0:
320,192,63999,1,0,0:0:0:0:
64,192,64101,1,2,0:0:0:0:
448,192,64101,1,0,0:0:0:0:
320,192,64203,1,0,0:0:0:0:
192,192,64305,1,0,0:0:0:0:
64,192,64407,1,0,0:0:0:0:
320,192,64509,1,0,0:0:0:0:
192,192,64611,1,8,0:0:0:0:
64,192,64713,1,8,0:0:0:0:
448,192,64713,1,0,0:0:0:0:
192,192,64917,1,8,0:0:0:0:
448,192,65019,1,8,0:0:0:0:
64,192,65325,1,2,0:0:0:0:
320,192,65325,1,0,0:0:0:0:
192,192,65631,1,0,0:0:0:0:
64,192,65937,1,8,0:0:0:0:
448,192,65937,1,0,0:0:0:0:
320,192,66040,1,0,0:0:0:0:
192,192,66142,1,0,0:0:0:0:
448,192,66244,1,8,0:0:0:0:
320,192,66346,1,0,0:0:0:0:
192,192,66448,1,0,0:0:0:0:
64,192,66550,1,2,0:0:0:0:
448,192,66550,1,0,0:0:0:0:
320,192,66652,1,0,0:0:0:0:
192,192,66754,1,0,0:0:0:0:
320,192,66856,1,0,0:0:0:0:
64,192,66958,1,0,0:0:0:0:
192,192,67060,1,8,0:0:0:0:
320,192,67162,1,8,0:0:0:0:
448,192,67162,1,0,0:0:0:0:
192,192,67264,1,0,0:0:0:0:
64,192,67366,1,8,0:0:0:0:
320,192,67468,1,8,0:0:0:0:
192,192,67570,1,0,0:0:0:0:
64,192,67672,1,0,0:0:0:0:
320,192,67774,1,2,0:0:0:0:
448,192,67774,1,0,0:0:0:0:
192,192,67876,1,0,0:0:0:0:
320,192,67978,1,8,0:0:0:0:
64,192,68080,1,2,0:0:0:0:
448,192,68080,1,0,0:0:0:0:
192,192,68182,1,0,0:0:0:0:
320,192,68284,1,8,0:0:0:0:
64,192,68386,1,8,0:0:0:0:
448,192,68386,128,0,70835:0:0:0:0:
192,192,69611,1,0,0:0:0:100:C7S_s.wav
64,192,70835,1,0,0:0:0:100:A6S_s.wav
192,192,72060,1,0,0:0:0:100:A6S_s.wav
320,192,72825,1,8,0:0:0:0:
64,192,72978,1,2,0:0:0:0:
448,192,73055,1,0,0:0:0:70:A5S_s.wav
192,192,73131,1,0,0:0:0:70:B5S_s.wav
320,192,73208,1,0,0:0:0:70:C6S_s.wav
448,192,73284,1,12,0:0:0:0:
64,192,73284,1,0,0:0:0:70:Explosion.wav
192,192,73361,1,0,0:0:0:0:
320,192,73437,1,0,0:0:0:0:
448,192,73514,1,0,0:0:0:0:
64,192,73591,1,2,0:0:0:0:
320,192,73667,1,0,0:0:0:0:
192,192,73744,1,0,0:0:0:0:
448,192,73820,1,0,0:0:0:0:
64,192,73897,1,0,0:0:0:0:
192,192,73973,1,0,0:0:0:0:
448,192,74050,1,8,0:0:0:0:
320,192,74126,1,0,0:0:0:0:
64,192,74203,1,2,0:0:0:0:
192,192,74279,1,0,0:0:0:0:
320,192,74356,1,0,0:0:0:0:
448,192,74432,1,0,0:0:0:0:
64,192,74509,1,8,0:0:0:0:
192,192,74509,1,0,0:0:0:0:
320,192,74585,1,0,0:0:0:0:
64,192,74662,1,0,0:0:0:0:
192,192,74738,1,0,0:0:0:0:
448,192,74815,1,2,0:0:0:0:
320,192,74892,1,0,0:0:0:0:
192,192,74968,1,0,0:0:0:0:
64,192,75045,1,0,0:0:0:0:
448,192,75121,1,0,0:0:0:0:
320,192,75198,1,0,0:0:0:0:
192,192,75274,1,8,0:0:0:0:
320,192,75351,1,0,0:0:0:0:
64,192,75427,1,2,0:0:0:0:
192,192,75504,1,0,0:0:0:0:
320,192,75580,1,0,0:0:0:0:
448,192,75657,1,0,0:0:0:0:
64,192,75733,1,8,0:0:0:0:
192,192,75733,1,0,0:0:0:0:
320,192,75810,1,0,0:0:0:0:
192,192,75886,1,0,0:0:0:0:
64,192,75963,1,0,0:0:0:0:
448,192,76040,1,2,0:0:0:0:
320,192,76116,1,0,0:0:0:0:
64,192,76193,1,0,0:0:0:0:
192,192,76269,1,0,0:0:0:0:
448,192,76346,1,0,0:0:0:0:
320,192,76422,1,0,0:0:0:0:
192,192,76499,1,8,0:0:0:0:
64,192,76575,1,0,0:0:0:0:
448,192,76652,1,2,0:0:0:0:
320,192,76728,1,0,0:0:0:0:
192,192,76805,1,0,0:0:0:0:
320,192,76881,1,0,0:0:0:0:
64,192,76958,1,8,0:0:0:0:
448,192,76958,1,0,0:0:0:0:
192,192,77034,1,0,0:0:0:0:
320,192,77111,1,0,0:0:0:0:
448,192,77187,1,0,0:0:0:0:
192,192,77264,1,2,0:0:0:0:
320,192,77341,1,0,0:0:0:0:
64,192,77417,1,0,0:0:0:0:
448,192,77494,1,0,0:0:0:0:
192,192,77570,1,0,0:0:0:0:
320,192,77647,1,0,0:0:0:0:
64,192,77723,1,8,0:0:0:0:
192,192,77800,1,0,0:0:0:0:
448,192,77876,1,2,0:0:0:0:
320,192,77953,1,0,0:0:0:0:
192,192,78029,1,0,0:0:0:0:
64,192,78106,1,0,0:0:0:0:
320,192,78182,1,4,0:0:0:0:
448,192,78182,1,8,0:0:0:0:
192,192,78259,1,0,0:0:0:0:
448,192,78335,1,0,0:0:0:0:
320,192,78412,1,0,0:0:0:0:
64,192,78488,1,2,0:0:0:0:
192,192,78565,1,0,0:0:0:0:
320,192,78642,1,0,0:0:0:0:
448,192,78718,1,0,0:0:0:0:
64,192,78795,1,0,0:0:0:0:
320,192,78871,1,0,0:0:0:0:
192,192,78948,1,8,0:0:0:0:
448,192,79024,1,0,0:0:0:0:
64,192,79101,1,2,0:0:0:0:
192,192,79177,1,0,0:0:0:0:
320,192,79254,1,0,0:0:0:0:
192,192,79330,1,0,0:0:0:0:
64,192,79407,1,8,0:0:0:0:
448,192,79407,1,0,0:0:0:0:
320,192,79483,1,0,0:0:0:0:
192,192,79560,1,0,0:0:0:0:
64,192,79636,1,0,0:0:0:0:
448,192,79713,1,2,0:0:0:0:
320,192,79790,1,0,0:0:0:0:
64,192,79866,1,0,0:0:0:0:
192,192,79943,1,0,0:0:0:0:
448,192,80019,1,0,0:0:0:0:
320,192,80096,1,0,0:0:0:0:
192,192,80172,1,8,0:0:0:0:
320,192,80249,1,0,0:0:0:0:
64,192,80325,1,2,0:0:0:0:
448,192,80478,1,0,0:0:0:0:
64,192,80631,1,8,0:0:0:0:
192,192,80631,1,0,0:0:0:0:
320,192,80784,1,0,0:0:0:0:
64,192,80937,1,2,0:0:0:0:
448,192,80937,1,0,0:0:0:0:
192,192,81091,1,0,0:0:0:0:
320,192,81244,1,0,0:0:0:0:
448,192,81397,1,8,0:0:0:0:
64,192,81550,1,2,0:0:0:0:
192,192,81550,1,0,0:0:0:0:
320,192,81703,1,0,0:0:0:0:
64,192,81856,1,8,0:0:0:0:
448,192,81856,1,0,0:0:0:0:
192,192,82009,1,0,0:0:0:0:
320,192,82162,1,2,0:0:0:0:
448,192,82162,1,0,0:0:0:0:
64,192,82315,1,2,0:0:0:0:
192,192,82315,1,0,0:0:0:0:
448,192,82468,1,0,0:0:0:0:
320,192,82621,1,8,0:0:0:0:
64,192,82774,1,2,0:0:0:0:
192,192,82774,1,0,0:0:0:0:
320,192,82927,1,0,0:0:0:0:
64,192,83080,1,4,0:0:0:0:
448,192,83080,1,8,0:0:0:0:
320,192,83157,1,0,0:0:0:0:
192,192,83233,1,0,0:0:0:0:
64,192,83310,1,0,0:0:0:0:
448,192,83386,1,2,0:0:0:0:
192,192,83463,1,0,0:0:0:0:
320,192,83540,1,0,0:0:0:0:
64,192,83616,1,0,0:0:0:0:
448,192,83693,1,0,0:0:0:0:
320,192,83769,1,0,0:0:0:0:
64,192,83846,1,8,0:0:0:0:
192,192,83922,1,0,0:0:0:0:
448,192,83999,1,2,0:0:0:0:
320,192,84075,1,0,0:0:0:0:
192,192,84152,1,0,0:0:0:0:
64,192,84228,1,0,0:0:0:0:
320,192,84305,1,8,0:0:0:0:
448,192,84305,1,0,0:0:0:0:
192,192,84381,1,0,0:0:0:0:
448,192,84458,1,0,0:0:0:0:
320,192,84534,1,0,0:0:0:0:
64,192,84611,1,2,0:0:0:0:
192,192,84687,1,0,0:0:0:0:
320,192,84764,1,0,0:0:0:0:
448,192,84841,1,0,0:0:0:0:
64,192,84917,1,0,0:0:0:0:
192,192,84994,1,0,0:0:0:0:
320,192,85070,1,8,0:0:0:0:
192,192,85147,1,0,0:0:0:0:
448,192,85223,1,2,0:0:0:0:
320,192,85300,1,0,0:0:0:0:
192,192,85376,1,0,0:0:0:0:
64,192,85453,1,0,0:0:0:0:
320,192,85529,1,8,0:0:0:0:
448,192,85529,1,0,0:0:0:0:
192,192,85606,1,0,0:0:0:0:
320,192,85682,1,0,0:0:0:0:
448,192,85759,1,0,0:0:0:0:
64,192,85835,1,2,0:0:0:0:
192,192,85912,1,0,0:0:0:0:
448,192,85988,1,0,0:0:0:0:
320,192,86065,1,0,0:0:0:0:
64,192,86142,1,0,0:0:0:0:
192,192,86218,1,0,0:0:0:0:
320,192,86295,1,8,0:0:0:0:
448,192,86371,1,0,0:0:0:0:
64,192,86448,1,2,0:0:0:0:
192,192,86524,1,0,0:0:0:0:
320,192,86601,1,0,0:0:0:0:
192,192,86677,1,0,0:0:0:0:
64,192,86754,1,8,0:0:0:0:
448,192,86754,1,0,0:0:0:0:
320,192,86830,1,0,0:0:0:0:
192,192,86907,1,0,0:0:0:0:
64,192,86983,1,0,0:0:0:0:
320,192,87060,1,2,0:0:0:0:
192,192,87136,1,0,0:0:0:0:
448,192,87213,1,0,0:0:0:0:
64,192,87290,1,0,0:0:0:0:
320,192,87366,1,0,0:0:0:0:
192,192,87443,1,0,0:0:0:0:
448,192,87519,1,8,0:0:0:0:
320,192,87596,1,0,0:0:0:0:
64,192,87672,1,2,0:0:0:0:
192,192,87749,1,0,0:0:0:0:
320,192,87825,1,0,0:0:0:0:
448,192,87902,1,0,0:0:0:0:
64,192,87978,1,4,0:0:0:0:
192,192,87978,1,8,0:0:0:0:
320,192,88055,1,0,0:0:0:0:
64,192,88131,1,0,0:0:0:0:
192,192,88208,1,0,0:0:0:0:
448,192,88284,1,2,0:0:0:0:
320,192,88361,1,0,0:0:0:0:
192,192,88437,1,0,0:0:0:0:
64,192,88514,1,0,0:0:0:0:
448,192,88591,1,0,0:0:0:0:
192,192,88667,1,0,0:0:0:0:
320,192,88744,1,8,0:0:0:0:
64,192,88820,1,0,0:0:0:0:
448,192,88897,1,2,0:0:0:0:
320,192,88973,1,0,0:0:0:0:
192,192,89050,1,0,0:0:0:0:
320,192,89126,1,0,0:0:0:0:
64,192,89203,1,8,0:0:0:0:
448,192,89203,1,0,0:0:0:0:
192,192,89279,1,0,0:0:0:0:
320,192,89356,1,0,0:0:0:0:
448,192,89432,1,0,0:0:0:0:
64,192,89509,1,2,0:0:0:0:
192,192,89585,1,0,0:0:0:0:
448,192,89662,1,0,0:0:0:0:
320,192,89738,1,0,0:0:0:0:
64,192,89815,1,0,0:0:0:0:
192,192,89892,1,0,0:0:0:0:
320,192,89968,1,8,0:0:0:0:
192,192,90045,1,0,0:0:0:0:
448,192,90121,1,2,0:0:0:0:
320,192,90198,1,0,0:0:0:0:
64,192,90274,1,0,0:0:0:0:
192,192,90351,1,0,0:0:0:0:
320,192,90427,1,8,0:0:0:0:
448,192,90427,1,0,0:0:0:0:
192,192,90580,1,0,0:0:0:0:
64,192,90733,1,2,0:0:0:0:
448,192,90733,1,0,0:0:0:0:
320,192,90886,1,0,0:0:0:0:
192,192,91040,1,0,0:0:0:0:
64,192,91193,1,8,0:0:0:0:
320,192,91346,1,2,0:0:0:0:
448,192,91346,1,0,0:0:0:0:
192,192,91499,1,0,0:0:0:0:
64,192,91652,1,8,0:0:0:0:
448,192,91652,1,0,0:0:0:0:
320,192,91805,1,0,0:0:0:0:
64,192,91958,1,2,0:0:0:0:
192,192,91958,1,0,0:0:0:0:
320,192,92111,1,2,0:0:0:0:
448,192,92111,1,0,0:0:0:0:
64,192,92264,1,0,0:0:0:0:
192,192,92417,1,8,0:0:0:0:
320,192,92570,1,2,0:0:0:0:
448,192,92570,1,0,0:0:0:0:
192,192,92723,1,0,0:0:0:0:
64,192,92876,1,4,0:0:0:0:
448,192,92876,1,8,0:0:0:0:
192,192,93029,1,0,0:0:0:0:
320,192,93182,1,2,0:0:0:0:
448,192,93182,1,0,0:0:0:0:
64,192,93335,1,8,0:0:0:0:
192,192,93335,1,0,0:0:0:0:
320,192,93488,1,0,0:0:0:0:
64,192,93642,1,2,0:0:0:0:
448,192,93642,1,0,0:0:0:0:
192,192,93795,1,8,0:0:0:0:
320,192,93795,1,0,0:0:0:0:
448,192,93948,1,0,0:0:0:0:
64,192,94101,1,2,0:0:0:0:
192,192,94101,1,0,0:0:0:0:
320,192,94254,1,8,0:0:0:0:
448,192,94254,1,0,0:0:0:0:
192,192,94407,1,0,0:0:0:0:
64,192,94560,1,2,0:0:0:0:
448,192,94560,1,0,0:0:0:0:
192,192,94713,1,8,0:0:0:0:
320,192,94713,1,0,0:0:0:0:
64,192,94866,1,0,0:0:0:0:
192,192,95019,1,2,0:0:0:0:
448,192,95019,1,0,0:0:0:0:
64,192,95172,1,4,0:0:0:0:
448,192,95172,128,8,95478:0:0:0:0:
64,192,95478,1,0,0:0:0:0:
192,192,95631,1,2,0:0:0:0:
320,192,95631,1,0,0:0:0:0:
448,192,95784,1,0,0:0:0:0:
320,192,95937,1,0,0:0:0:0:
64,192,96091,1,8,0:0:0:0:
192,192,96091,1,0,0:0:0:0:
320,192,96244,1,2,0:0:0:0:
448,192,96244,1,0,0:0:0:0:
192,192,96397,1,0,0:0:0:0:
64,192,96550,1,8,0:0:0:0:
448,192,96550,1,0,0:0:0:0:
320,192,96703,1,0,0:0:0:0:
192,192,96856,1,2,0:0:0:0:
64,192,96856,1,0,0:0:0:0:
320,192,97009,1,0,0:0:0:0:
448,192,97162,1,0,0:0:0:0:
192,192,97315,1,8,0:0:0:0:
64,192,97315,1,0,0:0:0:0:
320,192,97468,1,2,0:0:0:0:
448,192,97468,1,0,0:0:0:0:
192,192,97621,1,0,0:0:0:0:
64,192,97774,1,4,0:0:0:0:
448,192,97774,1,8,0:0:0:0:
320,192,97927,1,0,0:0:0:0:
64,192,98080,1,2,0:0:0:0:
192,192,98080,1,0,0:0:0:0:
64,192,98233,1,4,0:0:0:0:
448,192,98233,1,8,0:0:0:0:
192,192,98386,1,0,0:0:0:0:
320,192,98540,1,2,0:0:0:0:
448,192,98540,1,0,0:0:0:0:
64,192,98693,1,4,0:0:0:0:
448,192,98693,1,8,0:0:0:0:
320,192,98846,1,0,0:0:0:0:
64,192,98999,1,2,0:0:0:0:
192,192,98999,1,0,0:0:0:0:
64,192,99152,1,4,0:0:0:0:
448,192,99152,1,8,0:0:0:0:
192,192,99305,1,0,0:0:0:0:
320,192,99458,1,2,0:0:0:0:
448,192,99458,1,0,0:0:0:0:
64,192,99611,1,4,0:0:0:0:
448,192,99611,1,8,0:0:0:0:
320,192,99764,1,0,0:0:0:0:
64,192,99917,1,2,0:0:0:0:
192,192,99917,1,0,0:0:0:0:
64,192,100070,128,4,100376:0:0:0:0:
448,192,100070,1,8,0:0:0:0:
448,192,100376,1,0,0:0:0:0:
192,192,100529,1,2,0:0:0:0:
320,192,100529,1,0,0:0:0:0:
64,192,100682,1,0,0:0:0:0:
192,192,100835,1,0,0:0:0:0:
320,192,100988,1,8,0:0:0:0:
448,192,100988,1,0,0:0:0:0:
64,192,101142,1,2,0:0:0:0:
192,192,101142,1,0,0:0:0:0:
320,192,101295,1,0,0:0:0:0:
64,192,101448,1,8,0:0:0:0:
448,192,101448,1,0,0:0:0:0:
192,192,101601,1,0,0:0:0:0:
320,192,101754,1,2,0:0:0:0:
448,192,101754,1,0,0:0:0:0:
192,192,101907,1,0,0:0:0:0:
64,192,102060,1,0,0:0:0:0:
448,192,102213,1,8,0:0:0:0:
320,192,102213,1,0,0:0:0:0:
64,192,102366,1,2,0:0:0:0:
192,192,102366,1,0,0:0:0:0:
320,192,102519,1,0,0:0:0:0:
64,192,102672,1,4,0:0:0:0:
448,192,102672,1,8,0:0:0:0:
192,192,102825,1,0,0:0:0:0:
320,192,102978,1,2,0:0:0:0:
448,192,102978,1,0,0:0:0:0:
64,192,103131,1,8,0:0:0:0:
192,192,103131,1,0,0:0:0:0:
320,192,103284,1,0,0:0:0:0:
448,192,103437,1,2,0:0:0:0:
64,192,103437,1,0,0:0:0:0:
64,192,103591,1,8,0:0:0:0:
320,192,103591,1,4,0:0:0:0:
192,192,103744,1,0,0:0:0:0:
320,192,103897,1,0,0:0:0:0:
64,192,103897,1,2,0:0:0:0:
192,192,104050,1,8,0:0:0:0:
448,192,104050,1,0,0:0:0:0:
320,192,104203,1,0,0:0:0:0:
64,192,104356,1,2,0:0:0:0:
448,192,104356,1,0,0:0:0:0:
192,192,104509,1,8,0:0:0:0:
448,192,104509,1,4,0:0:0:0:
320,192,104662,1,0,0:0:0:0:
192,192,104815,1,2,0:0:0:0:
64,192,104815,1,0,0:0:0:0:
64,192,104968,1,4,0:0:0:0:
448,192,104968,128,8,105274:0:0:0:0:
64,192,105274,1,0,0:0:0:0:
192,192,105427,1,2,0:0:0:0:
320,192,105427,1,0,0:0:0:0:
448,192,105580,1,0,0:0:0:0:
320,192,105733,1,0,0:0:0:0:
64,192,105886,1,8,0:0:0:0:
192,192,105886,1,0,0:0:0:0:
320,192,106040,1,2,0:0:0:0:
448,192,106040,1,0,0:0:0:0:
192,192,106193,1,0,0:0:0:0:
64,192,106346,1,8,0:0:0:0:
448,192,106346,1,0,0:0:0:0:
320,192,106499,1,0,0:0:0:0:
64,192,106652,1,2,0:0:0:0:
192,192,106652,1,0,0:0:0:0:
448,192,106805,1,0,0:0:0:0:
320,192,106958,1,0,0:0:0:0:
64,192,107111,1,8,0:0:0:0:
192,192,107111,1,0,0:0:0:0:
448,192,107264,1,2,0:0:0:0:
320,192,107264,1,0,0:0:0:0:
192,192,107417,1,0,0:0:0:0:
64,192,107570,1,4,0:0:0:0:
448,192,107570,1,8,0:0:0:0:
320,192,107723,1,0,0:0:0:0:
64,192,107876,1,2,0:0:0:0:
192,192,107876,1,0,0:0:0:0:
64,192,108029,1,4,0:0:0:0:
448,192,108029,1,8,0:0:0:0:
192,192,108182,1,0,0:0:0:0:
320,192,108335,1,2,0:0:0:0:
448,192,108335,1,0,0:0:0:0:
64,192,108488,1,4,0:0:0:0:
448,192,108488,1,8,0:0:0:0:
320,192,108642,1,0,0:0:0:0:
64,192,108795,1,2,0:0:0:0:
192,192,108795,1,0,0:0:0:0:
64,192,108948,1,4,0:0:0:0:
448,192,108948,1,8,0:0:0:0:
192,192,109101,1,0,0:0:0:0:
448,192,109254,1,2,0:0:0:0:
320,192,109254,1,0,0:0:0:0:
64,192,109407,1,4,0:0:0:0:
448,192,109407,1,8,0:0:0:0:
320,192,109560,1,0,0:0:0:0:
192,192,109713,1,2,0:0:0:0:
64,192,109713,1,0,0:0:0:0:
64,192,109866,128,4,110172:0:0:0:0:
448,192,109866,1,8,0:0:0:0:
448,192,110172,1,0,0:0:0:0:
192,192,110325,1,2,0:0:0:0:
320,192,110325,1,0,0:0:0:0:
64,192,110478,1,0,0:0:0:0:
192,192,110631,1,0,0:0:0:0:
320,192,110784,1,8,0:0:0:0:
448,192,110784,1,0,0:0:0:0:
64,192,110937,1,2,0:0:0:0:
192,192,110937,1,0,0:0:0:0:
320,192,111091,1,0,0:0:0:0:
64,192,111244,1,8,0:0:0:0:
448,192,111244,1,0,0:0:0:0:
320,192,111397,1,0,0:0:0:0:
64,192,111550,1,2,0:0:0:0:
192,192,111550,1,0,0:0:0:0:
448,192,111703,1,0,0:0:0:0:
320,192,111856,1,0,0:0:0:0:
192,192,112009,1,8,0:0:0:0:
64,192,112009,1,0,0:0:0:0:
320,192,112162,1,2,0:0:0:0:
448,192,112162,1,0,0:0:0:0:
192,192,112315,1,0,0:0:0:0:
64,192,112468,1,12,0:0:0:0:
448,192,112468,128,0,114917:0:0:0:70:Explosion.wav
