osu file format v14

[General]
AudioFilename: audio.mp3
AudioLeadIn: 0
PreviewTime: 72992
Countdown: 0
SampleSet: Soft
StackLeniency: 0.2
Mode: 0
LetterboxInBreaks: 0
WidescreenStoryboard: 0

[Editor]
Bookmarks: 50019,72055
DistanceSpacing: 0.7
BeatDivisor: 4
GridSize: 16
TimelineZoom: 1.8

[Metadata]
Title:Chrono Diver -PENDULUMs-
TitleUnicode:Chrono Diver -PENDULUMs-
Artist:Nekomata L.E.D.Master+
ArtistUnicode:猫叉L.E.D.Master+
Creator:yf_bmp
Version:sahuang's Extra
Source:beatmania IIDX 22 PENDUAL
Tags:instrumental electronic video game Nakano Itsuki Toshiyuki Kakuta Naoyuki Sato 4th KONAMI Arcade Championship CHRONO BREAKS Ryuusei Aika sahuang z1085684963 fanzhen0019 Gust sodarose StarrStyx -Visceral- SuperBox Muya
BeatmapID:2592032
BeatmapSetID:714552

[Difficulty]
HPDrainRate:6
CircleSize:4.7
OverallDifficulty:8.6
ApproachRate:9.5
SliderMultiplier:1.7
SliderTickRate:1

[Events]
//Background and Video events
Video,-212,"BGA.flv"
0,0,"BG.png",0,0
//Break Periods
//Storyboard Layer 0 (Background)
//Storyboard Layer 1 (Fail)
//Storyboard Layer 2 (Pass)
//Storyboard Layer 3 (Foreground)
//Storyboard Layer 4 (Overlay)
//Storyboard Sound Samples

[TimingPoints]
1054,306.122448979592,4,2,1,60,1,0
1054,-133.333333333333,4,2,1,60,0,0
10237,-117.647058823529,4,2,1,60,0,0
10849,-111.111111111111,4,2,1,60,0,0
19421,-90.9090909090908,4,2,1,60,0,0
20640,-100,4,2,1,70,0,0
40237,-111.111111111111,4,2,1,70,0,0
41921,-90.9090909090908,4,2,1,70,0,0
45747,-100,4,2,1,70,0,0
46661,-100,4,2,1,70,0,0
46967,-100,4,2,1,70,0,0
47273,-100,4,2,1,70,0,0
47579,-100,4,2,1,70,0,0
57380,-133.333333333333,4,2,1,70,0,0
58600,-100,4,2,1,70,0,0
58605,-125,4,2,1,70,0,0
68400,-333.333333333333,4,2,1,70,0,0
69625,-166.666666666667,4,2,1,70,0,0
70849,-133.333333333333,4,2,1,70,0,0
72992,-100,4,2,1,55,0,0
73298,-100,4,2,1,55,0,1
78196,-66.6666666666667,4,2,1,55,0,1
78426,-100,4,2,1,55,0,1
79421,-66.6666666666667,4,2,1,55,0,1
80033,-100,4,2,1,55,0,1
80645,-83.3333333333333,4,2,1,55,0,1
82788,-100,4,2,1,55,0,0
83094,-100,4,2,1,55,0,1
87992,-66.6666666666667,4,2,1,55,0,1
90441,-83.3333333333333,4,2,1,55,0,1
92584,-100,4,2,1,55,0,1
92890,-100,4,2,1,60,0,0
101768,-111.111111111111,4,2,1,60,0,0
102074,-125,4,2,1,60,0,0
102380,-142.857142857143,4,2,1,60,0,0
102686,-100,4,2,1,60,0,0
109880,-76.9230769230769,4,2,1,60,0,0
112482,-166.666666666667,4,2,1,60,0,0
114855,-166.666666666667,4,2,1,5,0,0
114931,-100,4,2,10,50,0,0
117380,-100,4,2,10,30,0,0
119217,300,4,2,10,70,1,0
119817,-100,4,2,10,20,0,0
120192,480,4,2,1,70,1,0

[Colours]
Combo1 : 255,0,255
Combo2 : 0,128,255
Combo3 : 255,128,255
Combo4 : 128,255,255

[HitObjects]
312,101,1054,5,2,2:0:0:0:
295,133,1207,1,0,2:0:0:0:
323,157,1360,1,2,2:0:0:0:
339,125,1513,1,0,2:0:0:0:
309,87,1666,5,2,2:0:0:0:
285,136,1819,1,0,2:0:0:0:
325,172,1972,1,2,2:0:0:0:
350,123,2125,1,0,2:0:0:0:
305,65,2278,5,2,2:0:0:0:
268,139,2431,1,0,2:0:0:0:
329,193,2584,1,2,2:0:0:0:
366,119,2737,1,0,2:0:0:0:
292,266,2890,6,0,L|301:332,1,63.7500024318696,2|0,2:0|2:0,0:0:0:0:
171,158,3196,2,0,L|105:166,1,63.7500024318696,2|0,0:0|0:0,0:0:0:0:
283,91,3502,5,2,2:0:0:0:
304,123,3656,1,0,2:0:0:0:
306,161,3809,1,2,2:0:0:0:
288,194,3962,1,0,2:0:0:0:
276,65,4115,5,2,0:0:0:0:
308,113,4269,1,0,0:0:0:0:
311,170,4422,1,2,0:0:0:0:
284,219,4575,1,0,0:0:0:0:
267,26,4727,5,2,0:0:0:0:
314,98,4881,1,0,0:0:0:0:
319,184,5034,1,2,0:0:0:0:
278,258,5187,1,0,0:0:0:0:
201,112,5339,6,0,L|149:99,3,31.8750012159348,2|0|0|0,0:0|0:0|0:0|0:0,0:0:0:0:
146,126,5645,2,0,L|94:139,3,31.8750012159348,2|0|0|0,0:0|0:0|0:0|0:0,0:0:0:0:
92,156,5951,6,0,L|103:226,1,63.7500024318696,2|0,2:0|2:0,0:0:0:0:
182,323,6258,1,2,2:0:0:0:
182,323,6411,1,0,2:0:0:0:
232,138,6564,6,0,L|206:204,1,63.7500024318696,2|0,2:0|2:0,0:0:0:0:
182,323,6870,1,2,2:0:0:0:
182,323,7023,1,0,2:0:0:0:
362,192,7176,6,0,L|306:236,1,63.7500024318696,2|0,2:0|2:0,0:0:0:0:
182,323,7482,1,2,2:0:0:0:
182,323,7635,1,0,2:0:0:0:
199,211,7788,6,0,L|188:141,1,63.7500024318696,2|0,2:0|2:0,0:0:0:0:
311,2,8094,2,0,L|320:64,1,63.7500024318696,2|0,0:0|0:0,0:0:0:0:
432,215,8400,6,0,P|443:181|438:143,1,63.7500024318696,2|0,2:0|2:0,0:0:0:0:
401,314,8707,2,0,P|424:340|460:355,1,63.7500024318696,2|0,2:0|2:0,0:0:0:0:
330,237,9013,2,0,P|295:244|264:267,1,63.7500024318696,2|0,0:0|0:0,0:0:0:0:
467,184,9319,6,0,P|478:150|473:112,1,63.7500024318696,2|0,0:0|0:0,0:0:0:0:
304,54,9625,2,0,P|330:37|361:31,1,63.7500024318696,2|0,0:0|0:0,0:0:0:0:
330,237,9931,2,0,P|301:222|281:198,1,63.7500024318696,2|0,0:0|0:0,0:0:0:0:
188,59,10237,6,0,L|178:107,3,36.1250006890297,2|0|0|0,0:0|0:0|0:0|0:0,0:0:0:0:
150,117,10543,2,0,L|160:165,3,36.1250006890297,2|0|0|0,0:0|0:0|0:0|0:0,0:0:0:0:
125,174,10849,6,0,P|135:219|117:259,1,76.4999976654053,0|0,3:0|2:0,0:0:0:0:
47,213,11156,1,0,0:0:0:0:
17,331,11309,2,0,B|64:357|64:357|194:333,1,152.999995330811,2|2,0:0|0:0,0:0:0:0:
161,338,11768,1,0,0:0:0:0:
280,311,11921,6,0,P|306:247|229:204,1,152.999995330811,0|0,0:0|2:0,0:0:0:0:
248,201,12380,1,0,0:0:0:0:
128,229,12533,1,2,0:0:0:0:
248,201,12686,2,0,L|348:215,1,76.4999976654053,0|2,0:0|0:0,0:0:0:0:
157,105,12992,2,0,L|57:118,1,76.4999976654053,0|0,0:0|0:0,0:0:0:0:
29,191,13298,6,0,P|19:236|37:276,1,76.4999976654053,0|0,3:0|0:0,0:0:0:0:
99,310,13605,1,0,0:0:0:0:
106,227,13758,1,0,0:0:0:0:
198,294,13911,2,0,P|243:305|283:299,1,76.4999976654053,8|2,0:0|0:0,0:0:0:0:
354,258,14217,2,0,L|363:168,1,76.4999976654053,0|0,0:0|0:0,0:0:0:0:
328,96,14523,5,2,3:2:0:0:
236,101,14676,1,0,3:0:0:0:
144,106,14829,1,0,3:2:0:0:
52,111,14982,1,2,0:0:0:0:
328,96,15135,5,8,0:0:0:0:
144,106,15441,1,0,3:0:0:0:
52,111,15594,1,0,0:0:0:0:
101,190,15747,5,0,0:0:0:0:
163,230,15900,1,0,0:0:0:0:
238,209,16054,1,0,0:0:0:0:
101,190,16207,5,2,0:0:0:0:
138,186,16283,1,0,0:0:0:0:
163,230,16360,1,0,0:0:0:0:
201,204,16436,1,0,0:0:0:0:
238,209,16512,1,2,0:0:0:0:
329,222,16666,1,0,0:0:0:0:
404,169,16819,1,2,0:0:0:0:
371,151,16895,1,0,0:0:0:0:
404,131,16972,5,0,0:0:0:0:
334,70,17125,1,0,0:0:0:0:
245,93,17278,1,0,0:0:0:0:
404,131,17431,5,2,0:0:0:0:
376,92,17507,1,0,0:0:0:0:
334,70,17584,1,0,0:0:0:0:
287,70,17660,1,0,0:0:0:0:
245,93,17737,1,2,0:0:0:0:
200,204,17890,2,0,B|184:194|166:195|166:195|180:184|185:161,1,76.4999976654053,0|2,0:0|0:0,0:0:0:0:
286,237,18196,5,4,0:0:0:0:
324,239,18349,1,0,0:0:0:0:
362,241,18502,1,0,0:0:0:0:
400,243,18656,1,2,0:0:0:0:
382,347,18809,5,2,0:0:0:0:
286,237,18962,1,2,0:0:0:0:
267,138,19115,1,2,0:0:0:0:
301,69,19268,1,2,0:0:0:0:
144,70,19421,6,0,P|116:87|91:112,1,46.7500014266968,4|0,0:1|0:0,0:0:0:0:
41,223,19574,1,0,0:0:0:0:
51,230,19650,1,0,0:0:0:0:
64,231,19727,6,0,P|92:214|117:189,1,46.7500014266968,4|0,0:1|0:0,0:0:0:0:
286,194,19880,1,0,0:0:0:0:
276,187,19956,1,0,0:0:0:0:
263,186,20033,6,0,P|235:203|210:228,1,46.7500014266968,2|2,0:0|0:0,0:0:0:0:
192,292,20186,2,0,P|209:320|234:345,1,46.7500014266968,2|2,3:2|0:0,0:0:0:0:
313,353,20339,2,0,P|341:336|366:311,1,46.7500014266968,0|0,1:0|0:0,0:0:0:0:
384,247,20492,2,0,P|367:219|342:194,1,46.7500014266968,0|0,0:0|0:0,0:0:0:0:
263,186,20645,6,0,P|204:211|126:208,1,127.5,4|0,3:1|0:0,0:0:0:0:
122,201,20951,2,0,L|29:201,1,85,0|0,1:1|0:0,0:0:0:0:
132,72,21258,1,2,0:0:0:0:
208,107,21411,1,0,3:0:0:0:
280,61,21564,2,0,P|325:52|382:56,1,85,0|2,1:0|0:0,0:0:0:0:
467,238,21870,6,0,P|425:246|383:246,1,85,0|2,3:0|0:0,0:0:0:0:
307,206,22176,1,0,1:0:0:0:
227,290,22329,1,2,0:0:0:0:
225,300,22405,1,0,0:0:0:0:
223,310,22482,1,0,0:0:0:0:
221,321,22558,1,0,0:0:0:0:
219,331,22635,1,2,3:2:0:0:
138,223,22788,1,0,1:0:0:0:
138,223,22865,1,0,0:0:0:0:
138,223,22941,1,2,0:0:0:0:
343,318,23094,6,0,L|446:298,1,85,0|0,3:0|0:0,0:0:0:0:
512,122,23400,2,0,L|428:138,1,85,0|2,1:0|0:0,0:0:0:0:
236,44,23707,2,0,L|220:140,1,85,2|0,0:0|3:0,0:0:0:0:
166,314,24013,1,0,1:0:0:0:
106,195,24166,1,2,0:0:0:0:
282,246,24319,6,0,P|266:290|225:313,1,85,0|0,3:2|0:0,0:0:0:0:
166,314,24548,1,0,0:0:0:0:
151,305,24625,1,0,1:0:0:0:
106,195,24778,1,2,0:0:0:0:
259,50,24931,5,2,0:3:0:0:
242,56,25008,1,2,0:3:0:0:
255,67,25084,2,0,L|305:72,1,42.5,2|2,3:3|0:3,0:0:0:0:
423,134,25237,5,0,1:0:0:0:
440,140,25314,1,2,0:2:0:0:
427,151,25390,2,0,L|377:156,1,42.5,2|2,0:0|0:0,0:0:0:0:
220,258,25543,6,0,B|289:253|289:253|310:271|310:271|384:263,1,170,4|0,3:1|1:0,0:0:0:0:
190,173,26002,2,0,L|281:165,1,85,2|0,0:0|0:0,0:0:0:0:
166,309,26309,1,0,3:0:0:0:
81,316,26462,1,0,1:0:0:0:
81,316,26615,1,2,0:0:0:0:
147,114,26768,5,0,3:0:0:0:
166,309,26921,1,2,0:0:0:0:
250,301,27074,1,0,0:0:0:0:
267,303,27150,1,0,0:0:0:0:
284,305,27227,2,0,L|334:297,1,42.5,0|0,0:0|0:0,0:0:0:0:
410,257,27380,5,2,0:2:0:0:
438,198,27457,1,2,0:2:0:0:
380,170,27533,1,0,3:0:0:0:
351,228,27610,1,2,0:0:0:0:
399,235,27686,5,2,1:2:0:0:
411,217,27763,1,2,0:0:0:0:
399,200,27839,1,2,0:0:0:0:
378,207,27916,1,0,0:0:0:0:
378,228,27992,5,0,3:0:0:0:
274,24,28298,2,0,L|264:109,1,85,0|2,1:0|0:0,0:0:0:0:
305,260,28605,1,0,0:0:0:0:
160,113,28758,1,0,3:0:0:0:
83,190,28911,2,0,L|-4:204,1,85,0|2,1:0|0:0,0:0:0:0:
305,260,29217,1,0,0:0:0:0:
305,260,29523,5,0,1:0:0:0:
417,193,29676,1,0,1:0:0:0:
226,193,29829,5,2,3:2:0:0:
417,193,29982,1,2,0:0:0:0:
244,90,30135,6,0,L|304:101,1,42.5,0|0,1:0|0:0,0:0:0:0:
417,193,30288,2,0,L|375:185,1,42.5
106,212,30441,6,0,P|172:218|230:189,1,127.5,4|0,3:1|0:0,0:0:0:0:
244,175,30747,2,0,L|244:82,1,85,2|0,1:2|0:0,0:0:0:0:
403,27,31054,1,2,0:0:0:0:
396,111,31207,1,0,3:0:0:0:
391,195,31360,2,0,L|391:280,1,85,2|0,1:2|0:0,0:0:0:0:
177,350,31666,6,0,L|288:332,1,85,2|0,3:2|0:0,0:0:0:0:
318,232,31972,1,2,1:2:0:0:
227,155,32125,1,0,0:0:0:0:
101,223,32278,1,2,0:2:0:0:
81,248,32355,1,0,0:0:0:0:
73,278,32431,1,0,3:2:0:0:
177,350,32584,1,2,0:2:0:0:
197,325,32661,1,0,0:0:0:0:
205,295,32737,1,0,3:2:0:0:
108,123,32890,6,0,L|123:36,1,85,2|0,3:2|0:0,0:0:0:0:
283,238,33196,2,0,L|267:151,1,85,0|2,1:0|0:0,0:0:0:0:
493,16,33502,2,0,L|477:102,1,85,2|0,0:0|3:0,0:0:0:0:
268,154,33809,1,0,1:2:0:0:
387,94,33962,1,2,0:0:0:0:
347,284,34115,6,0,P|303:268|280:227,1,85,0|2,3:0|0:0,0:0:0:0:
268,154,34344,1,0,0:0:0:0:
273,137,34421,1,0,1:0:0:0:
387,94,34574,1,2,0:0:0:0:
474,215,34727,5,2,0:2:0:0:
468,198,34804,1,0,0:0:0:0:
457,211,34880,2,0,L|452:261,1,42.5,0|2,3:2|0:0,0:0:0:0:
301,361,35033,5,0,1:0:0:0:
295,378,35110,1,2,0:2:0:0:
284,365,35186,2,0,L|279:315,1,42.5,2|2,0:0|0:0,0:0:0:0:
194,117,35339,6,0,B|199:186|199:186|181:207|181:207|189:281,1,170,4|0,3:1|1:0,0:0:0:0:
270,108,35798,2,0,L|278:199,1,85,2|0,0:0|0:0,0:0:0:0:
80,167,36105,1,2,3:2:0:0:
283,261,36258,1,0,1:0:0:0:
283,261,36411,1,2,0:2:0:0:
263,38,36564,5,0,3:0:0:0:
80,167,36717,1,2,0:0:0:0:
283,261,36870,1,0,0:0:0:0:
281,244,36946,1,0,0:0:0:0:
279,227,37023,2,0,L|287:177,1,42.5,0|0,0:0|0:0,0:0:0:0:
402,146,37176,5,2,0:2:0:0:
431,201,37252,1,2,0:2:0:0:
423,263,37329,1,0,3:0:0:0:
380,309,37405,1,2,0:0:0:0:
319,322,37482,5,2,1:2:0:0:
350,317,37558,1,2,0:0:0:0:
381,325,37635,1,2,0:0:0:0:
405,344,37711,1,0,0:0:0:0:
420,372,37788,5,2,3:2:0:0:
90,337,38094,2,0,L|207:328,1,85,0|2,1:0|0:0,0:0:0:0:
319,322,38400,1,2,0:0:0:0:
36,201,38554,1,0,3:0:0:0:
101,123,38707,2,0,L|218:114,1,85,0|2,1:2|0:0,0:0:0:0:
402,98,39013,1,0,3:0:0:0:
402,98,39319,5,0,1:0:0:0:
335,210,39472,1,0,1:0:0:0:
335,19,39625,5,0,3:0:0:0:
335,210,39778,1,0,3:0:0:0:
288,84,39931,6,0,L|299:144,1,42.5,0|0,1:0|0:0,0:0:0:0:
419,223,40084,2,0,L|411:181,1,42.5
246,173,40237,5,4,3:1:0:0:
249,191,40313,1,0,0:0:0:0:
252,210,40390,1,0,0:0:0:0:
100,301,40543,2,0,L|113:205,1,76.4999976654053,2|0,1:2|0:0,0:0:0:0:
246,173,40849,5,2,0:2:0:0:
249,191,40925,1,0,0:0:0:0:
252,210,41002,1,0,3:0:0:0:
23,305,41156,2,0,L|29:257,1,38.2499988327027,2|0,1:2|0:0,0:0:0:0:
180,296,41309,2,0,L|174:333,1,38.2499988327027,0|0,0:2|0:0,0:0:0:0:
111,182,41462,6,0,P|82:129|66:89,2,76.4999976654053,2|0|2,3:2|0:0|1:2,0:0:0:0:
283,273,41921,2,0,B|305:289|335:281|364:255|366:225|351:194|328:180|293:183|293:183|268:205|237:213,1,233.750007133484
251,209,42380,1,0,1:0:0:0:
180,296,42533,1,0,0:0:0:0:
111,182,42686,5,2,3:2:0:0:
94,162,42762,1,0,0:0:0:0:
86,138,42839,1,0,0:0:0:0:
87,113,42915,1,0,0:0:0:0:
159,127,42992,5,0,1:0:0:0:
159,127,43145,5,2,0:2:0:0:
167,103,43221,1,0,0:0:0:0:
184,83,43298,1,0,0:0:0:0:
206,71,43374,1,0,0:0:0:0:
230,141,43451,5,0,3:0:0:0:
230,141,43605,5,2,1:2:0:0:
254,135,43681,1,0,0:0:0:0:
280,140,43758,1,0,0:0:0:0:
301,153,43834,1,0,0:0:0:0:
253,209,43911,5,0,3:0:0:0:
253,209,44064,5,2,0:0:0:0:
270,226,44140,1,0,0:0:0:0:
278,251,44217,1,0,1:0:0:0:
278,276,44293,1,0,0:0:0:0:
205,262,44370,5,2,0:0:0:0:
130,136,44523,5,0,0:0:0:0:
142,146,44599,1,2,0:0:0:0:
182,153,44676,1,0,3:0:0:0:
220,140,44752,1,0,0:0:0:0:
256,87,44829,5,0,1:0:0:0:
291,140,44906,1,2,0:0:0:0:
329,153,44982,1,0,0:0:0:0:
369,146,45059,1,0,0:0:0:0:
381,136,45135,5,4,3:1:0:0:
130,136,45441,1,2,1:2:0:0:
381,136,45747,2,0,P|397:199|395:227,1,85,2|0,0:2|3:0,0:0:0:0:
130,136,46054,2,0,P|114:199|116:227,1,85,2|0,1:2|0:2,0:0:0:0:
191,311,46360,5,2,3:2:0:0:
256,192,46513,1,0,0:0:0:0:
373,299,46666,2,0,L|287:293,1,85,2|0,1:2|0:0,0:0:0:0:
114,218,46972,1,2,0:0:0:0:
191,311,47125,1,0,3:0:0:0:
246,107,47278,2,0,L|258:209,1,85,0|0,1:0|0:0,0:0:0:0:
94,131,47584,5,2,3:2:0:0:
121,126,47660,1,0,0:0:0:0:
149,121,47737,1,0,0:0:0:0:
177,116,47813,1,0,0:0:0:0:
246,107,47890,5,0,1:0:0:0:
317,30,48043,5,2,0:2:0:0:
322,57,48119,1,0,0:0:0:0:
327,85,48196,1,0,0:0:0:0:
332,113,48272,1,0,0:0:0:0:
341,182,48349,5,0,3:0:0:0:
418,253,48502,5,2,1:2:0:0:
391,258,48578,1,0,0:0:0:0:
363,263,48655,1,0,0:0:0:0:
335,268,48731,1,0,0:0:0:0:
266,277,48808,5,0,3:0:0:0:
195,354,48961,5,2,0:0:0:0:
190,327,49037,1,0,0:0:0:0:
185,299,49115,2,0,L|163:271,2,28.3333333333333,2|0|0,1:2|0:0|0:0,0:0:0:0:
91,304,49268,5,0,1:0:0:0:
96,277,49344,1,0,0:0:0:0:
101,249,49422,2,0,L|123:221,2,28.3333333333333,0|0|0,0:0|0:0|0:0,0:0:0:0:
184,202,49574,5,0,3:0:0:0:
179,175,49650,1,0,0:0:0:0:
174,147,49728,2,0,L|155:106,3,42.5,0|2|0|0,1:0|0:0|0:0|0:0,0:0:0:0:
204,45,50033,5,4,3:1:0:0:
265,95,50186,1,0,0:0:0:0:
384,84,50339,1,0,3:0:0:0:
358,255,50492,5,4,1:2:0:0:
291,212,50645,1,0,0:0:0:0:
265,95,50798,1,0,3:0:0:0:
111,173,50951,5,4,3:1:0:0:
172,223,51104,1,0,0:0:0:0:
291,212,51257,1,0,3:0:0:0:
75,380,51411,5,4,1:2:0:0:
142,339,51564,1,0,0:0:0:0:
172,223,51717,1,0,3:0:0:0:
358,253,51870,5,0,3:1:0:0:
291,212,52023,1,0,0:0:0:0:
261,96,52176,1,0,1:1:0:0:
376,128,52329,1,0,3:0:0:0:
176,180,52482,5,4,3:1:0:0:
94,132,52635,1,0,0:0:0:0:
165,293,52788,1,0,3:0:0:0:
281,135,52941,5,4,1:2:0:0:
351,198,53094,1,0,0:0:0:0:
176,180,53247,1,0,3:0:0:0:
433,246,53400,5,4,3:1:0:0:
351,198,53553,1,0,0:0:0:0:
422,359,53706,1,0,3:0:0:0:
303,280,53860,5,4,1:2:0:0:
351,198,54013,1,0,0:0:0:0:
190,269,54166,1,0,3:0:0:0:
303,116,54319,5,0,3:1:0:0:
351,198,54472,1,0,0:0:0:0:
190,127,54625,1,0,1:1:0:0:
351,198,54778,1,0,0:0:0:0:
124,234,54931,5,4,3:1:0:0:
303,116,55084,1,0,0:0:0:0:
261,208,55237,1,0,3:0:0:0:
140,259,55390,5,4,1:2:0:0:
282,99,55543,1,0,0:0:0:0:
265,199,55696,1,0,3:0:0:0:
115,124,55849,5,4,3:1:0:0:
231,302,56002,1,0,0:0:0:0:
140,259,56155,1,0,3:0:0:0:
88,138,56308,5,4,1:2:0:0:
248,281,56461,1,0,0:0:0:0:
149,264,56614,1,0,0:0:0:0:
331,192,56768,5,0,3:1:0:0:
348,291,56921,1,0,0:0:0:0:
342,200,57074,1,0,1:1:0:0:
338,280,57227,1,0,0:0:0:0:
429,251,57380,6,0,P|451:235|465:208,1,42.5000016212464,4|0,0:1|0:0,0:0:0:0:
430,149,57584,2,0,P|405:137|374:139,1,42.5000016212464,0|0,0:0|0:0,0:0:0:0:
342,200,57788,2,0,P|344:227|361:252,1,42.5000016212464,0|0,0:0|0:0,0:0:0:0:
383,313,57992,5,4,0:0:0:0:
81,279,58196,1,0,0:0:0:0:
181,233,58400,5,0,0:0:0:0:
201,240,58502,1,0,0:0:0:0:
81,279,58605,6,0,L|76:176,1,90.6666666666667,4|0,0:2|0:0,0:0:0:0:
127,132,58911,2,0,P|170:116|224:122,1,90.6666666666667,0|0,3:0|0:0,0:0:0:0:
312,192,59217,1,0,1:0:0:0:
312,192,59523,2,0,L|420:180,1,90.6666666666667,0|0,0:0|0:0,0:0:0:0:
316,265,59829,6,0,L|424:253,1,90.6666666666667,0|0,3:2|0:0,0:0:0:0:
286,337,60135,2,0,P|251:308|240:247,1,90.6666666666667,0|0,3:0|0:0,0:0:0:0:
274,128,60441,1,0,1:0:0:0:
274,128,60747,2,0,L|287:23,1,90.6666666666667,0|0,0:0|0:0,0:0:0:0:
185,56,61054,6,0,L|173:145,1,90.6666666666667,0|0,3:0|0:0,0:0:0:0:
334,181,61360,2,0,P|293:207|246:205,1,90.6666666666667,2|0,3:2|0:0,0:0:0:0:
78,130,61666,1,0,1:2:0:0:
78,130,61972,2,0,L|90:227,1,90.6666666666667,0|0,0:2|0:0,0:0:0:0:
132,306,62278,6,0,P|176:324|223:315,1,90.6666666666667,2|0,0:0|3:0,0:0:0:0:
369,276,62584,2,0,P|325:258|278:267,1,90.6666666666667,2|0,3:2|0:0,0:0:0:0:
417,350,62890,1,0,1:0:0:0:
417,350,63196,1,0,3:0:0:0:
318,335,63400,1,2,3:2:0:0:
417,350,63502,6,0,P|459:321|478:277,1,90.6666666666667,4|0,3:2|0:0,0:0:0:0:
382,176,63809,2,0,L|399:284,1,90.6666666666667,2|0,0:0|0:0,0:0:0:0:
284,135,64115,2,0,L|301:243,1,90.6666666666667,0|0,1:0|0:0,0:0:0:0:
182,285,64421,1,2,0:0:0:0:
182,285,64625,1,0,0:0:0:0:
105,245,64727,6,0,L|2:259,1,90.6666666666667,0|0,3:0|3:0,0:0:0:0:
42,166,65033,2,0,L|131:153,1,90.6666666666667,2|0,0:0|0:0,0:0:0:0:
306,152,65339,2,0,P|265:176|211:172,1,90.6666666666667,0|0,1:0|0:0,0:0:0:0:
196,92,65645,2,0,P|237:68|291:72,1,90.6666666666667,2|0,0:0|0:0,0:0:0:0:
420,120,65951,6,0,L|437:230,1,90.6666666666667,0|0,3:0|0:0,0:0:0:0:
322,342,66258,2,0,L|308:252,1,90.6666666666667,0|0,3:0|0:0,0:0:0:0:
453,299,66564,1,0,1:0:0:0:
453,299,66870,1,2,0:0:0:0:
433,209,67074,1,0,0:0:0:0:
453,299,67176,6,0,L|345:316,1,90.6666666666667,0|0,3:0|0:0,0:0:0:0:
168,221,67482,2,0,L|276:238,1,90.6666666666667,0|0,3:0|0:0,0:0:0:0:
391,89,67788,5,0,1:0:0:0:
372,95,67992,1,2,0:0:0:0:
225,129,68094,5,0,1:0:0:0:
241,135,68298,1,2,0:0:0:0:
324,180,68400,6,0,P|340:181|359:184,1,25.4999992218018,4|0,0:1|0:0,0:0:0:0:
321,195,68707,2,0,P|331:207|342:222,1,25.4999992218018,0|0,0:0|0:0,0:0:0:0:
315,210,69013,2,0,P|314:226|311:245,1,25.4999992218018,0|0,0:1|0:0,0:0:0:0:
300,207,69320,2,0,P|287:217|272:228,1,25.4999992218018,0|0,0:0|0:0,0:0:0:0:
132,174,69625,6,0,P|101:175|64:181,1,50.9999984436036,0|0,0:0|0:0,0:0:0:0:
137,202,69932,2,0,P|116:225|94:255,1,50.9999984436036,0|0,0:0|0:0,0:0:0:0:
149,231,70238,2,0,P|150:261|156:298,1,50.9999984436036,0|0,0:1|0:0,0:0:0:0:
178,226,70543,2,0,P|201:246|231:268,1,50.9999984436036,0|0,0:0|0:0,0:0:0:0:
394,309,70849,5,0,0:0:0:0:
422,229,71002,1,0,0:0:0:0:
339,245,71156,1,0,0:0:0:0:
488,283,71309,5,0,0:0:0:0:
502,255,71385,1,0,0:0:0:0:
507,223,71462,1,0,0:0:0:0:
499,192,71538,1,0,0:0:0:0:
482,166,71615,1,0,0:0:0:0:
359,125,71768,1,0,0:0:0:0:
310,259,71921,5,0,0:0:0:0:
278,255,71997,1,0,0:0:0:0:
246,251,72074,1,0,0:0:0:0:
214,248,72150,1,0,0:0:0:0:
183,244,72227,1,0,0:0:0:0:
88,169,72380,6,0,L|30:181,1,31.8750012159348
95,244,72533,2,0,L|37:256,1,31.8750012159348
101,318,72686,2,0,L|43:330,1,31.8750012159348
3,295,72839,1,0,3:0:0:0:
197,311,72992,5,0,1:0:0:0:
199,322,73069,1,2,0:0:0:0:
208,339,73145,1,2,0:0:0:0:
254,354,73222,1,2,0:0:0:0:
307,313,73298,6,0,P|301:264|257:225,1,85,4|2,3:1|0:0,0:0:0:0:
154,210,73528,1,0,0:0:0:0:
140,199,73605,2,0,L|150:118,1,42.5,0|0,1:2|0:0,0:0:0:0:
246,30,73758,1,0,3:2:0:0:
246,30,73834,1,0,0:0:0:0:
246,30,73911,2,0,P|251:76|255:130,1,85,2|0,0:0|0:0,0:0:0:0:
396,166,74217,1,0,1:0:0:0:
379,160,74293,1,2,0:0:0:0:
379,143,74370,1,2,0:0:0:0:
396,138,74446,1,2,0:0:0:0:
405,152,74523,6,0,P|432:154|505:186,1,85,0|0,3:0|0:0,0:0:0:0:
312,317,74829,2,0,P|272:333|230:338,1,85,2|0,1:2|0:0,0:0:0:0:
93,174,75135,1,2,0:2:0:0:
77,201,75211,1,0,0:0:0:0:
80,232,75288,1,2,3:2:0:0:
102,254,75364,1,2,0:2:0:0:
133,259,75441,2,0,P|151:262|178:254,1,42.5,0|0,1:0|0:0,0:0:0:0:
282,145,75594,2,0,P|264:142|237:150,1,42.5,0|0,3:0|0:0,0:0:0:0:
386,249,75747,6,0,P|428:239|463:203,1,85,0|2,3:1|0:0,0:0:0:0:
367,77,75977,1,0,0:0:0:0:
355,65,76054,2,0,B|322:48|294:54|294:54|283:88|301:117,1,127.5,0|0,1:2|0:0,0:0:0:0:
393,167,76360,1,2,0:0:0:0:
234,228,76513,1,0,0:0:0:0:
86,142,76666,1,0,1:0:0:0:
245,81,76819,1,2,0:0:0:0:
393,167,76972,2,0,L|382:258,1,85,0|0,3:0|0:0,0:0:0:0:
183,301,77278,5,2,1:2:0:0:
201,290,77354,1,0,0:0:0:0:
221,284,77431,1,0,0:0:0:0:
242,283,77507,1,0,0:0:0:0:
277,251,77584,5,2,0:2:0:0:
254,215,77660,1,2,0:0:0:0:
220,191,77737,1,0,3:2:0:0:
178,184,77813,1,0,0:0:0:0:
163,145,77890,5,0,1:0:0:0:
181,134,77966,1,0,0:0:0:0:
201,128,78043,1,0,3:0:0:0:
222,127,78119,1,0,0:0:0:0:
276,83,78196,6,0,P|268:138|321:192,1,127.500004863739,4|0,3:1|0:0,0:0:0:0:
393,156,78426,1,2,0:0:0:0:
377,134,78502,2,0,P|359:122|339:120,1,42.5,2|0,1:2|0:0,0:0:0:0:
371,271,78656,1,0,0:0:0:0:
371,271,78732,1,0,0:0:0:0:
371,271,78809,6,0,L|382:324,1,42.5,2|0,0:0|0:0,0:0:0:0:
185,314,78962,2,0,L|176:272,1,42.5,0|0,3:0|0:0,0:0:0:0:
294,163,79115,2,0,P|313:169|299:195,1,42.5,0|0,1:0|0:0,0:0:0:0:
83,253,79268,2,0,P|64:247|78:221,1,42.5,2|2,0:0|0:0,0:0:0:0:
169,93,79421,6,0,B|222:57|222:57|192:196,1,191.250007295609,2|0,3:2|0:0,0:0:0:0:
102,129,79727,2,0,B|93:99|93:99|100:64,1,63.7500024318696,2|0,1:2|0:0,0:0:0:0:
292,15,79880,2,0,B|301:45|301:45|294:80,1,63.7500024318696,0|2,0:0|0:0,0:0:0:0:
201,217,80033,1,2,0:0:0:0:
205,237,80109,1,0,0:0:0:0:
209,258,80186,1,0,3:0:0:0:
213,279,80262,1,2,0:0:0:0:
217,300,80339,1,0,1:0:0:0:
83,253,80492,1,2,0:0:0:0:
329,212,80645,6,0,P|383:217|312:272,2,203.999993774414,0|0|0,3:0|1:0|0:0,0:0:0:0:
243,345,81411,1,2,3:2:0:0:
489,290,81564,1,0,1:0:0:0:
243,345,81717,1,0,0:0:0:0:
180,167,81870,5,0,3:0:0:0:
180,167,82176,5,0,1:0:0:0:
257,113,82329,1,2,1:2:0:0:
93,123,82482,5,0,0:0:0:0:
344,157,82635,1,2,3:2:0:0:
97,220,82788,6,0,L|106:277,1,42.5,0|0,1:0|0:0,0:0:0:0:
338,55,82941,2,0,L|329:-2,1,42.5,2|0,0:2|0:0,0:0:0:0:
77,48,83094,6,0,P|126:54|165:98,1,85,4|2,3:1|0:0,0:0:0:0:
194,197,83324,1,0,0:0:0:0:
205,211,83401,2,0,L|196:259,1,42.5,0|0,1:2|0:0,0:0:0:0:
339,312,83554,1,0,3:2:0:0:
339,312,83630,1,0,0:0:0:0:
339,312,83707,2,0,P|293:319|239:303,1,85,2|0,0:0|0:0,0:0:0:0:
396,215,84013,1,0,1:0:0:0:
402,232,84089,1,2,0:0:0:0:
419,232,84166,1,2,0:0:0:0:
424,215,84242,1,2,0:0:0:0:
410,206,84319,6,0,P|408:179|376:106,1,85,0|0,3:0|0:0,0:0:0:0:
204,10,84625,2,0,P|188:50|183:92,1,85,2|0,1:2|0:0,0:0:0:0:
230,276,84931,1,2,0:0:0:0:
203,292,85007,1,0,0:0:0:0:
172,289,85084,1,2,3:2:0:0:
150,267,85160,1,2,0:2:0:0:
145,236,85237,2,0,P|142:218|150:191,1,42.5,0|0,1:0|0:0,0:0:0:0:
262,74,85390,2,0,P|265:92|257:119,1,42.5,2|0,0:0|0:0,0:0:0:0:
99,106,85543,6,0,L|212:86,1,85,0|2,3:0|0:0,0:0:0:0:
347,78,85849,1,0,1:0:0:0:
148,194,86002,2,0,L|261:174,2,85,2|0|0,0:0|0:0|0:0,0:0:0:0:
262,74,86462,1,0,1:0:0:0:
323,229,86615,1,2,0:0:0:0:
99,106,86768,6,0,L|28:118,1,42.5,0|0,3:0|0:0,0:0:0:0:
172,271,86921,2,0,L|213:263,1,42.5,0|0,0:0|0:0,0:0:0:0:
379,292,87074,5,2,1:2:0:0:
395,278,87150,1,0,0:0:0:0:
406,260,87227,1,0,0:0:0:0:
410,239,87303,1,0,0:0:0:0:
399,198,87380,6,0,P|374:197|355:202,1,42.5,2|2,0:2|0:0,0:0:0:0:
288,74,87533,2,0,P|275:94|269:114,1,42.5,0|0,3:2|0:0,0:0:0:0:
145,214,87686,5,0,1:0:0:0:
184,227,87762,1,0,0:0:0:0:
223,212,87839,1,0,3:0:0:0:
243,176,87915,1,0,0:0:0:0:
169,153,87992,6,0,P|124:194|50:186,1,127.500004863739,4|0,3:1|0:0,0:0:0:0:
26,99,88222,1,2,0:0:0:0:
42,79,88298,2,0,P|62:86|96:110,1,63.7500024318696,2|0,1:2|0:0,0:0:0:0:
159,61,88451,1,0,0:0:0:0:
184,64,88528,2,0,P|187:84|184:126,1,63.7500024318696,0|2,0:0|0:0,0:0:0:0:
112,282,88758,1,0,3:0:0:0:
232,303,88911,1,0,1:0:0:0:
352,324,89064,1,2,0:0:0:0:
352,324,89140,1,2,0:0:0:0:
352,324,89217,6,0,L|487:299,1,127.500004863739,2|0,3:2|0:0,0:0:0:0:
496,216,89446,1,0,0:0:0:0:
476,176,89522,1,2,1:2:0:0:
439,153,89599,1,0,0:0:0:0:
395,153,89675,1,0,0:0:0:0:
358,176,89752,1,2,0:0:0:0:
387,165,89828,5,2,0:0:0:0:
407,141,89905,1,0,0:0:0:0:
414,110,89981,1,0,3:0:0:0:
405,80,90058,1,2,0:0:0:0:
375,39,90135,5,0,1:0:0:0:
355,78,90211,1,0,0:0:0:0:
319,103,90288,1,0,0:0:0:0:
275,105,90364,1,2,0:0:0:0:
229,59,90441,6,0,L|240:188,1,101.999996887207,0|2,3:0|0:0,0:0:0:0:
113,328,90747,2,0,L|104:226,1,101.999996887207,0|2,1:0|0:0,0:0:0:0:
23,290,91054,1,0,0:0:0:0:
269,345,91207,1,2,3:2:0:0:
23,290,91360,1,0,1:0:0:0:
269,345,91513,1,2,0:0:0:0:
332,167,91666,5,0,3:0:0:0:
332,167,91972,5,0,1:0:0:0:
255,113,92125,1,2,1:2:0:0:
419,123,92278,5,2,0:2:0:0:
168,157,92431,1,0,3:0:0:0:
415,220,92584,6,0,L|406:277,1,42.5,0|0,1:0|0:0,0:0:0:0:
174,55,92737,2,0,L|183:-2,1,42.5,2|0,0:2|0:0,0:0:0:0:
326,16,92890,5,4,3:1:0:0:
343,52,92967,1,2,0:0:0:0:
350,91,93043,1,2,0:0:0:0:
346,130,93120,1,0,0:0:0:0:
332,167,93196,2,0,P|317:196|291:221,1,42.5,0|0,1:0|0:0,0:0:0:0:
194,267,93349,5,0,0:0:0:0:
155,260,93426,1,2,0:0:0:0:
117,250,93502,1,2,0:0:0:0:
78,241,93579,1,0,0:0:0:0:
40,231,93656,2,0,L|58:288,1,42.5,0|0,1:0|0:0,0:0:0:0:
104,144,93809,5,0,0:0:0:0:
143,137,93885,1,2,0:0:0:0:
181,127,93962,1,2,0:0:0:0:
220,118,94038,1,0,0:0:0:0:
258,108,94115,2,0,L|247:169,1,42.5,0|0,1:0|0:0,0:0:0:0:
387,288,94268,5,0,3:2:0:0:
356,313,94344,1,2,0:0:0:0:
316,311,94421,1,2,0:0:0:0:
282,291,94497,1,0,0:0:0:0:
268,255,94574,1,0,1:0:0:0:
279,218,94650,1,0,0:0:0:0:
318,219,94727,5,0,3:1:0:0:
339,187,94804,1,2,0:0:0:0:
348,149,94880,1,2,0:0:0:0:
346,110,94957,1,0,0:0:0:0:
334,73,95033,1,0,1:0:0:0:
308,44,95110,1,0,0:0:0:0:
275,23,95186,6,0,B|224:35|185:10|185:10|166:54|166:54|127:38|80:43,1,212.5,4|0,3:2|0:0,0:0:0:0:
27,76,95645,1,0,1:0:0:0:
218,118,95798,1,0,0:0:0:0:
87,272,95951,1,0,0:0:0:0:
104,160,96105,1,0,3:0:0:0:
335,243,96258,1,0,1:0:0:0:
223,226,96412,1,0,0:0:0:0:
366,56,96564,6,0,L|378:158,1,85,0|0,3:0|0:0,0:0:0:0:
104,160,96870,2,0,L|94:75,1,85,0|0,1:0|0:0,0:0:0:0:
276,128,97176,1,0,0:0:0:0:
9,209,97329,1,0,3:0:0:0:
212,327,97482,5,0,1:0:0:0:
215,292,97559,1,2,0:0:0:0:
218,258,97635,1,2,0:0:0:0:
223,225,97712,1,0,0:0:0:0:
228,183,97788,5,4,3:1:0:0:
264,198,97865,1,2,0:0:0:0:
302,203,97941,1,2,0:0:0:0:
341,200,98018,1,0,0:0:0:0:
377,186,98094,2,0,P|398:173|415:157,1,42.5,0|0,1:0|0:0,0:0:0:0:
229,58,98247,5,4,3:2:0:0:
193,73,98324,1,2,0:0:0:0:
155,78,98400,1,2,0:0:0:0:
116,75,98477,1,0,0:0:0:0:
80,61,98553,2,0,P|59:48|42:32,1,42.5,0|0,1:0|0:0,0:0:0:0:
18,161,98707,5,4,3:1:0:0:
13,200,98783,1,2,0:0:0:0:
20,239,98860,1,2,0:0:0:0:
43,272,98936,1,0,0:0:0:0:
79,290,99013,1,0,1:0:0:0:
121,291,99089,1,0,0:0:0:0:
147,319,99166,5,4,3:2:0:0:
121,291,99242,1,2,0:0:0:0:
110,254,99319,1,2,0:0:0:0:
112,215,99395,1,0,0:0:0:0:
128,179,99472,1,0,1:0:0:0:
160,156,99548,1,0,0:0:0:0:
200,169,99625,5,4,3:1:0:0:
238,168,99702,1,2,0:0:0:0:
276,168,99778,1,2,0:0:0:0:
315,169,99855,1,0,0:0:0:0:
354,168,99931,1,0,1:0:0:0:
344,186,100008,1,0,0:0:0:0:
334,204,100084,6,0,P|345:141|255:95,1,170,4|0,3:2|0:0,0:0:0:0:
160,156,100543,1,0,1:0:0:0:
240,262,100696,1,0,0:0:0:0:
36,149,100849,1,0,0:0:0:0:
206,42,101002,1,0,3:0:0:0:
136,257,101156,1,0,1:0:0:0:
86,57,101309,1,0,0:0:0:0:
311,96,101462,6,0,P|333:107|354:122,1,42.5,0|0,3:0|0:0,0:0:0:0:
512,229,101615,2,0,P|493:212|472:198,1,42.5,0|0,0:0|0:0,0:0:0:0:
253,163,101768,6,0,P|277:163|300:170,1,38.2499988327027,0|0,1:0|0:0,0:0:0:0:
470,307,101921,2,0,P|461:284|446:265,1,38.2499988327027,0|0,0:0|0:0,0:0:0:0:
233,246,102074,6,0,P|248:238|264:232,1,34,0|0,0:0|0:0,0:0:0:0:
399,355,102227,2,0,P|401:338|401:321,1,34,0|0,3:0|0:0,0:0:0:0:
256,325,102380,6,0,P|264:312|276:303,1,29.7499990921021,0|0,1:0|0:0,0:0:0:0:
317,361,102533,2,0,P|325:349|330:335,1,29.7499990921021,0|0,0:0|0:0,0:0:0:0:
233,246,102686,5,4,3:1:0:0:
195,233,102763,1,2,0:0:0:0:
156,228,102839,1,2,0:0:0:0:
117,233,102916,1,0,0:0:0:0:
82,250,102992,2,0,P|70:264|52:295,1,42.5,0|0,1:0|0:0,0:0:0:0:
23,136,103145,5,0,3:0:0:0:
61,149,103222,1,2,0:0:0:0:
100,154,103298,1,2,0:0:0:0:
139,149,103375,1,0,0:0:0:0:
174,132,103451,2,0,P|186:118|204:87,1,42.5,0|0,1:0|0:0,0:0:0:0:
311,19,103605,5,4,3:1:0:0:
291,53,103681,1,2,0:0:0:0:
283,91,103758,1,2,0:0:0:0:
286,130,103834,1,0,0:0:0:0:
307,163,103911,1,0,1:0:0:0:
341,182,103987,1,0,0:0:0:0:
375,162,104064,5,0,3:0:0:0:
408,181,104140,1,2,0:0:0:0:
422,217,104217,1,2,0:0:0:0:
426,255,104293,1,0,0:0:0:0:
414,292,104370,1,0,1:0:0:0:
385,318,104446,1,0,0:0:0:0:
346,334,104523,5,4,3:1:0:0:
303,335,104599,1,2,0:0:0:0:
263,322,104675,1,2,0:0:0:0:
223,307,104752,1,0,0:0:0:0:
181,301,104828,1,0,1:0:0:0:
140,309,104905,1,0,0:0:0:0:
102,328,104982,6,0,P|151:299|49:238,1,212.5,4|0,3:2|0:0,0:0:0:0:
30,283,105441,1,0,1:0:0:0:
220,180,105594,1,0,0:0:0:0:
83,49,105747,1,0,0:0:0:0:
85,143,105900,1,0,3:0:0:0:
325,82,106054,1,0,1:0:0:0:
231,84,106207,1,0,0:0:0:0:
406,185,106360,6,0,P|433:159|451:105,1,85,0|0,3:0|0:0,0:0:0:0:
177,5,106666,2,0,P|150:31|132:85,1,85,0|0,1:0|0:0,0:0:0:0:
317,236,106972,1,0,0:0:0:0:
273,12,107125,1,0,3:0:0:0:
99,193,107278,5,0,1:0:0:0:
133,186,107354,1,2,0:0:0:0:
169,180,107431,1,2,0:0:0:0:
205,173,107507,1,0,0:0:0:0:
246,168,107584,5,4,3:1:0:0:
226,210,107661,1,2,0:0:0:0:
220,255,107737,1,2,0:0:0:0:
228,300,107814,1,0,0:0:0:0:
252,339,107890,2,0,P|267:356|291:368,1,42.5,0|0,1:0|0:0,0:0:0:0:
338,254,108043,5,4,3:2:0:0:
381,242,108120,1,2,0:0:0:0:
421,220,108196,1,2,0:0:0:0:
450,184,108273,1,0,0:0:0:0:
465,141,108349,2,0,P|468:118|462:92,1,42.5,0|0,1:0|0:0,0:0:0:0:
360,124,108502,5,4,3:1:0:0:
328,92,108579,1,2,0:0:0:0:
289,69,108655,1,2,0:0:0:0:
243,62,108732,1,0,0:0:0:0:
198,70,108808,2,0,P|176:77|156:96,1,42.5,0|0,1:0|0:0,0:0:0:0:
222,168,108962,5,4,3:2:0:0:
185,181,109038,1,2,0:0:0:0:
145,180,109115,1,2,0:0:0:0:
107,168,109191,1,0,0:0:0:0:
77,142,109268,1,0,1:0:0:0:
65,104,109344,1,0,0:0:0:0:
71,61,109421,5,4,3:1:0:0:
68,92,109497,1,2,0:0:0:0:
65,124,109574,1,2,0:0:0:0:
62,156,109650,1,0,0:0:0:0:
59,187,109727,1,0,1:0:0:0:
56,219,109803,1,0,0:0:0:0:
55,247,109880,6,0,B|111:261|125:325|125:325|164:271|225:277,1,220.999989883423,4|0,3:2|0:0,0:0:0:0:
375,312,110339,1,0,1:0:0:0:
176,192,110492,1,0,0:0:0:0:
363,143,110645,1,0,0:0:0:0:
294,252,110798,1,0,3:0:0:0:
197,87,110951,1,0,1:0:0:0:
157,305,111105,1,0,0:0:0:0:
18,137,111258,5,0,3:0:0:0:
35,91,111334,1,0,0:0:0:0:
74,64,111411,1,0,0:0:0:0:
123,65,111487,1,0,0:0:0:0:
158,98,111564,5,0,1:0:0:0:
197,87,111640,1,0,0:0:0:0:
237,76,111717,1,0,0:0:0:0:
276,65,111793,1,0,0:0:0:0:
303,36,111870,5,0,0:0:0:0:
335,44,111946,1,0,0:0:0:0:
368,53,112023,1,0,3:0:0:0:
401,62,112099,1,0,0:0:0:0:
418,103,112176,5,0,1:0:0:0:
407,125,112253,1,0,0:0:0:0:
411,150,112329,1,0,0:0:0:0:
429,169,112406,1,0,0:0:0:0:
461,198,112482,6,0,B|416:170|362:174|319:216|303:275|303:275|301:246|294:227|274:198|245:178|199:157|147:169|107:176|87:208|87:208|124:254|157:268|157:268|138:296|145:326|173:352|212:358|258:309|240:272|205:249|188:256,1,790.499975875855,4|0,0:2|0:0,0:0:0:0:
188,293,114931,5,4,0:1:0:0:
353,92,117380,5,4,0:1:0:0:
77,213,119817,5,4,0:1:0:0:
