osu file format v14

[General]
AudioFilename: audio.mp3
AudioLeadIn: 0
PreviewTime: 72992
Countdown: 0
SampleSet: Soft
StackLeniency: 0.2
Mode: 0
LetterboxInBreaks: 0
WidescreenStoryboard: 0

[Editor]
Bookmarks: 72055
DistanceSpacing: 1
BeatDivisor: 3
GridSize: 4
TimelineZoom: 2.2

[Metadata]
Title:Chrono Diver -PENDULUMs-
TitleUnicode:Chrono Diver -PENDULUMs-
Artist:Nekomata L.E.D.Master+
ArtistUnicode:猫叉L.E.D.Master+
Creator:yf_bmp
Version:kiryu's Expert
Source:beatmania IIDX 22 PENDUAL
Tags:instrumental electronic video game Nakano Itsuki Toshiyuki Kakuta Naoyuki Sato 4th KONAMI Arcade Championship CHRONO BREAKS Ryuusei Aika sahuang z1085684963 fanzhen0019 Gust sodarose StarrStyx -Visceral- SuperBox Muya
BeatmapID:1510498
BeatmapSetID:714552

[Difficulty]
HPDrainRate:6
CircleSize:4.6
OverallDifficulty:8.5
ApproachRate:9.7
SliderMultiplier:1.92
SliderTickRate:1

[Events]
//Background and Video events
Video,-212,"BGA.flv"
0,0,"BG.png",0,0
//Break Periods
//Storyboard Layer 0 (Background)
//Storyboard Layer 1 (Fail)
//Storyboard Layer 2 (Pass)
//Storyboard Layer 3 (Foreground)
//Storyboard Layer 4 (Overlay)
//Storyboard Sound Samples

[TimingPoints]
1054,306.122448979592,4,2,1,80,1,0
1054,-200,4,2,1,80,0,0
10849,-133.333333333333,4,2,1,95,0,0
20640,-100,4,2,1,95,0,0
46661,-90.9090909090909,4,2,1,95,0,0
46967,-83.3333333333333,4,2,1,95,0,0
47273,-76.9230769230769,4,2,1,95,0,0
47579,-100,4,2,1,95,0,0
50033,-100,4,2,1,95,0,1
58605,-133.333333333333,4,2,1,95,0,0
59523,-119.047619047619,4,2,1,95,0,0
59829,-133.333333333333,4,2,1,95,0,0
61972,-119.047619047619,4,2,1,95,0,0
62278,-133.333333333333,4,2,1,95,0,0
64421,-119.047619047619,4,2,1,95,0,0
64727,-133.333333333333,4,2,1,95,0,0
66870,-119.047619047619,4,2,1,95,0,0
67176,-133.333333333333,4,2,1,95,0,0
68400,-200,4,2,1,95,0,0
72992,-100,4,2,1,95,0,0
73298,-100,4,2,1,95,0,0
92278,-83.3333333333333,4,2,1,95,0,0
92890,-100,4,2,1,95,0,1
95186,-100,4,2,1,95,0,0
97788,-100,4,2,1,95,0,1
100084,-100,4,2,1,95,0,0
102686,-100,4,2,1,95,0,1
104982,-100,4,2,1,95,0,0
107584,-100,4,2,1,95,0,1
109880,-100,4,2,1,95,0,0
114931,-100,4,2,10,70,0,0
117380,-100,4,2,10,55,0,0
119217,300,4,2,10,70,1,0
119817,-100,4,2,10,40,0,0
120192,480,4,2,10,40,1,0

[Colours]
Combo1 : 255,0,255
Combo2 : 0,128,255
Combo3 : 255,128,255
Combo4 : 128,255,255

[HitObjects]
420,176,1054,6,0,P|388:172|356:172,1,48,2|0,2:0|2:0,0:0:0:0:
348,360,1360,2,0,P|380:364|412:364,1,48,2|0,2:0|2:0,0:0:0:0:
344,177,1666,6,0,P|318:196|295:219,1,48,2|0,2:0|2:0,0:0:0:0:
423,358,1972,2,0,P|448:338|471:315,1,48,2|0,2:0|2:0,0:0:0:0:
292,232,2278,6,0,P|288:255|287:279,1,48,2|0,2:0|2:0,0:0:0:0:
476,303,2584,2,0,P|479:279|480:255,1,48,2|0,2:0|2:0,0:0:0:0:
293,307,2890,6,0,P|307:326|323:343,1,48,2|0,2:0|2:0,0:0:0:0:
474,228,3196,1,2,0:0:0:0:
92,208,3502,6,0,P|124:212|156:212,1,48,2|0,2:0|2:0,0:0:0:0:
164,24,3808,2,0,P|132:20|100:20,1,48,2|0,2:0|2:0,0:0:0:0:
168,207,4114,6,0,P|193:187|216:164,1,48,2|0,0:0|0:0,0:0:0:0:
89,26,4420,2,0,P|63:45|40:68,1,48,2|0,0:0|0:0,0:0:0:0:
220,152,4726,6,0,P|223:128|224:104,1,48,2|0,0:0|0:0,0:0:0:0:
36,81,5032,2,0,P|32:104|31:128,1,48,2|0,0:0|0:0,0:0:0:0:
128,132,5339,6,0,L|125:95,3,24,2|0|0|0,0:0|0:0|0:0|0:0,0:0:0:0:
148,204,5645,2,0,P|120:212|104:212,1,24,2|0,0:0|0:0,0:0:0:0:
104,212,5798,1,0,0:0:0:0:
303,142,5951,6,0,P|300:118|299:95,1,48,2|0,2:0|2:0,0:0:0:0:
487,72,6257,2,0,P|490:96|492:120,1,48,2|0,2:0|2:0,0:0:0:0:
354,197,6563,6,0,P|335:183|318:167,1,48,2|0,2:0|2:0,0:0:0:0:
434,16,6869,2,0,P|453:30|471:47,1,48,2|0,2:0|2:0,0:0:0:0:
430,197,7175,6,0,P|406:200|383:203,1,48,2|0,2:0|2:0,0:0:0:0:
359,13,7481,2,0,P|383:10|407:10,1,48,2|0,2:0|2:0,0:0:0:0:
484,146,7788,6,0,P|469:164|453:182,1,48,2|0,2:0|2:0,0:0:0:0:
335,29,8094,1,2,0:0:0:0:
200,249,8400,6,0,P|203:273|205:297,1,48,2|0,2:0|2:0,0:0:0:0:
16,319,8706,2,0,P|13:295|12:272,1,48,2|0,2:0|2:0,0:0:0:0:
149,194,9012,6,0,P|168:208|185:224,1,48,2|0,0:0|0:0,0:0:0:0:
69,375,9318,2,0,P|50:361|33:345,1,48,2|0,0:0|0:0,0:0:0:0:
73,192,9624,6,0,P|97:189|120:189,1,48,2|0,0:0|0:0,0:0:0:0:
144,376,9930,2,0,P|120:379|97:382,1,48,2|0,0:0|0:0,0:0:0:0:
108,296,10237,5,2,0:0:0:0:
160,288,10314,1,0,0:0:0:0:
212,280,10391,1,0,0:0:0:0:
264,272,10467,1,0,0:0:0:0:
319,325,10543,1,2,0:0:0:0:
341,352,10620,1,0,0:0:0:0:
374,365,10696,1,0,0:0:0:0:
410,360,10773,1,0,0:0:0:0:
475,327,10849,5,0,3:0:0:0:
428,218,11002,2,0,P|412:250|414:285,1,72.0000027465821,0|0,2:0|0:0,0:0:0:0:
475,327,11309,6,0,L|297:317,1,144.000005493164,2|2,0:0|0:0,0:0:0:0:
262,341,11768,2,0,P|240:292|247:261,1,72.0000027465821,0|0,0:0|0:0,0:0:0:0:
296,145,12074,5,0,3:0:0:0:
255,204,12227,1,0,2:0:0:0:
187,229,12380,1,0,0:0:0:0:
116,215,12533,2,0,P|68:152|104:68,1,144.000005493164,2|2,0:0|0:0,0:0:0:0:
120,32,12916,1,0,0:0:0:0:
136,44,12992,2,0,P|184:40|220:0,1,72.0000027465821,0|0,0:0|0:0,0:0:0:0:
392,44,13298,6,0,L|398:148,1,72.0000027465821,0|0,3:0|0:0,0:0:0:0:
400,188,13605,2,0,L|404:259,1,72.0000027465821,0|0,0:0|0:0,0:0:0:0:
419,332,13911,2,0,P|461:338|514:308,1,72.0000027465821,8|2,0:0|0:0,0:0:0:0:
333,242,14217,2,0,P|291:236|238:266,1,72.0000027465821,0|0,0:0|0:0,0:0:0:0:
130,321,14523,5,2,3:2:0:0:
231,309,14676,1,0,3:0:0:0:
70,240,14829,1,0,3:2:0:0:
130,321,14982,1,2,0:0:0:0:
29,333,15135,1,8,0:0:0:0:
130,321,15288,1,2,0:2:0:0:
231,309,15441,2,0,B|249:325|246:343|246:343|221:348|219:321,1,72.0000027465821,0|0,3:0|0:0,0:0:0:0:
130,321,15747,5,0,0:0:0:0:
70,240,15900,2,0,P|54:200|66:160,1,72.0000027465821,0|0,0:0|0:0,0:0:0:0:
130,151,16207,2,0,L|273:158,1,144.000005493164,2|2,0:0|0:0,0:0:0:0:
337,193,16666,2,0,P|363:151|352:104,1,72.0000027465821,0|2,0:0|0:0,0:0:0:0:
308,0,16972,5,0,0:0:0:0:
488,70,17125,1,0,0:0:0:0:
417,84,17278,1,0,0:0:0:0:
349,59,17431,1,2,0:0:0:0:
349,59,17508,1,0,0:0:0:0:
349,59,17584,1,0,0:0:0:0:
419,350,17737,1,2,0:0:0:0:
168,252,17890,1,0,0:0:0:0:
267,232,18043,1,2,0:0:0:0:
29,135,18196,6,0,P|23:100|44:72,1,72.0000027465821,4|0,0:0|0:0,0:0:0:0:
131,0,18502,2,0,P|136:34|115:62,1,72.0000027465821,0|2,0:0|0:0,0:0:0:0:
43,54,18809,2,0,L|-28:49,1,72.0000027465821,2|2,0:0|0:0,0:0:0:0:
115,81,19115,2,0,L|186:84,1,72.0000027465821,2|2,0:0|0:0,0:0:0:0:
163,153,19421,5,4,0:1:0:0:
248,206,19574,1,0,0:0:0:0:
320,135,19727,1,4,0:1:0:0:
392,64,19880,1,0,0:0:0:0:
477,118,20033,2,0,L|425:123,1,36.0000013732911,2|2,0:0|0:0,0:0:0:0:
320,135,20186,2,0,L|268:140,1,36.0000013732911,2|2,3:2|0:0,0:0:0:0:
163,153,20339,1,0,1:0:0:0:
125,181,20415,1,0,0:0:0:0:
113,227,20492,1,0,0:0:0:0:
130,270,20568,1,0,0:0:0:0:
204,251,20645,6,0,L|192:368,1,96,4|0,3:1|0:0,0:0:0:0:
201,364,20875,1,0,0:0:0:0:
268,328,20951,2,0,B|286:310|286:310|266:280,1,48,0|0,1:1|0:0,0:0:0:0:
73,355,21105,2,0,B|59:333|59:333|86:308,1,48,0|0,0:0|0:0,0:0:0:0:
130,270,21258,1,2,0:0:0:0:
98,30,21411,2,0,P|72:16|32:8,1,48,0|0,3:0|0:0,0:0:0:0:
21,219,21564,1,0,1:0:0:0:
207,81,21717,1,2,0:0:0:0:
207,81,21793,1,0,0:0:0:0:
207,81,21870,6,0,B|231:51|214:13|214:13|187:20,1,96,0|2,3:0|0:0,0:0:0:0:
28,113,22176,2,0,P|68:143|134:120,1,96,0|2,1:0|0:0,0:0:0:0:
199,204,22406,1,0,0:0:0:0:
218,196,22482,2,0,L|209:253,1,48,0|0,0:0|0:0,0:0:0:0:
190,366,22635,2,0,L|198:319,1,48,2|0,3:2|0:0,0:0:0:0:
269,289,22788,2,0,L|341:280,1,48,0|0,1:0|0:0,0:0:0:0:
497,260,22941,2,0,L|450:266,1,48,2|0,0:0|0:0,0:0:0:0:
389,313,23094,5,0,3:0:0:0:
391,327,23171,1,0,0:0:0:0:
393,341,23247,1,0,0:0:0:0:
497,260,23400,1,0,1:0:0:0:
371,199,23553,1,2,0:0:0:0:
373,213,23630,1,0,0:0:0:0:
375,227,23706,1,2,0:0:0:0:
335,97,23860,1,0,3:0:0:0:
438,11,24013,1,0,1:0:0:0:
375,227,24166,1,2,0:0:0:0:
335,97,24319,5,0,3:2:0:0:
477,139,24472,1,0,0:0:0:0:
495,213,24625,1,0,1:0:0:0:
255,241,24778,1,2,0:0:0:0:
236,314,24931,2,0,L|243:362,1,48,2|2,0:3|0:3,0:0:0:0:
314,342,25084,2,0,L|308:295,1,48,2|2,3:3|0:3,0:0:0:0:
255,241,25237,5,0,1:0:0:0:
212,219,25313,1,2,0:2:0:0:
165,225,25390,1,2,0:0:0:0:
130,256,25466,1,2,0:0:0:0:
75,202,25543,6,0,L|82:81,1,96,4|0,3:1|0:0,0:0:0:0:
75,92,25773,1,0,0:0:0:0:
8,21,25849,2,0,B|-3:41|-3:41|3:66,1,48,0|0,1:0|0:0,0:0:0:0:
182,53,26002,2,0,B|193:33|193:33|187:8,1,48,2|0,0:0|0:0,0:0:0:0:
254,79,26156,1,0,0:0:0:0:
473,230,26309,2,0,B|476:256|476:256|468:280,1,48,0|0,3:0|0:0,0:0:0:0:
242,212,26462,1,0,1:0:0:0:
485,97,26615,1,2,0:0:0:0:
485,97,26691,1,0,0:0:0:0:
485,97,26768,5,0,3:0:0:0:
473,230,26921,2,0,P|392:157|429:68,1,192,2|0,0:0|0:0,0:0:0:0:
485,97,27380,2,0,L|553:107,1,48,2|2,0:2|0:2,0:0:0:0:
409,86,27533,2,0,L|361:79,1,48,0|2,3:0|0:0,0:0:0:0:
280,17,27686,2,0,L|285:65,1,48,2|2,1:2|0:0,0:0:0:0:
296,199,27839,2,0,L|300:246,1,48,2|0,0:0|0:0,0:0:0:0:
263,315,27992,5,0,3:0:0:0:
243,313,28069,1,0,0:0:0:0:
223,311,28145,1,0,0:0:0:0:
58,264,28298,1,0,1:0:0:0:
6,357,28451,1,2,0:0:0:0:
22,347,28528,1,0,0:0:0:0:
40,339,28604,1,0,0:0:0:0:
187,242,28757,1,0,3:0:0:0:
96,87,28911,2,0,L|111:182,1,96,0|2,1:0|0:0,0:0:0:0:
58,264,29217,5,0,0:0:0:0:
187,242,29370,1,0,0:0:0:0:
304,109,29523,1,0,1:0:0:0:
256,25,29676,1,0,1:0:0:0:
208,109,29829,1,2,3:2:0:0:
323,260,29982,1,2,0:0:0:0:
324,251,30058,1,0,0:0:0:0:
325,242,30135,1,0,1:0:0:0:
454,264,30288,1,0,0:0:0:0:
380,325,30441,6,0,P|333:349|280:338,1,96,4|0,3:1|0:0,0:0:0:0:
132,59,30747,2,0,P|179:35|232:46,1,96,2|0,1:2|0:0,0:0:0:0:
123,316,31054,2,0,P|99:269|110:216,1,96,2|0,0:0|3:0,0:0:0:0:
389,68,31360,2,0,P|413:115|402:168,1,96,2|0,1:2|0:0,0:0:0:0:
380,325,31666,5,2,3:2:0:0:
291,343,31819,1,0,0:0:0:0:
386,347,31972,1,2,1:2:0:0:
481,352,32125,1,0,0:0:0:0:
392,369,32278,1,2,0:2:0:0:
291,343,32431,1,0,3:2:0:0:
190,317,32584,2,0,B|144:306|114:332|114:332|150:326,1,96,2|0,1:2|0:0,0:0:0:0:
241,246,32890,5,2,3:2:0:0:
288,244,32966,1,2,0:0:0:0:
336,242,33043,1,0,0:0:0:0:
384,240,33119,1,0,0:0:0:0:
432,238,33196,2,0,B|456:228|456:228|432:208,1,48,0|0,1:0|0:0,0:0:0:0:
372,173,33349,5,2,0:0:0:0:
324,171,33425,1,2,0:0:0:0:
276,169,33502,1,2,0:0:0:0:
228,167,33578,1,0,0:0:0:0:
180,165,33655,2,0,B|156:154|156:154|180:134,1,48,0|0,3:0|0:0,0:0:0:0:
238,95,33809,5,0,1:2:0:0:
285,93,33885,1,2,0:0:0:0:
333,91,33962,1,2,0:0:0:0:
381,89,34038,1,0,0:0:0:0:
429,87,34115,2,0,B|452:76|452:76|428:56,1,48,0|0,3:0|0:0,0:0:0:0:
371,18,34268,5,2,0:0:0:0:
323,16,34344,1,0,0:0:0:0:
275,14,34421,1,0,1:0:0:0:
227,12,34497,1,2,0:0:0:0:
165,59,34574,2,0,L|154:139,1,48,2|0,0:0|0:0,0:0:0:0:
205,168,34727,2,0,P|146:184|124:169,1,48,2|0,0:2|0:0,0:0:0:0:
15,119,34880,2,0,P|37:129|53:147,1,48,0|2,3:2|0:0,0:0:0:0:
69,308,35033,2,0,P|66:284|74:262,1,48,0|2,1:0|0:2,0:0:0:0:
230,311,35186,2,0,L|241:391,1,48,2|2,0:0|0:0,0:0:0:0:
311,376,35339,5,4,3:1:0:0:
460,342,35492,2,0,P|489:290|470:242,1,96,0|0,0:0|1:0,0:0:0:0:
411,133,35798,2,0,B|400:302|400:302|430:273,1,192,2|2,0:0|3:2,0:0:0:0:
337,104,36258,2,0,P|331:150|358:188,1,96,0|2,1:0|0:2,0:0:0:0:
481,257,36564,5,0,3:0:0:0:
398,57,36717,2,0,B|356:28|356:28|195:44,1,192,2|0,0:0|0:0,0:0:0:0:
327,300,37176,1,2,0:2:0:0:
357,292,37252,1,2,0:2:0:0:
387,300,37329,1,0,3:0:0:0:
381,334,37405,1,2,0:0:0:0:
356,358,37482,5,2,1:2:0:0:
310,367,37558,1,2,0:0:0:0:
264,340,37635,1,2,0:0:0:0:
252,292,37711,1,0,0:0:0:0:
271,246,37788,5,2,3:2:0:0:
223,244,37864,1,2,0:0:0:0:
175,242,37941,1,0,0:0:0:0:
127,240,38017,1,0,0:0:0:0:
79,238,38094,2,0,B|56:228|56:228|80:208,1,48,0|0,1:0|0:0,0:0:0:0:
140,173,38247,5,2,0:0:0:0:
188,171,38323,1,2,0:0:0:0:
236,169,38400,1,2,0:0:0:0:
284,167,38476,1,0,0:0:0:0:
332,165,38553,2,0,B|355:154|355:154|331:134,1,48,0|0,3:0|0:0,0:0:0:0:
274,95,38707,5,0,1:2:0:0:
227,93,38783,1,2,0:0:0:0:
179,91,38860,1,2,0:0:0:0:
131,89,38936,1,0,0:0:0:0:
83,87,39013,2,0,B|59:76|59:76|83:56,1,48,0|0,3:0|0:0,0:0:0:0:
141,18,39166,5,2,0:0:0:0:
189,16,39242,1,2,0:0:0:0:
237,14,39319,1,0,1:0:0:0:
285,12,39395,1,0,0:0:0:0:
347,59,39472,2,0,L|358:139,1,48,0|2,1:0|0:0,0:0:0:0:
307,168,39625,2,0,P|366:184|388:169,1,48,0|0,3:0|0:0,0:0:0:0:
496,119,39778,2,0,P|474:129|459:147,1,48,0|0,3:0|0:0,0:0:0:0:
442,308,39931,2,0,P|445:284|438:262,1,48,0|0,1:0|0:0,0:0:0:0:
282,311,40084,2,0,L|271:391,1,48,0|0,0:0|0:0,0:0:0:0:
201,376,40237,5,4,3:1:0:0:
181,362,40313,1,0,0:0:0:0:
168,342,40390,1,0,0:0:0:0:
164,319,40466,1,0,0:0:0:0:
169,296,40543,1,2,1:2:0:0:
188,309,40619,1,0,0:0:0:0:
201,329,40696,1,0,0:0:0:0:
205,352,40772,1,0,0:0:0:0:
200,375,40849,1,2,0:2:0:0:
181,362,40926,1,0,0:0:0:0:
168,342,41003,1,0,3:0:0:0:
164,319,41079,1,0,0:0:0:0:
169,296,41156,1,2,1:2:0:0:
188,309,41232,1,0,0:0:0:0:
201,329,41309,1,0,0:2:0:0:
205,352,41385,1,0,0:0:0:0:
200,375,41462,6,0,L|266:381,3,48,2|0|0|0,3:2|0:0|0:0|0:0,0:0:0:0:
272,285,41768,2,0,L|319:280,3,48,2|0|0|0,1:2|0:0|0:0|0:0,0:0:0:0:
379,356,42074,2,0,L|445:362,3,48,2|0|0|0,0:0|0:0|3:0|0:2,0:0:0:0:
451,266,42380,2,0,L|498:261,3,48,0|2|0|0,1:0|0:0|0:0|0:0,0:0:0:0:
456,196,42686,6,0,L|460:134,1,48,2|0,3:2|0:0,0:0:0:0:
387,187,42839,2,0,L|391:140,1,48,0|0,0:0|0:0,0:0:0:0:
416,28,42992,1,0,1:0:0:0:
416,28,43069,1,0,0:0:0:0:
416,28,43145,6,0,L|420:76,1,48,2|0,0:2|0:0,0:0:0:0:
347,37,43298,2,0,L|351:85,1,48,0|0,0:0|0:0,0:0:0:0:
301,182,43451,1,0,3:0:0:0:
301,182,43528,1,0,0:0:0:0:
301,182,43605,6,0,L|305:135,1,48,2|0,1:2|0:0,0:0:0:0:
233,173,43758,2,0,L|236:125,1,48,0|0,0:0|0:0,0:0:0:0:
262,14,43911,1,0,3:0:0:0:
262,14,43987,1,0,0:0:0:0:
262,14,44064,6,0,L|265:61,1,48,2|0,0:0|0:0,0:0:0:0:
193,23,44217,2,0,L|196:70,1,48,0|0,1:0|0:0,0:0:0:0:
146,168,44370,1,2,0:0:0:0:
146,168,44446,1,0,0:0:0:0:
146,168,44523,6,0,L|79:175,1,48,0|2,0:0|0:0,0:0:0:0:
91,357,44676,2,0,L|44:362,1,48,0|0,3:0|0:0,0:0:0:0:
0,256,44830,1,0,1:0:0:0:
47,260,44906,1,2,0:0:0:0:
95,265,44983,1,0,0:0:0:0:
143,270,45059,1,0,0:0:0:0:
210,308,45135,5,4,3:1:0:0:
239,344,45212,1,0,0:0:0:0:
286,347,45289,1,0,0:0:0:0:
320,316,45365,1,0,0:0:0:0:
321,269,45441,1,2,1:2:0:0:
291,232,45518,1,0,0:0:0:0:
244,229,45595,1,0,0:0:0:0:
210,260,45671,1,0,0:0:0:0:
210,308,45747,1,2,0:2:0:0:
239,344,45823,1,0,0:0:0:0:
286,347,45900,1,0,3:0:0:0:
320,316,45976,1,0,0:0:0:0:
321,269,46054,1,2,1:2:0:0:
291,232,46129,1,0,0:0:0:0:
244,229,46206,1,0,0:2:0:0:
210,260,46282,1,0,0:0:0:0:
210,308,46360,6,0,L|208:386,3,48,2|0|0|0,3:2|0:0|0:0|0:0,0:0:0:0:
141,303,46666,2,0,L|139:381,3,52.8000016113282,2|0|0|0,1:2|0:0|0:0|0:0,0:0:0:0:
72,298,46972,2,0,L|70:376,3,57.5999982421876,2|0|0|0,0:0|0:0|3:0|0:2,0:0:0:0:
3,293,47278,2,0,L|1:371,3,62.3999971435548,0|2|0|0,1:0|0:0|0:0|0:0,0:0:0:0:
56,196,47584,6,0,L|52:134,1,48,2|0,3:2|0:0,0:0:0:0:
124,187,47737,2,0,L|120:139,1,48,0|0,0:0|0:0,0:0:0:0:
95,28,47890,1,0,1:0:0:0:
95,28,47967,1,0,0:0:0:0:
95,28,48043,6,0,L|91:75,1,48,2|0,0:2|0:0,0:0:0:0:
164,37,48196,2,0,L|160:84,1,48,0|0,0:0|0:0,0:0:0:0:
210,182,48349,1,0,3:0:0:0:
210,182,48426,1,0,0:0:0:0:
210,182,48503,6,0,L|206:134,1,48,2|0,1:2|0:0,0:0:0:0:
279,173,48656,2,0,L|275:125,1,48,0|0,0:0|0:0,0:0:0:0:
250,14,48809,1,0,3:0:0:0:
250,14,48885,1,0,0:0:0:0:
250,14,48962,6,0,L|246:61,1,48,2|0,0:0|0:0,0:0:0:0:
493,91,49115,2,0,L|496:43,1,48,2|2,1:2|0:2,0:0:0:0:
390,8,49268,5,0,1:0:0:0:
390,8,49344,1,0,0:0:0:0:
390,8,49421,1,0,0:0:0:0:
390,8,49497,1,0,0:0:0:0:
372,53,49574,1,0,3:0:0:0:
375,100,49650,1,0,0:0:0:0:
378,148,49727,1,0,1:0:0:0:
381,196,49803,1,2,0:0:0:0:
429,257,49880,2,0,P|433:284|410:319,1,48,0|0,0:0|0:0,0:0:0:0:
333,375,50033,5,4,3:1:0:0:
255,317,50186,1,0,0:0:0:0:
344,280,50339,1,0,3:0:0:0:
179,375,50492,5,4,1:2:0:0:
166,280,50645,1,0,0:0:0:0:
255,317,50798,1,0,3:0:0:0:
72,266,50951,5,4,3:1:0:0:
130,191,51105,1,0,0:0:0:0:
166,280,51258,1,0,3:0:0:0:
73,114,51411,5,4,1:2:0:0:
167,102,51565,1,0,0:0:0:0:
130,190,51718,1,0,3:0:0:0:
181,8,51870,5,0,3:1:0:0:
257,66,52023,1,0,0:0:0:0:
167,102,52176,1,0,1:1:0:0:
181,8,52329,1,0,3:0:0:0:
333,8,52481,5,4,3:1:0:0:
345,103,52635,1,0,0:0:0:0:
257,66,52788,1,0,3:0:0:0:
439,117,52940,5,4,1:2:0:0:
382,193,53094,1,0,0:0:0:0:
346,104,53247,1,0,3:0:0:0:
439,269,53399,5,4,3:1:0:0:
344,281,53553,1,0,0:0:0:0:
381,193,53706,1,0,3:0:0:0:
330,375,53860,5,4,1:2:0:0:
255,318,54014,1,0,0:0:0:0:
343,282,54167,1,0,3:0:0:0:
178,375,54319,5,0,3:1:0:0:
166,280,54473,1,0,0:0:0:0:
254,317,54626,1,0,1:1:0:0:
178,375,54778,1,0,0:0:0:0:
72,266,54931,5,4,3:1:0:0:
130,191,55085,1,0,0:0:0:0:
166,279,55238,1,0,3:0:0:0:
73,114,55390,5,4,1:2:0:0:
167,102,55544,1,0,0:0:0:0:
130,190,55697,1,0,3:0:0:0:
181,8,55849,5,4,3:1:0:0:
256,66,56003,1,0,0:0:0:0:
168,102,56156,1,0,3:0:0:0:
333,9,56309,5,4,1:2:0:0:
345,103,56463,1,0,0:0:0:0:
257,66,56616,1,0,0:0:0:0:
439,117,56768,5,0,3:1:0:0:
382,192,56922,1,0,0:0:0:0:
346,104,57075,1,0,1:1:0:0:
439,117,57227,1,0,0:0:0:0:
437,267,57380,6,0,P|393:310|348:298,1,96,4|0,0:1|0:0,0:0:0:0:
320,380,57584,2,0,P|358:354|364:308,1,96
256,256,57788,2,0,L|256:320,1,64
191,380,57992,6,0,P|153:354|147:308,1,96,4|0,0:0|0:0,0:0:0:0:
73,269,58196,2,0,P|100:306|147:308,1,96
256,256,58400,2,0,L|256:320,1,64
320,380,58605,5,4,0:2:0:0:
383,198,58911,1,0,3:0:0:0:
509,343,59217,1,0,1:0:0:0:
403,307,59523,2,0,B|444:292|444:292|448:224,1,108.000004119873
383,198,59829,1,0,3:2:0:0:
418,43,60033,1,0,0:0:0:0:
484,72,60135,1,0,3:0:0:0:
249,118,60441,6,0,B|212:139|212:139|219:218,1,108.000004119873,0|0,1:0|0:0,0:0:0:0:
257,265,60747,2,0,P|280:275|296:301,2,48.0000018310548,0|2|0,0:0|0:0|0:0,0:0:0:0:
187,270,61054,5,0,3:0:0:0:
9,191,61360,1,2,3:2:0:0:
164,77,61666,1,0,1:2:0:0:
108,31,61972,2,0,B|71:28|71:28|67:71|67:71|102:60,1,108.000004119873,0|0,0:2|0:0,0:0:0:0:
164,77,62278,1,2,0:0:0:0:
221,205,62482,1,0,3:0:0:0:
292,220,62584,1,2,3:2:0:0:
349,348,62788,5,0,0:0:0:0:
420,363,62890,2,0,P|467:357|485:344,2,48.0000018310548,0|2|0,1:0|0:0|0:0,0:0:0:0:
395,295,63196,1,0,3:0:0:0:
424,229,63298,1,0,0:0:0:0:
495,221,63400,1,2,3:2:0:0:
453,163,63502,5,4,3:2:0:0:
334,11,63808,1,2,0:0:0:0:
262,189,64114,1,0,1:0:0:0:
349,121,64421,2,0,B|369:158|369:158|322:222,1,108.000004119873,2|0,0:0|0:0,0:0:0:0:
262,189,64727,1,0,3:0:0:0:
225,344,64931,1,0,3:0:0:0:
293,365,65033,1,2,0:0:0:0:
88,255,65339,6,0,B|61:221|61:221|96:150,1,108.000004119873,0|0,1:0|0:0,0:0:0:0:
72,93,65645,2,0,P|52:75|45:45,2,48.0000018310548,2|0|0,0:0|0:0|0:0,0:0:0:0:
140,109,65951,1,0,3:0:0:0:
327,82,66258,1,0,3:0:0:0:
253,263,66564,1,0,1:0:0:0:
198,309,66870,2,0,B|160:312|160:312|156:269|156:269|191:280,1,107.51999671875,2|0,0:0|0:0,0:0:0:0:
253,263,67176,1,0,3:0:0:0:
306,155,67380,1,0,0:0:0:0:
377,139,67482,1,0,3:0:0:0:
430,31,67686,5,0,0:0:0:0:
501,15,67788,2,0,P|538:22|548:46,2,48.0000018310548,0|2|2,1:0|0:0|0:0,0:0:0:0:
430,31,68094,2,0,P|393:24|383:0,2,48.0000018310548,0|0|2,1:0|0:0|0:0,0:0:0:0:
479,83,68400,5,4,0:1:0:0:
501,152,68707,1,0,0:0:0:0:
256,192,69013,2,0,L|151:207,1,96,0|0,0:1|0:0,0:0:0:0:
256,192,69472,1,0,0:0:0:0:
501,152,69625,5,0,0:0:0:0:
501,226,69932,1,0,0:0:0:0:
256,192,70238,2,0,L|151:175,1,96,0|0,0:1|0:0,0:0:0:0:
256,192,70697,1,0,0:0:0:0:
501,226,70849,5,0,0:0:0:0:
481,296,71156,1,0,0:0:0:0:
256,192,71462,2,0,L|160:145,1,96,0|0,0:0|0:0,0:0:0:0:
256,192,71921,1,0,0:0:0:0:
30,296,72074,5,0,0:0:0:0:
23,287,72150,1,0,0:0:0:0:
17,277,72227,1,0,0:0:0:0:
13,265,72303,1,0,0:0:0:0:
10,226,72381,5,0,0:0:0:0:
5,215,72457,1,0,0:0:0:0:
2,203,72534,1,0,0:0:0:0:
2,191,72610,1,0,0:0:0:0:
10,152,72686,5,0,0:0:0:0:
9,141,72762,1,0,0:0:0:0:
10,129,72839,1,0,3:0:0:0:
13,117,72915,1,0,0:0:0:0:
32,83,72992,5,0,1:0:0:0:
35,71,73068,1,2,0:0:0:0:
39,60,73145,1,2,0:0:0:0:
45,49,73221,1,2,0:0:0:0:
74,22,73298,5,4,3:1:0:0:
104,36,73375,1,2,0:0:0:0:
136,80,73451,1,2,0:0:0:0:
208,104,73528,1,0,0:0:0:0:
268,56,73605,2,0,L|398:53,1,96,0|0,1:2|3:2,0:0:0:0:
375,68,73834,1,0,0:0:0:0:
449,90,73911,2,0,B|465:72|465:72|456:36,1,48,2|0,0:0|0:0,0:0:0:0:
316,188,74064,2,0,B|332:170|332:170|323:134,1,48,0|0,0:0|0:0,0:0:0:0:
182,283,74217,2,0,B|198:265|198:265|189:229,1,48,0|2,1:0|0:0,0:0:0:0:
135,189,74370,1,2,0:0:0:0:
135,189,74446,1,2,0:0:0:0:
135,189,74523,6,0,P|80:170|37:184,1,96,0|0,3:0|0:0,0:0:0:0:
0,329,74752,1,0,0:0:0:0:
10,339,74829,2,0,L|4:244,1,96,2|0,1:2|0:0,0:0:0:0:
44,179,75059,1,0,0:0:0:0:
40,160,75135,1,2,0:2:0:0:
177,357,75288,2,0,P|207:355|226:340,1,48,2|2,3:2|0:2,0:0:0:0:
387,318,75441,2,0,P|365:325|342:320,1,48,0|0,1:0|0:0,0:0:0:0:
273,288,75594,2,0,L|266:240,1,48,0|0,3:0|0:0,0:0:0:0:
328,120,75747,5,0,3:1:0:0:
280,132,75824,1,2,0:0:0:0:
248,168,75900,1,2,0:0:0:0:
196,112,75977,1,0,0:0:0:0:
122,98,76053,2,0,L|-8:95,1,96,0|0,1:2|3:2,0:0:0:0:
4,103,76283,1,0,0:0:0:0:
18,178,76360,2,0,B|42:182|42:182|66:167,1,48,2|0,0:0|0:0,0:0:0:0:
148,250,76513,2,0,B|172:254|172:254|196:239,1,48,0|0,0:0|0:0,0:0:0:0:
278,322,76666,2,0,B|302:326|302:326|326:311,1,48,0|2,1:0|0:0,0:0:0:0:
393,342,76819,1,2,0:0:0:0:
393,342,76895,1,2,0:0:0:0:
393,342,76972,6,0,P|428:308|422:260,1,96,0|0,3:0|0:0,0:0:0:0:
493,188,77201,1,0,0:0:0:0:
500,206,77278,2,0,P|464:172|470:124,1,96,2|0,1:2|0:0,0:0:0:0:
400,52,77507,1,0,0:0:0:0:
393,70,77584,2,0,P|413:74|437:56,3,48,2|2|0|0,0:2|0:0|3:2|0:0,0:0:0:0:
288,17,77890,2,0,P|297:39|319:49,3,48,0|0|0|0,1:0|0:0|3:0|0:0,0:0:0:0:
214,28,78196,5,4,3:1:0:0:
208,64,78273,1,0,0:0:0:0:
156,120,78349,5,0,0:0:0:0:
162,156,78426,1,2,0:0:0:0:
180,228,78502,2,0,L|183:358,1,96,2|0,1:2|0:0,0:0:0:0:
198,333,78732,1,0,0:0:0:0:
264,368,78809,2,0,B|279:350|279:350|302:360,1,48,2|0,0:0|0:0,0:0:0:0:
340,212,78962,2,0,B|355:194|355:194|378:204,1,48,0|0,3:0|0:0,0:0:0:0:
422,58,79115,2,0,B|437:40|437:40|460:50,1,48,0|0,1:0|0:0,0:0:0:0:
489,120,79268,1,2,0:0:0:0:
489,120,79344,1,2,0:0:0:0:
489,120,79421,6,0,P|441:143|396:127,1,96,2|0,3:2|0:0,0:0:0:0:
298,16,79727,2,0,P|300:62|333:96,1,96,2|0,1:2|0:0,0:0:0:0:
402,131,79957,1,2,0:0:0:0:
402,131,80033,2,0,P|381:156|358:167,1,48,2|0,0:0|0:0,0:0:0:0:
387,230,80186,2,0,P|354:232|330:224,1,48,0|2,3:0|0:0,0:0:0:0:
232,338,80339,2,0,P|207:317|196:294,1,48,0|0,1:0|0:0,0:0:0:0:
133,322,80492,2,0,P|130:289|138:265,1,48,2|0,0:0|0:0,0:0:0:0:
25,168,80645,5,0,3:0:0:0:
141,83,80798,1,0,0:0:0:0:
67,103,80951,1,0,1:0:0:0:
215,104,81105,1,2,0:0:0:0:
388,233,81258,5,0,0:0:0:0:
299,258,81411,2,0,L|296:294,2,32,2|2|0,3:2|0:0|0:0,0:0:0:0:
210,234,81565,1,0,1:0:0:0:
159,156,81718,1,0,0:0:0:0:
453,56,81870,5,0,3:0:0:0:
454,263,82024,1,0,0:0:0:0:
482,159,82177,1,0,1:0:0:0:
363,321,82330,1,2,1:2:0:0:
75,40,82482,5,0,0:0:0:0:
191,2,82635,2,0,L|194:57,2,32,2|2|0,3:2|0:0|0:0,0:0:0:0:
311,30,82789,1,0,1:0:0:0:
380,132,82942,1,2,0:2:0:0:
438,362,83094,5,4,3:1:0:0:
408,348,83171,1,2,0:0:0:0:
376,304,83247,1,2,0:0:0:0:
304,280,83324,1,0,0:0:0:0:
244,328,83401,2,0,L|114:331,1,96,0|0,1:2|3:2,0:0:0:0:
137,316,83630,1,0,0:0:0:0:
63,294,83707,2,0,B|47:312|47:312|56:348,1,48,2|0,0:0|0:0,0:0:0:0:
196,196,83860,2,0,B|180:214|180:214|189:250,1,48,0|0,0:0|0:0,0:0:0:0:
330,101,84013,2,0,B|314:119|314:119|323:155,1,48,0|2,1:0|0:0,0:0:0:0:
377,195,84166,1,2,0:0:0:0:
377,195,84242,1,2,0:0:0:0:
377,195,84319,6,0,P|432:214|475:200,1,96,0|0,3:0|0:0,0:0:0:0:
512,55,84548,1,0,0:0:0:0:
502,45,84625,2,0,L|508:140,1,96,2|0,1:2|0:0,0:0:0:0:
468,205,84855,1,0,0:0:0:0:
472,224,84931,1,2,0:0:0:0:
335,27,85084,2,0,P|305:29|286:44,1,48,2|2,3:2|0:2,0:0:0:0:
125,66,85237,2,0,P|147:59|170:64,1,48,0|0,1:0|0:0,0:0:0:0:
239,96,85390,2,0,L|246:144,1,48,2|0,0:0|0:0,0:0:0:0:
184,264,85543,5,0,3:0:0:0:
232,252,85620,1,0,0:0:0:0:
264,216,85696,1,2,0:0:0:0:
316,272,85773,1,0,0:0:0:0:
390,286,85849,2,0,L|520:289,1,96,0|2,1:0|0:0,0:0:0:0:
508,281,86079,1,0,0:0:0:0:
494,206,86156,2,0,B|470:202|470:202|446:217,1,48,0|0,0:0|0:0,0:0:0:0:
364,134,86309,2,0,B|340:130|340:130|316:145,1,48,0|0,0:0|0:0,0:0:0:0:
234,62,86462,2,0,B|210:58|210:58|186:73,1,48,0|2,1:0|0:0,0:0:0:0:
119,42,86615,1,2,0:0:0:0:
119,42,86691,1,2,0:0:0:0:
119,42,86768,6,0,P|84:76|90:124,1,96,0|0,3:0|0:0,0:0:0:0:
19,196,86997,1,0,0:0:0:0:
12,178,87074,2,0,P|48:212|42:260,1,96,2|0,1:2|0:0,0:0:0:0:
112,332,87303,1,0,0:0:0:0:
119,314,87380,2,0,P|99:310|75:328,3,48,2|2|0|0,0:2|0:0|3:2|0:0,0:0:0:0:
224,367,87686,2,0,P|215:345|193:335,3,48,0|0|0|0,1:0|0:0|3:0|0:0,0:0:0:0:
298,356,87992,5,4,3:1:0:0:
304,320,88069,1,0,0:0:0:0:
356,264,88145,5,0,0:0:0:0:
350,228,88222,1,2,0:0:0:0:
332,156,88298,2,0,L|329:26,1,96,2|0,1:2|0:0,0:0:0:0:
314,51,88528,1,0,0:0:0:0:
248,16,88605,2,0,B|233:34|233:34|210:24,1,48,2|0,0:0|0:0,0:0:0:0:
172,172,88758,2,0,B|157:190|157:190|134:180,1,48,0|0,3:0|0:0,0:0:0:0:
90,326,88911,2,0,B|75:344|75:344|52:334,1,48,0|0,1:0|0:0,0:0:0:0:
23,264,89064,1,2,0:0:0:0:
23,264,89140,1,2,0:0:0:0:
23,264,89217,6,0,P|71:241|116:257,1,96,2|0,3:2|0:0,0:0:0:0:
214,368,89523,2,0,P|212:322|179:288,1,96,2|0,1:2|0:0,0:0:0:0:
110,253,89753,1,2,0:0:0:0:
110,253,89829,2,0,P|131:228|154:217,1,48,2|0,0:0|0:0,0:0:0:0:
125,154,89982,6,0,P|158:152|182:160,1,48,0|2,3:0|0:0,0:0:0:0:
280,46,90135,2,0,P|305:67|316:90,1,48,0|0,1:0|0:0,0:0:0:0:
379,62,90288,2,0,P|382:95|374:119,1,48,0|2,0:0|0:0,0:0:0:0:
487,216,90441,5,0,3:0:0:0:
371,301,90594,1,2,0:0:0:0:
445,281,90747,1,0,1:0:0:0:
296,280,90901,1,2,0:0:0:0:
91,114,91054,5,0,0:0:0:0:
141,192,91207,2,0,L|108:236,2,32,2|0|0,3:2|0:0|0:0,0:0:0:0:
230,216,91360,1,0,1:0:0:0:
319,191,91514,1,2,0:0:0:0:
508,40,91666,5,0,3:0:0:0:
309,38,91820,1,2,0:0:0:0:
408,11,91973,1,0,1:0:0:0:
256,124,92125,1,2,1:2:0:0:
160,356,92278,6,0,B|152:300|152:300|108:260,1,115.199996484375,2|0,0:2|3:0,0:0:0:0:
404,260,92584,2,0,B|360:300|360:300|352:356,1,115.199996484375,0|2,1:0|0:2,0:0:0:0:
450,203,92890,5,4,3:1:0:0:
469,215,92966,1,2,0:0:0:0:
481,236,93043,1,2,0:0:0:0:
481,260,93119,1,0,0:0:0:0:
469,281,93196,2,0,P|492:278|512:265,1,48,0|0,1:0|0:0,0:0:0:0:
337,158,93349,5,0,0:0:0:0:
330,137,93425,1,2,0:0:0:0:
332,113,93502,1,2,0:0:0:0:
347,93,93578,1,0,0:0:0:0:
369,82,93655,2,0,P|348:70|324:69,1,48,0|0,1:0|0:0,0:0:0:0:
402,261,93809,5,0,0:0:0:0:
396,282,93885,1,2,0:0:0:0:
380,300,93962,1,2,0:0:0:0:
357,308,94038,1,0,0:0:0:0:
333,303,94115,2,0,P|342:323|361:338,1,48,0|0,1:0|0:0,0:0:0:0:
410,139,94268,5,0,3:2:0:0:
427,125,94344,1,2,0:0:0:0:
450,120,94421,1,2,0:0:0:0:
474,128,94497,1,0,0:0:0:0:
491,145,94574,2,0,P|495:122|489:99,1,48,0|0,1:0|0:0,0:0:0:0:
332,233,94727,5,0,3:1:0:0:
310,234,94803,1,2,0:0:0:0:
288,224,94880,1,2,0:0:0:0:
273,204,94956,1,0,0:0:0:0:
270,180,95033,2,0,P|253:195|244:218,1,48,0|0,1:0|0:0,0:0:0:0:
196,279,95186,6,0,B|188:114,1,144,4|0,3:2|0:0,0:0:0:0:
201,148,95492,2,0,P|229:110|218:65,2,96,0|0|0,0:0|1:0|0:0,0:0:0:0:
138,11,95951,1,0,0:0:0:0:
48,46,96105,2,0,P|20:83|31:128,1,96,0|0,3:0|1:0,0:0:0:0:
196,279,96411,5,0,0:0:0:0:
118,334,96564,2,0,L|11:340,1,96,0|0,3:0|0:0,0:0:0:0:
204,374,96870,2,0,L|299:379,1,96,0|0,1:0|0:0,0:0:0:0:
497,288,97176,1,0,0:0:0:0:
492,384,97329,1,0,3:0:0:0:
412,333,97482,5,0,1:0:0:0:
410,285,97558,1,2,0:0:0:0:
407,237,97635,1,2,0:0:0:0:
342,166,97788,5,4,3:1:0:0:
323,178,97864,1,2,0:0:0:0:
311,199,97941,1,2,0:0:0:0:
311,223,98017,1,0,0:0:0:0:
299,179,98094,2,0,P|279:165|255:163,1,48,0|0,1:0|0:0,0:0:0:0:
265,338,98247,5,4,3:2:0:0:
239,316,98323,1,2,0:0:0:0:
203,309,98400,1,2,0:0:0:0:
169,320,98476,1,0,0:0:0:0:
226,283,98553,2,0,P|234:260|235:236,1,48,0|0,1:0|0:0,0:0:0:0:
56,316,98707,5,4,3:1:0:0:
72,274,98783,1,2,0:0:0:0:
67,226,98860,1,2,0:0:0:0:
39,187,98936,1,0,0:0:0:0:
109,244,99013,2,0,P|132:245|156:242,1,48,0|0,1:0|0:0,0:0:0:0:
0,92,99166,5,4,3:2:0:0:
55,95,99242,1,2,0:0:0:0:
110,70,99319,1,2,0:0:0:0:
145,22,99395,1,0,0:0:0:0:
105,128,99472,2,0,P|111:151|122:173,1,48,0|0,1:0|0:0,0:0:0:0:
218,3,99625,5,4,3:1:0:0:
229,46,99701,1,2,0:0:0:0:
262,82,99778,1,2,0:0:0:0:
307,97,99854,1,0,0:0:0:0:
217,92,99931,2,0,P|196:105|180:122,1,48,0|0,1:0|0:0,0:0:0:0:
255,182,100084,6,0,L|413:172,1,144,4|0,3:2|0:0,0:0:0:0:
412,159,100390,2,0,P|444:192|439:239,2,96,0|0|0,0:0|1:0|0:0,0:0:0:0:
455,358,100849,1,0,0:0:0:0:
385,294,101002,1,0,3:0:0:0:
289,306,101156,1,0,1:0:0:0:
193,317,101309,1,0,0:0:0:0:
193,317,101385,1,0,0:0:0:0:
193,317,101462,6,0,L|132:324,1,48,0|0,3:0|0:0,0:0:0:0:
385,294,101615,2,0,L|432:288,1,48,0|0,0:0|0:0,0:0:0:0:
206,241,101768,1,0,1:0:0:0:
206,241,101844,1,0,0:0:0:0:
206,241,101921,2,0,P|180:229|157:213,1,48,0|0,0:0|0:0,0:0:0:0:
354,223,102074,2,0,P|375:213|397:190,1,48,0|0,0:0|0:0,0:0:0:0:
218,164,102227,2,0,P|201:149|193:126,1,48,0|0,3:0|0:0,0:0:0:0:
232,30,102380,2,0,P|255:22|279:26,1,48,0|0,1:0|0:0,0:0:0:0:
343,110,102533,2,0,P|338:133|323:152,1,48,0|0,0:0|0:0,0:0:0:0:
62,203,102686,5,4,3:1:0:0:
43,215,102762,1,2,0:0:0:0:
31,236,102839,1,2,0:0:0:0:
31,260,102915,1,0,0:0:0:0:
43,281,102992,2,0,P|20:278|0:265,1,48,0|0,1:0|0:0,0:0:0:0:
175,158,103145,5,0,3:0:0:0:
182,137,103221,1,2,0:0:0:0:
180,113,103298,1,2,0:0:0:0:
165,93,103374,1,0,0:0:0:0:
143,82,103451,2,0,P|164:70|188:69,1,48,0|0,1:0|0:0,0:0:0:0:
110,261,103605,5,4,3:1:0:0:
116,282,103681,1,2,0:0:0:0:
132,300,103758,1,2,0:0:0:0:
155,308,103834,1,0,0:0:0:0:
179,303,103911,2,0,P|170:323|151:338,1,48,0|0,1:0|0:0,0:0:0:0:
102,139,104064,5,0,3:0:0:0:
85,125,104140,1,2,0:0:0:0:
62,120,104217,1,2,0:0:0:0:
38,128,104293,1,0,0:0:0:0:
21,145,104370,2,0,P|17:122|23:99,1,48,0|0,1:0|0:0,0:0:0:0:
180,233,104523,5,4,3:1:0:0:
202,234,104599,1,2,0:0:0:0:
224,224,104676,1,2,0:0:0:0:
239,204,104752,1,0,0:0:0:0:
242,180,104829,2,0,P|259:195|268:218,1,48,0|0,1:0|0:0,0:0:0:0:
316,279,104982,6,0,B|324:114,1,144,4|0,3:2|0:0,0:0:0:0:
311,148,105288,2,0,P|283:110|294:65,2,96,0|0|0,0:0|1:0|0:0,0:0:0:0:
374,11,105747,1,0,0:0:0:0:
464,46,105901,2,0,P|492:83|481:128,1,96,0|0,3:0|1:0,0:0:0:0:
316,279,106207,5,0,0:0:0:0:
394,334,106360,2,0,L|501:340,1,96,0|0,3:0|0:0,0:0:0:0:
308,374,106666,2,0,L|213:379,1,96,0|0,1:0|0:0,0:0:0:0:
20,384,106972,1,0,0:0:0:0:
105,237,107125,1,0,3:0:0:0:
120,324,107278,5,0,1:0:0:0:
116,336,107355,1,2,0:0:0:0:
112,348,107431,1,2,0:0:0:0:
170,166,107584,5,4,3:1:0:0:
189,178,107660,1,2,0:0:0:0:
201,199,107737,1,2,0:0:0:0:
201,223,107813,1,0,0:0:0:0:
213,179,107890,2,0,P|233:165|257:163,1,48,0|0,1:0|0:0,0:0:0:0:
247,338,108043,5,4,3:2:0:0:
273,316,108119,1,2,0:0:0:0:
309,309,108196,1,2,0:0:0:0:
343,320,108272,1,0,0:0:0:0:
286,283,108349,2,0,P|278:260|277:236,1,48,0|0,1:0|0:0,0:0:0:0:
456,316,108503,5,4,3:1:0:0:
440,274,108579,1,2,0:0:0:0:
445,226,108656,1,2,0:0:0:0:
473,187,108732,1,0,0:0:0:0:
403,244,108809,2,0,P|380:245|356:242,1,48,0|0,1:0|0:0,0:0:0:0:
512,92,108962,5,4,3:2:0:0:
457,95,109038,1,2,0:0:0:0:
402,70,109115,1,2,0:0:0:0:
367,22,109191,1,0,0:0:0:0:
407,128,109268,2,0,P|401:151|390:173,1,48,0|0,1:0|0:0,0:0:0:0:
294,3,109421,5,4,3:1:0:0:
283,46,109497,1,2,0:0:0:0:
250,82,109574,1,2,0:0:0:0:
205,97,109650,1,0,0:0:0:0:
295,92,109727,2,0,P|316:105|332:122,1,48,0|0,1:0|0:0,0:0:0:0:
257,182,109880,6,0,L|99:172,1,144,4|0,3:2|0:0,0:0:0:0:
100,159,110186,2,0,P|65:208|76:244,2,96,0|0|0,0:0|1:0|0:0,0:0:0:0:
57,358,110645,1,0,0:0:0:0:
127,294,110798,1,0,3:0:0:0:
223,306,110952,1,0,1:0:0:0:
153,370,111105,2,0,L|46:357,1,96,0|0,0:0|3:0,0:0:0:0:
49,362,111334,5,0,0:0:0:0:
39,367,111411,2,0,P|45:340|74:319,1,48,0|0,0:0|0:0,0:0:0:0:
193,226,111564,1,0,1:0:0:0:
193,226,111640,1,0,0:0:0:0:
193,226,111717,2,0,P|219:218|252:232,1,48,0|0,0:0|0:0,0:0:0:0:
304,264,111870,5,0,0:0:0:0:
397,247,111946,1,0,0:0:0:0:
462,176,112023,2,0,P|464:152|459:128,1,48,0|0,3:0|0:0,0:0:0:0:
312,271,112176,1,0,1:0:0:0:
405,254,112252,1,0,0:0:0:0:
490,297,112329,2,0,P|495:332|482:366,1,48,0|0,0:0|0:0,0:0:0:0:
424,381,112482,5,4,0:2:0:0:
256,192,112559,12,4,114931,0:1:0:0:
348,31,115237,5,0,0:0:0:0:
416,99,115543,5,0,0:0:0:0:
441,191,115849,5,0,0:0:0:0:
416,284,116155,5,0,0:0:0:0:
348,352,116462,5,0,0:0:0:0:
256,377,116768,5,0,0:0:0:0:
163,352,117074,5,0,0:0:0:0:
255,6,117380,5,4,0:1:0:0:
95,284,118298,5,0,0:0:0:0:
70,192,119217,5,0,0:0:0:0:
255,6,119817,5,4,0:1:0:0:
95,99,120192,5,0,0:0:0:0:
163,31,121152,5,0,0:0:0:0:
255,6,122112,5,0,0:0:0:0:
