osu file format v14

[General]
AudioFilename: audio.mp3
AudioLeadIn: 0
PreviewTime: 72992
Countdown: 0
SampleSet: Soft
StackLeniency: 0.2
Mode: 0
LetterboxInBreaks: 0
WidescreenStoryboard: 0

[Editor]
Bookmarks: 20631
DistanceSpacing: 1
BeatDivisor: 4
GridSize: 4
TimelineZoom: 1.7

[Metadata]
Title:Chrono Diver -PENDULUMs-
TitleUnicode:Chrono Diver -PENDULUMs-
Artist:Nekomata L.E.D.Master+
ArtistUnicode:猫叉L.E.D.Master+
Creator:yf_bmp
Version:fanzhen's Expert
Source:beatmania IIDX 22 PENDUAL
Tags:instrumental electronic video game Nakano Itsuki Toshiyuki Kakuta Naoyuki Sato 4th KONAMI Arcade Championship CHRONO BREAKS Ryuusei Aika sahuang z1085684963 fanzhen0019 Gust sodarose StarrStyx -Visceral- SuperBox Muya
BeatmapID:1510674
BeatmapSetID:714552

[Difficulty]
HPDrainRate:6
CircleSize:4.4
OverallDifficulty:8
ApproachRate:9.3
SliderMultiplier:1.6
SliderTickRate:1

[Events]
//Background and Video events
Video,-212,"BGA.flv"
0,0,"BG.png",0,0
//Break Periods
//Storyboard Layer 0 (Background)
//Storyboard Layer 1 (Fail)
//Storyboard Layer 2 (Pass)
//Storyboard Layer 3 (Foreground)
//Storyboard Layer 4 (Overlay)
//Storyboard Sound Samples

[TimingPoints]
1054,306.122448979592,4,2,1,80,1,0
10849,-100,4,2,1,95,0,0
50033,-100,4,2,1,95,0,1
63502,-76.9230769230769,4,2,1,95,0,1
65951,-66.6666666666667,4,2,1,95,0,1
68400,-200,4,2,1,95,0,0
70849,-133.333333333333,4,2,1,95,0,0
72992,-100,4,2,1,95,0,0
73298,-93.4579439252336,4,2,1,95,0,0
114931,-93.4579439252336,4,2,10,70,0,0
117380,-93.4579439252336,4,2,10,55,0,0
119217,300,4,2,10,70,1,0
119817,-93.4579439252336,4,2,10,40,0,0
120192,480,4,2,2,70,1,0

[Colours]
Combo1 : 255,0,255
Combo2 : 0,128,255
Combo3 : 255,128,255
Combo4 : 128,255,255

[HitObjects]
24,36,1054,5,2,2:0:0:0:
104,52,1207,1,0,2:0:0:0:
188,68,1360,1,2,2:0:0:0:
108,84,1513,1,0,2:0:0:0:
288,124,1666,5,2,2:0:0:0:
228,136,1819,1,0,2:0:0:0:
165,147,1972,1,2,2:0:0:0:
225,160,2125,1,0,2:0:0:0:
88,204,2278,5,2,0:0:0:0:
133,213,2431,1,0,0:0:0:0:
180,222,2584,1,2,0:0:0:0:
135,231,2737,1,0,0:0:0:0:
248,280,2890,5,2,0:0:0:0:
215,286,3043,1,0,0:0:0:0:
179,293,3196,2,0,L|320:308,1,120,2|0,0:0|0:0,0:0:0:0:
412,292,3502,5,2,2:0:0:0:
400,372,3656,1,0,2:0:0:0:
380,296,3809,1,2,2:0:0:0:
360,220,3962,1,0,2:0:0:0:
392,40,4115,5,2,2:0:0:0:
468,10,4268,1,0,2:0:0:0:
411,65,4421,1,2,2:0:0:0:
356,124,4574,1,0,2:0:0:0:
184,184,4727,5,2,0:0:0:0:
120,133,4880,1,0,0:0:0:0:
196,154,5033,1,2,0:0:0:0:
272,176,5186,1,0,0:0:0:0:
256,308,5339,5,2,0:0:0:0:
228,336,5416,1,0,0:0:0:0:
188,348,5492,1,0,0:0:0:0:
148,344,5569,1,0,0:0:0:0:
136,324,5645,5,2,0:0:0:0:
116,340,5722,1,0,0:0:0:0:
92,348,5798,1,0,0:0:0:0:
68,348,5875,1,0,0:0:0:0:
48,340,5951,5,2,2:0:0:0:
93,331,6105,1,0,2:0:0:0:
46,322,6258,1,2,2:0:0:0:
1,313,6411,1,0,2:0:0:0:
228,296,6564,5,2,2:0:0:0:
168,283,6717,1,0,2:0:0:0:
231,272,6870,1,2,2:0:0:0:
291,260,7023,1,0,2:0:0:0:
92,208,7176,5,2,0:0:0:0:
172,192,7329,1,0,0:0:0:0:
88,176,7482,1,2,0:0:0:0:
8,160,7635,1,0,0:0:0:0:
288,100,7788,5,2,0:0:0:0:
200,88,7941,1,0,0:0:0:0:
112,76,8094,2,0,L|264:68,1,120,2|0,0:0|0:0,0:0:0:0:
420,120,8400,5,2,2:0:0:0:
416,44,8554,1,0,2:0:0:0:
448,124,8707,1,2,2:0:0:0:
396,196,8860,1,0,2:0:0:0:
248,168,9013,5,2,2:0:0:0:
184,209,9166,1,0,2:0:0:0:
237,141,9319,1,2,2:0:0:0:
325,150,9472,1,0,2:0:0:0:
324,308,9625,5,2,0:0:0:0:
320,232,9778,1,0,0:0:0:0:
352,311,9931,1,2,0:0:0:0:
301,383,10084,1,0,0:0:0:0:
156,328,10237,5,2,0:0:0:0:
140,288,10314,1,0,0:0:0:0:
132,244,10390,1,0,0:0:0:0:
132,200,10467,1,0,0:0:0:0:
148,160,10543,5,2,0:0:0:0:
152,180,10620,1,0,0:0:0:0:
152,200,10696,1,0,0:0:0:0:
148,220,10773,1,0,0:0:0:0:
136,236,10849,6,0,L|36:248,1,80,0|0,3:0|0:0,0:0:0:0:
224,264,11156,1,0,0:0:0:0:
256,180,11309,2,0,P|256:92|200:36,1,160,2|2,0:0|0:0,0:0:0:0:
88,164,11768,2,0,L|167:154,1,80,0|0,0:0|0:0,0:0:0:0:
376,236,12074,6,0,L|476:248,1,80,0|0,0:0|0:0,0:0:0:0:
288,264,12380,1,0,0:0:0:0:
256,180,12533,2,0,P|256:92|312:36,1,160,2|2,0:0|0:0,0:0:0:0:
424,164,12992,2,0,L|344:154,1,80
256,180,13298,5,0,3:0:0:0:
288,264,13451,1,0,0:0:0:0:
256,348,13605,1,0,0:0:0:0:
224,264,13758,1,2,0:0:0:0:
140,224,13911,2,0,P|96:228|64:256,1,80,0|2,0:0|0:0,0:0:0:0:
48,344,14217,2,0,L|144:352,1,80,0|2,0:0|0:0,0:0:0:0:
384,350,14523,2,0,L|464:344,1,80,0|0,3:2|3:0,0:0:0:0:
443,249,14829,2,0,P|411:226|372:224,1,80,2|0,0:0|0:0,0:0:0:0:
224,264,15288,5,2,0:0:0:0:
256,348,15441,1,0,0:0:0:0:
288,264,15594,1,0,0:0:0:0:
424,136,15747,5,0,0:0:0:0:
496,132,15900,1,0,0:0:0:0:
412,148,16054,1,0,0:0:0:0:
344,88,16207,2,0,P|332:60|336:8,1,80,2|0,0:0|0:0,0:0:0:0:
404,160,16513,5,2,0:0:0:0:
340,220,16666,1,0,0:0:0:0:
256,192,16819,1,0,0:0:0:0:
88,136,16972,5,0,0:0:0:0:
16,132,17125,1,0,0:0:0:0:
100,148,17278,1,0,0:0:0:0:
168,88,17431,2,0,P|180:60|176:8,1,80,2|0,0:0|3:0,0:0:0:0:
108,160,17737,5,2,3:2:0:0:
172,220,17890,1,0,0:0:0:0:
256,192,18043,1,0,0:0:0:0:
340,304,18196,6,0,L|424:316,1,80,0|0,3:0|0:0,0:0:0:0:
172,304,18502,2,0,L|88:316,1,80,0|2,0:0|0:0,0:0:0:0:
16,328,18809,1,0,0:0:0:0:
256,360,18962,1,2,0:0:0:0:
496,328,19115,1,0,0:0:0:0:
256,292,19268,1,2,0:0:0:0:
144,216,19421,6,0,L|140:128,1,80,4|0,0:1|0:0,0:0:0:0:
368,216,19727,2,0,L|372:128,1,80,4|0,0:0|0:0,0:0:0:0:
56,40,20033,5,2,0:0:0:0:
112,16,20110,1,2,0:0:0:0:
172,20,20186,1,2,3:2:0:0:
224,48,20263,1,2,0:0:0:0:
256,100,20339,1,0,1:0:0:0:
288,48,20416,1,0,0:0:0:0:
340,20,20492,1,0,0:0:0:0:
400,16,20569,1,0,0:0:0:0:
456,40,20645,6,0,B|472:76|475:115|464:168,1,120,4|0,3:1|0:0,0:0:0:0:
452,168,20951,2,0,L|352:160,1,80,0|0,1:0|0:0,0:0:0:0:
280,304,21258,5,2,0:0:0:0:
248,204,21411,1,0,3:0:0:0:
348,228,21564,2,0,L|427:234,1,80,0|2,1:0|0:0,0:0:0:0:
148,384,21870,5,0,3:0:0:0:
180,284,22023,1,2,0:0:0:0:
80,308,22176,2,0,L|0:314,1,80,0|2,1:0|0:0,0:0:0:0:
72,200,22482,6,0,P|80:176|80:156,3,40,0|0|2|0,0:0|0:0|3:2|0:0,0:0:0:0:
16,108,22788,2,0,P|8:84|8:64,3,40,0|0|2|0,1:0|0:0|0:0|0:0,0:0:0:0:
80,24,23094,5,0,3:0:0:0:
80,24,23171,1,0,0:0:0:0:
80,24,23247,2,0,L|176:32,1,80,0|0,0:0|1:0,0:0:0:0:
252,40,23554,1,2,0:0:0:0:
156,116,23707,5,2,0:0:0:0:
264,48,23860,1,0,3:0:0:0:
392,56,24013,1,0,1:0:0:0:
488,140,24166,1,2,0:0:0:0:
288,120,24319,5,0,3:0:0:0:
404,160,24472,2,0,L|516:148,1,80,0|0,0:0|1:0,0:0:0:0:
316,236,24778,1,2,0:0:0:0:
232,336,24931,5,2,0:3:0:0:
228,352,25008,1,2,0:3:0:0:
216,332,25084,1,2,3:3:0:0:
212,348,25161,1,2,0:3:0:0:
200,336,25237,5,0,1:0:0:0:
160,284,25314,1,2,0:2:0:0:
152,220,25390,1,2,0:0:0:0:
168,156,25467,1,2,0:0:0:0:
216,112,25543,6,0,L|220:12,1,80,4|0,3:1|0:0,0:0:0:0:
52,216,25849,1,0,1:0:0:0:
52,216,26002,2,0,L|48:116,1,80,2|0,0:0|0:0,0:0:0:0:
232,272,26309,1,0,3:0:0:0:
116,324,26462,1,0,1:0:0:0:
52,216,26615,1,2,0:0:0:0:
128,328,26768,5,0,3:0:0:0:
240,276,26921,2,0,P|300:272|336:292,1,80,2|0,0:0|1:0,0:0:0:0:
408,356,27227,1,2,0:0:0:0:
324,284,27380,5,2,0:2:0:0:
380,252,27457,1,2,0:2:0:0:
444,256,27533,1,0,3:0:0:0:
492,296,27610,1,2,0:0:0:0:
448,247,27686,5,2,1:2:0:0:
424,239,27763,1,2,0:0:0:0:
400,238,27839,1,2,0:0:0:0:
376,242,27916,1,0,0:0:0:0:
368,347,27992,6,0,P|406:358|452:347,1,80,0|0,3:0|0:0,0:0:0:0:
496,180,28298,1,0,1:0:0:0:
356,104,28451,1,2,0:0:0:0:
480,32,28605,2,0,L|472:120,1,80,0|0,0:0|3:0,0:0:0:0:
316,168,28911,1,0,1:0:0:0:
204,96,29064,6,0,L|120:92,1,80,2|0,0:0|0:0,0:0:0:0:
0,8,29370,2,0,L|84:4,1,80,0|0,0:0|1:0,0:0:0:0:
200,264,29676,1,0,1:0:0:0:
200,264,29752,1,0,0:0:0:0:
200,264,29829,1,2,3:2:0:0:
92,324,29982,1,2,0:0:0:0:
4,212,30135,2,0,L|96:208,1,80,0|0,1:0|0:0,0:0:0:0:
320,304,30441,5,4,3:1:0:0:
448,320,30594,1,0,0:0:0:0:
320,304,30747,5,2,1:2:0:0:
424,304,30900,1,0,0:0:0:0:
320,304,31054,5,2,0:0:0:0:
404,284,31207,1,0,3:0:0:0:
320,304,31360,5,2,1:2:0:0:
392,260,31513,1,0,0:0:0:0:
488,228,31666,5,2,3:2:0:0:
388,232,31819,1,0,0:0:0:0:
488,228,31972,5,2,1:2:0:0:
400,188,32125,1,0,0:0:0:0:
488,228,32278,5,2,0:2:0:0:
408,124,32431,1,0,3:2:0:0:
488,228,32584,5,2,1:2:0:0:
384,48,32737,1,0,0:0:0:0:
292,20,32890,6,0,P|264:20|248:28,3,40,2|2|0|0,3:2|0:0|0:0|0:0,0:0:0:0:
128,68,33196,2,0,P|108:72|84:72,1,40,0|0,1:0|0:0,0:0:0:0:
200,88,33349,6,0,P|228:88|244:96,3,40,2|2|2|0,0:0|0:0|0:0|0:0,0:0:0:0:
384,148,33656,2,0,P|404:152|428:152,1,40,0|0,3:0|0:0,0:0:0:0:
304,156,33809,6,0,P|276:156|260:164,3,40,0|2|2|0,1:2|0:0|0:0|0:0,0:0:0:0:
140,216,34115,2,0,P|120:220|96:220,1,40,0|0,3:0|0:0,0:0:0:0:
212,224,34268,6,0,P|240:224|256:232,3,40,2|0|0|2,0:0|0:0|1:0|0:0,0:0:0:0:
340,276,34574,2,0,P|360:280|384:280,1,40,2|0,0:0|0:0,0:0:0:0:
268,300,34727,5,2,0:2:0:0:
224,304,34804,1,0,0:0:0:0:
184,328,34880,1,0,3:2:0:0:
144,344,34957,1,2,0:0:0:0:
100,340,35033,1,0,1:0:0:0:
64,316,35110,1,2,0:2:0:0:
48,276,35186,1,2,0:0:0:0:
52,232,35263,1,2,0:0:0:0:
84,204,35339,5,4,3:1:0:0:
128,268,35492,1,0,0:0:0:0:
84,204,35645,5,0,1:0:0:0:
152,256,35798,1,2,0:0:0:0:
84,204,35951,5,0,0:0:0:0:
180,252,36105,1,2,3:2:0:0:
84,204,36258,5,0,1:0:0:0:
208,256,36411,1,2,0:2:0:0:
172,340,36564,5,0,3:0:0:0:
236,268,36717,1,2,0:0:0:0:
172,340,36870,5,0,1:0:0:0:
276,276,37023,1,2,0:0:0:0:
172,340,37176,5,2,0:2:0:0:
328,268,37329,1,0,3:0:0:0:
172,340,37482,5,2,1:2:0:0:
396,228,37635,1,2,0:0:0:0:
428,144,37788,6,0,P|432:120|432:100,3,40,2|2|0|0,3:2|0:0|0:0|0:0,0:0:0:0:
304,48,38094,2,0,P|296:24|296:4,1,40,0|0,1:0|0:0,0:0:0:0:
344,112,38247,6,0,P|348:136|348:156,3,40,2|2|2|0,0:0|0:0|0:0|0:0,0:0:0:0:
220,208,38554,2,0,P|212:232|212:252,1,40,0|0,3:0|0:0,0:0:0:0:
256,144,38707,6,0,P|260:120|260:100,3,40,0|2|2|0,1:2|0:0|0:0|0:0,0:0:0:0:
132,48,39013,2,0,P|124:24|124:4,1,40,0|0,3:0|2:0,0:0:0:0:
172,112,39166,5,2,0:0:0:0:
168,156,39242,1,2,0:0:0:0:
148,196,39319,1,0,1:0:0:0:
108,216,39395,1,0,0:0:0:0:
64,216,39472,1,0,1:0:0:0:
24,200,39548,1,2,0:0:0:0:
68,196,39625,6,0,P|72:236|64:260,1,40,0|0,3:0|0:0,0:0:0:0:
120,296,39778,2,0,P|116:336|124:360,1,40,2|0,3:2|0:0,0:0:0:0:
36,376,39931,1,0,1:2:0:0:
80,368,40008,1,0,0:0:0:0:
124,372,40084,1,0,0:0:0:0:
168,372,40161,1,0,0:0:0:0:
212,364,40237,6,0,P|240:364|264:372,3,40,4|0|0|0,3:1|0:0|0:0|0:0,0:0:0:0:
296,304,40543,2,0,P|324:304|348:296,3,40,2|0|0|0,1:2|0:0|0:0|0:0,0:0:0:0:
388,360,40849,2,0,P|416:360|440:368,3,40,2|0|0|0,0:2|0:0|3:0|0:0,0:0:0:0:
472,300,41156,2,0,P|500:300|524:292,3,40,2|0|0|0,1:2|0:0|0:0|0:0,0:0:0:0:
424,212,41462,5,2,3:2:0:0:
324,180,41615,1,0,0:0:0:0:
440,140,41768,2,0,L|432:240,1,80,2|0,1:2|0:0,0:0:0:0:
212,200,42074,5,2,0:0:0:0:
208,180,42150,1,0,0:0:0:0:
228,176,42227,1,0,3:0:0:0:
232,196,42304,1,0,0:0:0:0:
112,156,42380,5,2,1:2:0:0:
116,136,42457,1,0,0:0:0:0:
96,132,42533,1,0,0:0:0:0:
92,152,42610,1,0,0:0:0:0:
40,56,42686,5,2,3:2:0:0:
11,58,42763,1,0,0:0:0:0:
0,32,42839,1,0,0:0:0:0:
22,13,42916,1,0,0:0:0:0:
45,28,42992,2,0,P|62:28|89:20,1,40,0|0,1:0|0:0,0:0:0:0:
228,48,43145,5,2,0:2:0:0:
199,46,43222,1,0,0:0:0:0:
188,72,43298,1,0,0:0:0:0:
210,91,43375,1,0,0:0:0:0:
233,76,43451,2,0,P|250:75|277:83,1,40,0|0,3:0|0:0,0:0:0:0:
420,136,43605,5,2,1:2:0:0:
449,134,43681,1,0,0:0:0:0:
460,160,43758,1,0,0:0:0:0:
438,179,43834,1,0,0:0:0:0:
415,164,43911,2,0,P|397:163|370:171,1,40,0|0,3:0|0:0,0:0:0:0:
244,248,44064,5,2,0:0:0:0:
273,250,44140,1,0,0:0:0:0:
284,224,44217,1,0,1:0:0:0:
262,205,44293,1,0,0:0:0:0:
239,220,44370,2,0,P|221:220|194:212,1,40,2|0,0:0|0:0,0:0:0:0:
0,276,44523,5,0,0:0:0:0:
4,284,44599,1,2,0:0:0:0:
53,222,44676,1,0,3:0:0:0:
56,232,44752,1,0,0:0:0:0:
121,256,44829,1,0,1:0:0:0:
124,264,44906,1,2,0:0:0:0:
109,331,44982,1,0,0:0:0:0:
112,340,45059,1,0,0:0:0:0:
34,343,45135,6,0,P|52:332|76:328,3,40,4|0|0|0,3:1|0:0|0:0|0:0,0:0:0:0:
184,348,45441,2,0,P|202:359|226:363,3,40,2|0|0|0,1:2|0:0|0:0|0:0,0:0:0:0:
240,292,45747,2,0,P|258:281|282:277,3,40,2|0|0|0,0:2|0:0|3:0|0:0,0:0:0:0:
390,297,46054,2,0,P|408:308|432:312,3,40,2|0|0|0,1:2|0:0|0:0|0:0,0:0:0:0:
436,236,46360,6,0,P|444:220|444:196,3,40,2|0|0|0,3:2|0:0|0:0|0:0,0:0:0:0:
344,76,46666,2,0,P|336:60|336:36,3,40,2|0|0|0,1:2|0:0|0:0|0:0,0:0:0:0:
472,88,46972,5,2,0:0:0:0:
468,108,47048,1,0,0:0:0:0:
448,103,47125,1,0,3:0:0:0:
452,83,47201,1,0,0:0:0:0:
328,168,47278,5,2,1:2:0:0:
324,148,47355,1,0,0:0:0:0:
304,153,47431,1,0,0:0:0:0:
308,173,47508,1,0,0:0:0:0:
204,64,47584,5,2,3:2:0:0:
202,35,47661,1,0,0:0:0:0:
228,24,47737,1,0,0:0:0:0:
247,46,47814,1,0,0:0:0:0:
232,69,47890,2,0,P|231:86|239:113,1,40,0|0,1:0|0:0,0:0:0:0:
116,148,48043,5,2,0:2:0:0:
118,119,48120,1,0,0:0:0:0:
92,108,48196,1,0,0:0:0:0:
73,130,48273,1,0,0:0:0:0:
88,153,48349,2,0,P|88:170|80:197,1,40,0|0,3:0|0:0,0:0:0:0:
216,256,48502,5,2,1:2:0:0:
214,227,48579,1,0,0:0:0:0:
240,216,48656,1,0,0:0:0:0:
259,238,48732,1,0,0:0:0:0:
244,261,48809,2,0,P|243:278|251:305,1,40,0|0,3:0|0:0,0:0:0:0:
96,384,48962,5,2,0:0:0:0:
98,355,49038,1,0,0:0:0:0:
84,336,49115,2,0,L|64:304,2,26.6666666666667,0|2|2,1:0|0:0|0:0,0:0:0:0:
120,256,49268,2,0,L|140:224,2,26.6666666666667,0|0|0,1:0|0:0|0:0,0:0:0:0:
16,184,49421,6,0,L|0:156,2,26.6666666666667,0|2|2,0:0|0:0|0:0,0:0:0:0:
124,216,49574,2,0,L|108:188,2,26.6666666666667,0|0|0,3:0|0:0|0:0,0:0:0:0:
216,316,49727,6,0,L|200:344,2,26.6666666666667,0|0|0,1:0|0:0|0:0,0:0:0:0:
324,284,49880,2,0,L|308:312,2,26.6666666666667,0|0|0,0:0|0:0|0:0,0:0:0:0:
392,208,50033,5,4,3:1:0:0:
308,384,50186,1,0,0:0:0:0:
272,196,50339,1,0,3:0:0:0:
400,224,50492,5,4,1:2:0:0:
310,371,50645,1,0,0:0:0:0:
260,208,50798,1,0,3:0:0:0:
408,240,50951,5,4,3:1:0:0:
312,358,51105,1,0,0:0:0:0:
248,220,51258,1,0,3:0:0:0:
416,256,51411,5,4,1:2:0:0:
314,345,51564,1,0,0:0:0:0:
236,232,51717,1,0,3:0:0:0:
424,272,51870,5,0,3:1:0:0:
316,332,52023,1,0,0:0:0:0:
224,244,52176,1,0,1:1:0:0:
116,304,52329,1,0,3:0:0:0:
44,68,52482,5,4,3:1:0:0:
245,84,52635,1,0,0:0:0:0:
64,172,52788,1,0,3:0:0:0:
36,60,52941,5,4,1:2:0:0:
232,87,53094,1,0,0:0:0:0:
56,180,53247,1,0,3:0:0:0:
28,52,53400,5,4,3:1:0:0:
219,90,53554,1,0,0:0:0:0:
48,188,53707,1,0,3:0:0:0:
20,44,53860,5,4,1:2:0:0:
206,93,54013,1,0,0:0:0:0:
40,196,54166,1,0,3:0:0:0:
12,36,54319,5,0,3:1:0:0:
193,96,54472,1,0,0:0:0:0:
504,188,54625,5,0,1:1:0:0:
323,248,54778,1,0,0:0:0:0:
216,364,54931,5,4,3:1:0:0:
256,208,55084,1,0,0:0:0:0:
296,364,55237,1,0,3:0:0:0:
192,360,55390,5,4,1:2:0:0:
256,224,55543,1,0,0:0:0:0:
320,360,55696,1,0,3:0:0:0:
168,356,55849,5,4,3:1:0:0:
256,240,56002,1,0,0:0:0:0:
344,356,56156,1,0,3:0:0:0:
144,352,56309,5,4,1:2:0:0:
256,256,56462,1,0,0:0:0:0:
368,352,56615,1,0,0:0:0:0:
120,348,56768,5,0,3:1:0:0:
256,272,56921,1,0,0:0:0:0:
392,348,57074,1,0,1:1:0:0:
256,288,57227,1,0,0:0:0:0:
411,193,57380,6,0,P|440:176|456:152,1,53.3333333333333,4|0,0:1|0:0,0:0:0:0:
390,115,57584,2,0,P|407:86|409:57,1,53.3333333333333
334,58,57788,2,0,P|334:24|321:-1,1,53.3333333333333
257,36,57992,2,0,P|239:7|216:-8,1,53.3333333333333,4|0,0:0|0:0,0:0:0:0:
179,57,58196,2,0,P|150:40|121:38,1,53.3333333333333
122,113,58400,2,0,P|88:113|62:126,1,53.3333333333333
101,191,58605,6,0,P|72:208|56:232,1,53.3333333333333,4|0,0:2|0:0,0:0:0:0:
136,268,58809,2,0,P|153:288|176:300,2,53.3333333333333,0|0|0,0:0|3:0|0:0,0:0:0:0:
188,204,59115,1,0,0:0:0:0:
188,204,59217,6,0,L|200:144,1,53.3333333333333,0|0,1:0|0:0,0:0:0:0:
256,96,59421,2,0,L|256:36,1,53.3333333333333
324,204,59625,2,0,L|312:144,1,53.3333333333333,0|0,0:0|3:0,0:0:0:0:
392,112,59829,6,0,P|408:96|444:92,1,53.3333333333333,0|0,3:0|0:0,0:0:0:0:
452,168,60033,2,0,P|448:204|432:236,2,53.3333333333333,0|0|0,0:0|3:0|0:0,0:0:0:0:
324,204,60339,5,0,0:0:0:0:
324,204,60441,2,0,L|320:140,1,53.3333333333333,0|2,1:0|0:0,0:0:0:0:
256,88,60645,2,0,L|256:28,1,53.3333333333333,0|2,0:0|0:0,0:0:0:0:
188,204,60849,2,0,L|192:140,1,53.3333333333333,0|0,0:0|1:0,0:0:0:0:
112,112,61054,6,0,P|84:112|48:128,1,53.3333333333333,0|0,3:0|0:0,0:0:0:0:
64,204,61258,2,0,P|84:228|120:244,2,53.3333333333333,0|2|0,0:0|3:2|0:0,0:0:0:0:
188,204,61564,5,0,0:0:0:0:
188,204,61666,2,0,L|184:140,1,53.3333333333333,0|2,1:0|0:0,0:0:0:0:
256,80,61870,2,0,L|256:20,1,53.3333333333333,0|2,0:0|0:0,0:0:0:0:
324,204,62074,2,0,L|328:140,1,53.3333333333333,0|0,0:0|3:0,0:0:0:0:
424,72,62278,6,0,P|432:104|424:148,1,53.3333333333333,2|0,0:0|0:0,0:0:0:0:
404,244,62482,2,0,P|396:276|404:320,2,53.3333333333333,0|0|0,3:0|0:0|0:0,0:0:0:0:
324,204,62788,5,0,2:0:0:0:
324,204,62890,2,0,L|340:144,1,53.3333333333333,0|2,1:0|0:0,0:0:0:0:
188,204,63094,1,0,0:0:0:0:
188,204,63196,2,0,L|172:144,2,53.3333333333333,0|2|0,3:0|0:0|1:0,0:0:0:0:
104,264,63502,6,0,P|76:260|28:272,1,69.3333301595054,4|0,0:1|0:0,0:0:0:0:
188,368,63707,2,0,P|156:340|112:332,1,69.3333301595054,0|2,0:0|0:0,0:0:0:0:
256,312,63911,2,0,P|288:280|292:232,1,69.3333301595054
360,168,64115,5,0,1:0:0:0:
360,168,64217,2,0,L|368:84,1,69.3333301595054,2|0,0:0|0:0,0:0:0:0:
456,116,64421,1,2,0:0:0:0:
456,116,64523,2,0,L|448:32,1,69.3333301595054,0|0,0:0|3:0,0:0:0:0:
408,264,64727,6,0,P|436:260|484:272,1,69.3333301595054,0|0,3:0|0:0,0:0:0:0:
324,368,64931,2,0,P|356:340|400:332,1,69.3333301595054,0|2,3:0|3:2,0:0:0:0:
256,312,65135,2,0,P|224:280|220:232,1,69.3333301595054
152,168,65339,5,0,1:0:0:0:
152,168,65441,2,0,L|144:84,1,69.3333301595054,2|0,0:0|0:0,0:0:0:0:
56,116,65645,1,2,0:0:0:0:
56,116,65747,2,0,L|64:32,1,69.3333301595054
217,20,65951,6,0,P|255:10|294:20,1,80.0000030517579,0|0,3:0|0:0,0:0:0:0:
348,116,66156,2,0,P|337:154|309:182,1,80.0000030517579,0|0,0:0|3:0,0:0:0:0:
201,182,66360,2,0,P|174:154|164:116,1,80.0000030517579
56,200,66564,5,0,1:0:0:0:
56,200,66666,2,0,P|92:232|140:240,1,80.0000030517579,2|0,0:0|0:0,0:0:0:0:
390,240,66870,1,2,0:0:0:0:
390,240,66972,2,0,P|427:227|456:200,1,80.0000030517579,0|0,0:0|3:0,0:0:0:0:
256,96,67176,6,0,P|240:140|252:188,1,80.0000030517579,0|0,3:0|0:0,0:0:0:0:
108,348,67380,2,0,P|154:339|189:305,1,80.0000030517579,0|0,3:0|0:0,0:0:0:0:
404,348,67584,2,0,P|373:312|326:298,1,80.0000030517579
252,264,67788,5,0,1:0:0:0:
252,264,67890,2,0,L|264:348,1,80.0000030517579,2|2,0:0|0:0,0:0:0:0:
252,91,68094,1,0,1:0:0:0:
252,91,68196,2,0,L|240:7,1,80.0000030517579
252,180,68400,5,4,0:1:0:0:
256,192,68477,12,0,70773,0:0:0:0:
188,288,70849,6,0,P|156:292|128:280,1,60.0000022888184,0|0,0:0|0:0,0:0:0:0:
0,172,71156,2,0,P|27:161|57:166,1,60.0000022888184,0|0,0:0|0:0,0:0:0:0:
68,172,71385,1,0,0:0:0:0:
76,180,71462,1,0,0:0:0:0:
168,216,71615,1,0,0:0:0:0:
224,140,71768,2,0,P|232:112|232:80,1,60.0000022888184,0|0,0:0|0:0,0:0:0:0:
228,72,71997,1,0,0:0:0:0:
220,64,72074,5,0,0:0:0:0:
300,48,72227,1,0,0:0:0:0:
156,28,72380,6,0,L|124:24,1,30.0000011444092,0|0,0:0|0:0,0:0:0:0:
372,56,72533,2,0,L|401:59,1,30.0000011444092,0|0,0:0|0:0,0:0:0:0:
76,80,72686,2,0,L|40:84,1,30.0000011444092,0|0,0:0|0:0,0:0:0:0:
288,192,72839,1,0,3:0:0:0:
472,68,72992,2,0,P|476:48|476:28,3,40,0|2|2|2,1:0|0:0|0:0|0:0,0:0:0:0:
428,128,73298,5,4,3:1:0:0:
424,144,73375,1,2,0:0:0:0:
424,160,73451,1,2,0:0:0:0:
428,176,73528,1,0,0:0:0:0:
436,192,73605,2,0,P|444:220|448:248,2,42.7999986938477,0|0|0,1:0|0:0|0:0,0:0:0:0:
372,356,73911,6,0,P|376:308|372:260,1,85.5999973876954,2|0,0:2|3:2,0:0:0:0:
368,256,74140,1,0,0:0:0:0:
364,240,74217,2,0,P|356:208|356:188,3,42.7999986938477,0|2|2|2,1:0|0:0|0:0|0:0,0:0:0:0:
280,52,74523,5,0,3:0:0:0:
276,68,74599,1,0,0:0:0:0:
272,84,74676,1,0,0:0:0:0:
272,100,74752,1,0,0:0:0:0:
272,116,74829,2,0,P|276:168|272:212,1,85.5999973876954,2|0,1:2|0:0,0:0:0:0:
200,364,75135,6,0,P|204:336|200:312,3,42.7999986938477,2|0|2|2,0:2|0:0|3:2|0:2,0:0:0:0:
192,292,75441,1,0,1:0:0:0:
188,276,75518,1,0,0:0:0:0:
188,260,75594,1,0,3:0:0:0:
192,244,75671,1,0,0:0:0:0:
208,192,75747,5,0,3:0:0:0:
212,176,75824,1,2,0:0:0:0:
212,160,75900,1,2,0:0:0:0:
208,144,75977,1,0,0:0:0:0:
200,128,76054,2,0,P|184:104|128:88,1,85.5999973876954,0|0,1:0|0:0,0:0:0:0:
56,176,76360,2,0,P|72:200|128:216,1,85.5999973876954,2|0,0:2|3:2,0:0:0:0:
308,160,76666,5,0,1:0:0:0:
324,164,76742,1,0,0:0:0:0:
340,164,76819,1,2,0:0:0:0:
356,160,76895,1,2,0:0:0:0:
372,152,76972,2,0,P|396:136|412:80,1,85.5999973876954,0|0,3:0|0:0,0:0:0:0:
324,8,77278,2,0,P|300:24|284:80,1,85.5999973876954,2|0,1:2|0:0,0:0:0:0:
276,256,77584,5,2,0:2:0:0:
272,272,77661,1,2,0:0:0:0:
272,288,77737,1,0,3:2:0:0:
276,304,77814,1,0,0:2:0:0:
284,320,77890,2,0,P|300:336|328:352,3,42.7999986938477,0|2|0|0,1:0|0:0|0:0|0:0,0:0:0:0:
400,300,78196,6,0,P|384:284|356:268,3,42.7999986938477,4|0|0|2,3:1|0:0|0:0|0:0,0:0:0:0:
352,268,78502,1,2,1:2:0:0:
336,264,78579,1,0,0:0:0:0:
320,264,78656,1,0,0:0:0:0:
304,268,78732,1,0,0:0:0:0:
288,272,78809,2,0,P|248:280|196:272,1,85.5999973876954,2|0,0:0|3:0,0:0:0:0:
36,188,79115,5,0,1:0:0:0:
52,184,79191,1,0,0:0:0:0:
68,184,79268,1,2,0:0:0:0:
84,188,79344,1,2,0:0:0:0:
100,196,79421,2,0,P|128:200|160:200,3,42.7999986938477,2|0|0|0,3:2|0:0|0:0|0:0,0:0:0:0:
212,180,79727,2,0,P|240:176|272:176,3,42.7999986938477,2|0|0|2,1:2|0:0|0:0|0:0,0:0:0:0:
428,96,80033,5,2,0:0:0:0:
412,92,80110,1,0,0:0:0:0:
396,92,80186,1,0,3:0:0:0:
380,96,80263,1,2,0:0:0:0:
364,104,80339,2,0,P|320:112|272:104,1,85.5999973876954,0|2,1:0|0:0,0:0:0:0:
48,140,80645,5,0,3:0:0:0:
132,152,80798,1,0,0:0:0:0:
212,120,80951,1,0,1:0:0:0:
248,40,81105,1,2,0:0:0:0:
316,88,81258,1,0,0:0:0:0:
348,168,81411,2,0,L|336:208,3,28.5333324625651,2|2|0|0,3:2|0:0|0:0|1:0,0:0:0:0:
416,112,81717,1,0,0:0:0:0:
500,128,81870,5,0,3:0:0:0:
424,208,82023,1,2,0:0:0:0:
416,320,82176,1,0,1:0:0:0:
340,240,82329,1,0,1:0:0:0:
232,216,82482,1,0,0:0:0:0:
128,260,82635,2,0,L|108:296,3,28.5333324625651,0|2|0|0,3:0|0:2|0:0|1:0,0:0:0:0:
216,328,82941,1,2,0:2:0:0:
40,312,83094,5,4,3:1:0:0:
36,296,83171,1,2,0:0:0:0:
36,280,83247,1,2,0:0:0:0:
40,264,83324,1,0,0:0:0:0:
48,252,83400,2,0,P|52:220|52:200,2,42.7999986938477,0|0|0,1:0|0:0|0:0,0:0:0:0:
160,36,83707,6,0,P|164:96|156:140,1,85.5999973876954,2|0,0:2|3:2,0:0:0:0:
152,136,83936,1,0,0:0:0:0:
144,152,84013,2,0,P|140:184|144:208,3,42.7999986938477,0|2|2|2,1:0|0:0|0:0|0:0,0:0:0:0:
256,344,84319,5,0,3:0:0:0:
260,328,84395,1,0,0:0:0:0:
260,312,84472,1,0,0:0:0:0:
256,296,84548,1,0,0:0:0:0:
248,280,84625,2,0,P|244:232|248:184,1,85.5999973876954,2|0,1:2|0:0,0:0:0:0:
340,56,84931,6,0,P|344:88|340:116,3,42.7999986938477,2|0|2|2,0:2|0:0|3:2|0:2,0:0:0:0:
340,116,85237,1,0,1:0:0:0:
336,132,85314,1,0,0:0:0:0:
336,148,85390,1,0,1:0:0:0:
340,164,85467,1,0,0:0:0:0:
360,212,85543,5,0,3:0:0:0:
376,216,85620,1,2,0:0:0:0:
392,216,85696,1,2,0:0:0:0:
408,212,85773,1,0,0:0:0:0:
424,208,85849,2,0,P|468:204|512:208,1,85.5999973876954,0|0,1:0|0:0,0:0:0:0:
312,272,86156,2,0,P|356:288|400:288,1,85.5999973876954,2|0,0:2|3:2,0:0:0:0:
196,196,86462,5,0,1:0:0:0:
180,192,86538,1,0,0:0:0:0:
164,192,86615,1,2,0:0:0:0:
148,196,86691,1,2,0:0:0:0:
132,200,86768,2,0,P|88:204|44:200,1,85.5999973876954,0|0,3:0|0:0,0:0:0:0:
248,136,87074,2,0,P|204:120|160:120,1,85.5999973876954,2|0,1:2|0:0,0:0:0:0:
240,256,87380,5,2,0:2:0:0:
244,272,87457,1,2,0:0:0:0:
252,288,87533,1,0,3:2:0:0:
264,300,87610,1,0,0:2:0:0:
280,308,87686,2,0,P|272:344|252:368,3,42.7999986938477,0|2|0|0,1:0|0:0|0:0|0:0,0:0:0:0:
137,377,87992,6,0,P|122:362|112:344,3,42.7999986938477,4|0|0|2,3:1|0:0|0:0|0:0,0:0:0:0:
56,292,88298,1,2,1:2:0:0:
68,280,88375,1,0,0:0:0:0:
84,272,88451,1,0,0:0:0:0:
100,268,88528,1,0,0:0:0:0:
116,268,88605,2,0,P|164:264|216:248,1,85.5999973876954,2|0,0:0|3:0,0:0:0:0:
374,377,88911,6,0,P|389:362|400:344,3,42.7999986938477,0|0|0|2,1:0|0:0|0:0|0:0,0:0:0:0:
456,292,89217,1,2,3:2:0:0:
444,280,89293,1,0,0:0:0:0:
428,272,89370,1,0,0:0:0:0:
412,268,89446,1,0,0:0:0:0:
396,268,89523,2,0,P|348:264|296:248,1,85.5999973876954,2|0,1:2|0:0,0:0:0:0:
256,56,89829,5,2,0:0:0:0:
252,72,89906,1,0,0:0:0:0:
252,88,89982,1,0,3:0:0:0:
256,104,90059,1,2,0:0:0:0:
260,120,90135,2,0,P|260:152|252:176,2,42.7999986938477,0|0|2,1:0|0:0|0:0,0:0:0:0:
156,240,90441,5,0,3:0:0:0:
256,168,90594,1,2,0:0:0:0:
356,240,90747,1,0,1:0:0:0:
320,360,90900,1,2,0:0:0:0:
192,360,91054,1,0,0:0:0:0:
256,272,91207,6,0,L|256:236,3,28.5333324625651,2|0|0|0,3:2|0:0|0:0|1:0,0:0:0:0:
256,88,91513,1,0,0:0:0:0:
192,360,91666,5,0,3:0:0:0:
264,168,91819,1,2,0:0:0:0:
316,368,91972,1,0,1:0:0:0:
152,228,92125,1,2,1:2:0:0:
356,260,92278,1,2,0:2:0:0:
172,360,92431,1,0,3:0:0:0:
272,160,92584,1,0,1:0:0:0:
296,384,92737,1,2,0:2:0:0:
144,204,92890,5,4,3:1:0:0:
95,188,92967,1,2,0:0:0:0:
95,136,93043,1,2,0:0:0:0:
144,120,93120,1,0,0:0:0:0:
174,162,93196,2,0,P|196:168|220:168,1,42.7999986938477,0|0,1:0|0:0,0:0:0:0:
170,162,93349,5,0,0:0:0:0:
142,199,93426,1,2,0:0:0:0:
98,185,93502,1,2,0:0:0:0:
98,138,93579,1,0,0:0:0:0:
142,124,93656,2,0,P|153:107|160:87,1,42.7999986938477,0|0,1:0|0:0,0:0:0:0:
141,128,93809,5,0,0:0:0:0:
165,161,93885,1,2,0:0:0:0:
141,195,93962,1,2,0:0:0:0:
101,183,94038,1,0,0:0:0:0:
101,141,94115,2,0,P|90:126|68:112,1,42.7999986938477,0|0,1:0|0:0,0:0:0:0:
104,143,94268,5,0,3:2:0:0:
140,131,94344,1,2,0:0:0:0:
162,162,94421,1,2,0:0:0:0:
140,192,94497,1,0,0:0:0:0:
104,180,94574,2,0,P|89:186|68:204,1,42.7999986938477,0|0,1:0|0:0,0:0:0:0:
107,178,94727,5,0,3:1:0:0:
107,145,94804,1,2,0:0:0:0:
139,134,94880,1,2,0:0:0:0:
159,161,94957,1,0,0:0:0:0:
139,189,95033,2,0,P|139:203|152:232,1,42.7999986938477,0|0,1:0|0:0,0:0:0:0:
176,320,95186,6,0,P|132:276|28:296,1,171.199994775391,4|0,3:2|0:0,0:0:0:0:
12,372,95645,2,0,P|20:320|8:264,1,85.5999973876954,0|0,1:0|0:0,0:0:0:0:
232,256,95951,1,0,0:0:0:0:
92,356,96105,1,0,3:0:0:0:
8,204,96258,2,0,P|4:160|12:112,1,85.5999973876954,0|0,1:0|0:0,0:0:0:0:
116,72,96564,5,0,3:0:0:0:
236,100,96717,1,0,0:0:0:0:
348,36,96870,1,0,1:0:0:0:
228,8,97023,1,0,0:0:0:0:
220,100,97176,6,0,P|224:156|236:200,1,85.5999973876954,0|0,0:0|3:0,0:0:0:0:
448,100,97482,2,0,P|452:72|452:52,1,42.7999986938477,0|2,1:0|0:0,0:0:0:0:
292,116,97635,2,0,P|292:137|296:158,1,42.7999986938477,2|0,0:0|0:0,0:0:0:0:
404,205,97788,5,4,3:1:0:0:
404,238,97865,1,2,0:0:0:0:
372,249,97941,1,2,0:0:0:0:
352,222,98018,1,0,0:0:0:0:
372,194,98094,2,0,P|372:180|360:152,1,42.7999986938477,0|0,1:0|0:0,0:0:0:0:
407,240,98247,5,4,3:2:0:0:
371,252,98324,1,2,0:0:0:0:
349,221,98400,1,2,0:0:0:0:
371,191,98477,1,0,0:0:0:0:
407,203,98554,2,0,P|422:197|444:180,1,42.7999986938477,0|0,1:0|0:0,0:0:0:0:
370,255,98707,5,4,3:1:0:0:
346,222,98783,1,2,0:0:0:0:
370,188,98860,1,2,0:0:0:0:
410,200,98936,1,0,0:0:0:0:
410,242,99013,2,0,P|421:257|444:272,1,42.7999986938477,0|0,1:0|0:0,0:0:0:0:
341,221,99166,5,4,3:2:0:0:
369,184,99242,1,2,0:0:0:0:
413,198,99319,1,2,0:0:0:0:
413,245,99395,1,0,0:0:0:0:
369,259,99472,2,0,P|358:276|351:296,1,42.7999986938477,0|0,1:0|0:0,0:0:0:0:
368,180,99625,5,4,3:1:0:0:
417,196,99701,1,2,0:0:0:0:
417,248,99778,1,2,0:0:0:0:
368,264,99855,1,0,0:0:0:0:
338,222,99931,2,0,P|316:216|292:216,1,42.7999986938477,0|0,1:0|0:0,0:0:0:0:
244,276,100084,6,0,P|216:216|116:200,1,171.199994775391,4|0,3:2|0:0,0:0:0:0:
148,360,100543,2,0,P|156:296|152:272,1,85.5999973876954,0|0,1:0|0:0,0:0:0:0:
72,376,100849,1,0,0:0:0:0:
60,148,101002,1,0,3:0:0:0:
24,224,101156,2,0,P|16:288|20:312,1,85.5999973876954,0|0,1:0|0:0,0:0:0:0:
172,132,101462,5,0,3:0:0:0:
131,115,101538,1,0,0:0:0:0:
167,139,101615,1,0,0:0:0:0:
136,108,101691,1,0,0:0:0:0:
160,143,101768,1,0,1:0:0:0:
143,103,101844,1,0,0:0:0:0:
151,145,101921,1,0,0:0:0:0:
151,101,101997,1,0,0:0:0:0:
143,143,102074,1,0,0:0:0:0:
160,103,102150,1,0,0:0:0:0:
136,139,102227,1,0,3:0:0:0:
167,108,102304,1,0,0:0:0:0:
131,132,102380,1,0,1:0:0:0:
172,115,102457,1,0,0:0:0:0:
129,123,102533,1,0,0:0:0:0:
173,123,102610,1,0,0:0:0:0:
152,124,102686,5,4,3:1:0:0:
172,152,102763,1,2,0:0:0:0:
176,184,102839,1,2,0:0:0:0:
168,216,102916,1,0,0:0:0:0:
148,244,102992,2,0,P|132:256|104:264,1,42.7999986938477,0|0,1:0|0:0,0:0:0:0:
172,220,103145,5,0,3:0:0:0:
204,209,103222,1,2,0:0:0:0:
236,215,103298,1,2,0:0:0:0:
264,233,103375,1,0,0:0:0:0:
284,260,103451,2,0,P|290:278|289:308,1,42.7999986938477,0|0,1:0|0:0,0:0:0:0:
272,236,103605,5,4,3:1:0:0:
272,201,103681,1,2,0:0:0:0:
287,173,103758,1,2,0:0:0:0:
313,152,103834,1,0,0:0:0:0:
345,141,103911,2,0,P|364:140|392:150,1,42.7999986938477,0|0,1:0|0:0,0:0:0:0:
308,148,104064,5,0,3:0:0:0:
276,139,104140,1,2,0:0:0:0:
253,115,104217,1,2,0:0:0:0:
241,84,104293,1,0,0:0:0:0:
241,50,104370,2,0,P|246:30|264:7,1,42.7999986938477,0|0,1:0|0:0,0:0:0:0:
236,80,104523,5,4,3:1:0:0:
217,107,104599,1,2,0:0:0:0:
187,122,104676,1,2,0:0:0:0:
154,123,104752,1,0,0:0:0:0:
122,113,104829,2,0,P|105:101|89:77,1,42.7999986938477,0|0,1:0|0:0,0:0:0:0:
8,68,104982,6,0,P|72:84|148:8,1,171.199994775391,4|0,3:2|0:0,0:0:0:0:
12,164,105441,2,0,P|8:120|16:68,1,85.5999973876954,0|0,1:0|0:0,0:0:0:0:
192,220,105747,1,0,0:0:0:0:
56,232,105900,1,0,3:0:0:0:
128,352,106054,2,0,P|132:308|124:256,1,85.5999973876954,0|0,1:0|0:0,0:0:0:0:
248,160,106360,5,0,3:0:0:0:
312,104,106513,1,0,0:0:0:0:
324,20,106666,1,0,1:0:0:0:
388,76,106819,1,0,0:0:0:0:
472,92,106972,2,0,L|376:96,1,85.5999973876954,0|0,0:0|3:0,0:0:0:0:
256,164,107278,2,0,L|308:172,1,42.7999986938477,0|2,1:0|0:0,0:0:0:0:
384,184,107431,2,0,L|436:192,1,42.7999986938477,2|0,0:0|0:0,0:0:0:0:
228,300,107584,5,4,3:1:0:0:
247,273,107661,1,2,0:0:0:0:
277,258,107737,1,2,0:0:0:0:
310,257,107814,1,0,0:0:0:0:
342,267,107890,2,0,P|358:278|374:302,1,42.7999986938477,0|0,1:0|0:0,0:0:0:0:
156,232,108043,5,4,3:2:0:0:
188,241,108120,1,2,0:0:0:0:
211,265,108196,1,2,0:0:0:0:
223,296,108273,1,0,0:0:0:0:
223,330,108349,2,0,P|217:349|199:372,1,42.7999986938477,0|0,1:0|0:0,0:0:0:0:
192,144,108502,5,4,3:1:0:0:
192,179,108579,1,2,0:0:0:0:
177,207,108656,1,2,0:0:0:0:
151,228,108732,1,0,0:0:0:0:
119,239,108809,2,0,P|99:239|71:229,1,42.7999986938477,0|0,1:0|0:0,0:0:0:0:
292,160,108962,5,4,3:2:0:0:
260,171,109038,1,2,0:0:0:0:
228,165,109115,1,2,0:0:0:0:
200,147,109191,1,0,0:0:0:0:
180,120,109268,2,0,P|173:101|174:71,1,42.7999986938477,0|0,1:0|0:0,0:0:0:0:
312,256,109421,5,4,3:1:0:0:
292,228,109497,1,2,0:0:0:0:
288,196,109574,1,2,0:0:0:0:
296,164,109650,1,0,0:0:0:0:
316,136,109727,2,0,P|332:124|360:116,1,42.7999986938477,0|0,1:0|0:0,0:0:0:0:
472,80,109880,6,0,P|408:96|332:20,1,171.199994775391,4|0,3:2|0:0,0:0:0:0:
468,176,110339,2,0,P|472:132|464:80,1,85.5999973876954,0|0,1:0|0:0,0:0:0:0:
356,232,110645,1,0,0:0:0:0:
504,256,110798,1,0,3:0:0:0:
388,320,110951,2,0,P|340:324|292:304,1,85.5999973876954,0|0,1:0|0:0,0:0:0:0:
208,292,111258,5,0,3:0:0:0:
167,309,111334,1,0,0:0:0:0:
203,285,111411,1,0,0:0:0:0:
172,316,111487,1,0,0:0:0:0:
196,281,111564,1,0,1:0:0:0:
179,321,111640,1,0,0:0:0:0:
187,279,111717,1,0,0:0:0:0:
187,323,111793,1,0,0:0:0:0:
179,281,111870,1,0,0:0:0:0:
196,321,111946,1,0,0:0:0:0:
172,285,112023,1,0,3:0:0:0:
203,316,112099,1,0,0:0:0:0:
167,292,112176,1,0,1:0:0:0:
208,309,112252,1,0,0:0:0:0:
165,301,112329,1,0,0:0:0:0:
209,301,112406,1,0,0:0:0:0:
188,300,112482,5,4,0:2:0:0:
256,192,112559,12,4,114931,0:1:0:0:
256,192,117380,5,4,0:1:0:0:
256,192,119817,5,4,0:1:0:0:
