osu file format v14

[General]
AudioFilename: audio.mp3
AudioLeadIn: 0
PreviewTime: 72992
Countdown: 0
SampleSet: Soft
StackLeniency: 0.7
Mode: 0
LetterboxInBreaks: 0
WidescreenStoryboard: 1

[Editor]
Bookmarks: 25529,30427,35325,50937,53846
DistanceSpacing: 1
BeatDivisor: 8
GridSize: 4
TimelineZoom: 1.7

[Metadata]
Title:Chrono Diver -PENDULUMs-
TitleUnicode:Chrono Diver -PENDULUMs-
Artist:Nekomata L.E.D.Master+
ArtistUnicode:猫叉L.E.D.Master+
Creator:yf_bmp
Version:Pendual
Source:beatmania IIDX 22 PENDUAL
Tags:instrumental electronic video game Nakano Itsuki Toshiyuki Kakuta Naoyuki Sato 4th KONAMI Arcade Championship CHRONO BREAKS Ryuusei Aika sahuang z1085684963 fanzhen0019 Gust sodarose StarrStyx -Visceral- SuperBox Muya
BeatmapID:2296588
BeatmapSetID:714552

[Difficulty]
HPDrainRate:6
CircleSize:4.2
OverallDifficulty:8.8
ApproachRate:9.7
SliderMultiplier:1.8
SliderTickRate:1

[Events]
//Background and Video events
Video,-212,"BGA.flv"
0,0,"BG.png",0,0
//Break Periods
//Storyboard Layer 0 (Background)
//Storyboard Layer 1 (Fail)
//Storyboard Layer 2 (Pass)
//Storyboard Layer 3 (Foreground)
//Storyboard Layer 4 (Overlay)
//Storyboard Sound Samples

[TimingPoints]
1054,306.122448979592,4,2,10,80,1,0
1054,-100,4,2,10,80,0,0
1360,-133.333333333333,4,2,10,80,0,0
1666,-100,4,2,10,80,0,0
1972,-133.333333333333,4,2,10,80,0,0
2278,-100,4,2,10,80,0,0
2584,-133.333333333333,4,2,10,80,0,0
2890,-100,4,2,10,80,0,0
3196,-76.9230769230769,4,2,10,80,0,0
3502,-100,4,2,10,80,0,0
3809,-133.333333333333,4,2,10,80,0,0
4115,-100,4,2,10,80,0,0
4421,-113.636363636364,4,2,10,80,0,0
4727,-100,4,2,10,80,0,0
5033,-76.9230769230769,4,2,10,80,0,0
5951,-100,4,2,10,80,0,0
6028,-100,4,2,10,80,0,0
6258,-133.333333333333,4,2,10,80,0,0
6564,-100,4,2,10,80,0,0
6870,-133.333333333333,4,2,10,80,0,0
7176,-100,4,2,10,80,0,0
7482,-133.333333333333,4,2,10,80,0,0
7788,-100,4,2,10,80,0,0
8094,-76.9230769230769,4,2,10,80,0,0
8400,-100,4,2,10,80,0,0
8477,-100,4,2,10,80,0,0
8707,-133.333333333333,4,2,10,80,0,0
9013,-100,4,2,10,80,0,0
9319,-113.636363636364,4,2,10,80,0,0
9625,-100,4,2,10,80,0,0
10849,-100,4,2,10,95,0,0
10926,-100,4,2,1,95,0,0
13298,-100,4,2,10,95,0,0
13375,-100,4,2,1,95,0,0
15747,-100,4,2,10,95,0,0
15824,-100,4,2,1,95,0,0
18196,-100,4,2,10,95,0,0
18273,-100,4,2,1,95,0,0
18502,-83.3333333333333,4,2,1,95,0,0
18809,-76.9230769230769,4,2,1,95,0,0
18962,-83.3333333333333,4,2,1,95,0,0
19115,-90.9090909090909,4,2,1,95,0,0
19268,-100,4,2,1,95,0,0
19421,-50,4,2,1,95,0,0
20033,-65.359477124183,4,2,1,95,0,0
20645,-100,4,2,1,95,0,0
23094,-133.333333333333,4,2,1,95,0,0
24319,-133.333333333333,4,2,1,95,0,0
24625,-100,4,2,1,95,0,0
24931,-76.9230769230769,4,2,1,95,0,0
25543,-83.3333333333333,4,2,1,95,0,0
25696,-100,4,2,1,95,0,0
26615,-133.333333333333,4,2,1,95,0,0
26921,-76.9230769230769,4,2,1,95,0,0
27533,-100,4,2,1,95,0,0
27686,-133.333333333333,4,2,1,95,0,0
27839,-200,4,2,1,95,0,0
27992,-100,4,2,1,95,0,0
29217,-133.333333333333,4,2,1,95,0,0
29523,-83.3333333333333,4,2,1,95,0,0
29829,-58.8235294117647,4,2,1,95,0,0
29982,-66.6666666666667,4,2,1,95,0,0
30135,-66.6666666666667,4,2,1,95,0,0
30212,-66.6666666666667,4,2,0,95,0,0
30441,-100,4,2,1,95,0,0
31054,-133.333333333333,4,2,1,95,0,0
31666,-200,4,2,1,95,0,0
32278,-100,4,2,1,95,0,0
32890,-133.333333333333,4,2,1,95,0,0
34268,-100,4,2,1,95,0,0
34727,-76.9230769230769,4,2,1,95,0,0
34880,-100,4,2,1,95,0,0
35033,-133.333333333333,4,2,1,95,0,0
35186,-200,4,2,1,95,0,0
35339,-100,4,2,1,95,0,0
35951,-80,4,2,1,95,0,0
36564,-66.6666666666667,4,2,1,95,0,0
37176,-76.9230769230769,4,2,1,95,0,0
37329,-100,4,2,1,95,0,0
37482,-133.333333333333,4,2,1,95,0,0
37635,-200,4,2,1,95,0,0
37788,-133.333333333333,4,2,1,95,0,0
39166,-100,4,2,1,95,0,0
39625,-83.3333333333333,4,2,1,95,0,0
39931,-100,4,2,1,95,0,0
40237,-100,4,2,1,95,0,0
40543,-80,4,2,1,95,0,0
40849,-66.6666666666667,4,2,1,95,0,0
41156,-55.5555555555556,4,2,1,95,0,0
41462,-100,4,2,1,95,0,0
41768,-80,4,2,1,95,0,0
42074,-66.6666666666667,4,2,1,95,0,0
42686,-100,4,2,1,95,0,0
44982,-133.333333333333,4,2,1,95,0,0
45135,-100,4,2,1,95,0,0
45441,-80,4,2,1,95,0,0
45747,-66.6666666666667,4,2,1,95,0,0
46054,-55.5555555555556,4,2,1,95,0,0
46360,-100,4,2,1,95,0,0
46666,-80,4,2,1,95,0,0
46972,-66.6666666666667,4,2,1,95,0,0
47584,-100,4,2,1,95,0,0
49727,-133.333333333333,4,2,1,95,0,0
49880,-200,4,2,1,95,0,0
50033,-66.6666666666667,4,2,1,95,0,1
50492,-76.9230769230769,4,2,1,95,0,1
50951,-90.9090909090909,4,2,1,95,0,1
51411,-133.333333333333,4,2,1,95,0,1
51870,-83.3333333333333,4,2,1,95,0,1
52176,-76.9230769230769,4,2,1,95,0,1
52482,-66.6666666666667,4,2,1,95,0,1
52941,-76.9230769230769,4,2,1,95,0,1
53400,-90.9090909090909,4,2,1,95,0,1
53860,-133.333333333333,4,2,1,95,0,1
54319,-83.3333333333333,4,2,1,95,0,1
54625,-76.9230769230769,4,2,1,95,0,1
54931,-66.6666666666667,4,2,1,95,0,1
55390,-76.9230769230769,4,2,1,95,0,1
55849,-90.9090909090909,4,2,1,95,0,1
56309,-133.333333333333,4,2,1,95,0,1
56768,-83.3333333333333,4,2,1,95,0,1
57074,-76.9230769230769,4,2,1,95,0,1
57380,-66.6666666666667,4,2,1,95,0,1
57890,-100,4,2,1,95,0,1
58605,-117.647058823529,4,2,1,95,0,0
62278,-100,4,2,1,95,0,0
63502,-90.9090909090909,4,2,1,95,0,0
65951,-83.3333333333333,4,2,1,95,0,0
68400,-200,4,2,1,95,0,0
69013,-200,4,2,10,95,0,0
72150,-200,4,2,11,65,0,0
72457,-200,4,2,11,75,0,0
72686,-200,4,2,11,85,0,0
72839,-200,4,2,10,95,0,0
72992,-100,4,2,1,95,0,0
73298,-93.4579439252336,4,2,1,95,0,0
74523,-62.5,4,2,1,95,0,0
74829,-93.4579439252336,4,2,1,95,0,0
79421,-76.9230769230769,4,2,1,95,0,0
79727,-93.4579439252336,4,2,1,95,0,0
82788,-100,4,2,1,95,0,0
82890,-80,4,2,1,95,0,0
82992,-66.6666666666667,4,2,1,95,0,0
83094,-93.4579439252336,4,2,1,95,0,0
84931,-133.333333333333,4,2,1,95,0,0
85084,-93.4579439252336,4,2,1,95,0,0
85237,-133.333333333333,4,2,1,95,0,0
85390,-93.4579439252336,4,2,1,95,0,0
85543,-76.9230769230769,4,2,1,95,0,0
86002,-93.4579439252336,4,2,1,95,0,0
86768,-76.9230769230769,4,2,1,95,0,0
87074,-93.4579439252336,4,2,1,95,0,0
87380,-133.333333333333,4,2,1,95,0,0
87992,-93.4579439252336,4,2,1,95,0,0
89217,-71.4285714285714,4,2,1,95,0,0
89523,-93.4579439252336,4,2,1,95,0,0
92890,-100,4,2,1,95,0,1
93349,-111.111111111111,4,2,1,95,0,1
94268,-125,4,2,1,95,0,1
94727,-100,4,2,1,95,0,1
95186,-100,4,2,1,95,0,0
97788,-100,4,2,1,95,0,1
98247,-90.9090909090909,4,2,1,95,0,1
98707,-76.9230769230769,4,2,1,95,0,1
99166,-90.9090909090909,4,2,1,95,0,1
99625,-100,4,2,1,95,0,1
100084,-100,4,2,1,95,0,0
101462,-100,4,2,1,95,0,0
101768,-111.111111111111,4,2,1,95,0,0
102074,-125,4,2,1,95,0,0
102380,-142.857142857143,4,2,1,95,0,0
102686,-100,4,2,1,95,0,1
103145,-111.111111111111,4,2,1,95,0,1
104064,-125,4,2,1,95,0,1
104523,-100,4,2,1,95,0,1
104982,-100,4,2,1,95,0,0
107584,-100,4,2,1,95,0,1
108043,-90.9090909090909,4,2,1,95,0,1
108502,-76.9230769230769,4,2,1,95,0,1
108962,-90.9090909090909,4,2,1,95,0,1
109421,-100,4,2,1,95,0,1
109880,-100,4,2,1,95,0,0
111564,-111.111111111111,4,2,1,95,0,0
111870,-125,4,2,1,95,0,0
112482,-200,4,2,1,95,0,0
114778,-200,4,2,0,5,0,0
114931,-100,4,2,10,70,0,0
115237,-100,4,2,10,20,0,0
117380,-93.4579439252336,4,2,10,55,0,0
118298,-93.4579439252336,4,2,10,15,0,0
119217,300,4,2,10,70,1,0
119817,-93.4579439252336,4,2,10,40,0,0
120192,480,4,2,10,20,1,0

[Colours]
Combo1 : 255,0,255
Combo2 : 0,128,255
Combo3 : 255,128,255
Combo4 : 128,255,255

[HitObjects]
80,184,1054,6,0,L|0:230,1,90,6|0,0:0|0:0,0:0:0:0:
139,150,1283,1,0,0:0:0:0:
139,150,1360,2,0,L|59:196,1,67.5000025749208,2|0,0:0|0:0,0:0:0:0:
150,268,1666,6,0,L|103:347,1,90,2|0,0:0|0:0,0:0:0:0:
185,210,1895,1,0,0:0:0:0:
185,210,1972,2,0,L|138:289,1,67.5000025749208,2|0,0:0|0:0,0:0:0:0:
256,292,2278,6,0,L|256:384,1,90,2|0,0:0|0:0,0:0:0:0:
256,224,2508,1,0,0:0:0:0:
256,224,2584,2,0,L|256:304,1,67.5000025749208,2|0,0:0|0:0,0:0:0:0:
256,134,2890,6,0,L|256:226,1,90,2|0,0:0|0:0,0:0:0:0:
256,17,3196,6,0,L|256:153,1,116.999994644165,2|0,0:0|0:0,0:0:0:0:
362,268,3502,6,0,L|409:347,1,90,6|0,0:0|0:0,0:0:0:0:
327,210,3809,2,0,L|374:289,1,67.5000025749208,2|0,0:0|0:0,0:0:0:0:
432,184,4038,1,0,0:0:0:0:
432,184,4115,6,0,L|512:230,1,90,2|0,0:0|0:0,0:0:0:0:
373,150,4421,2,0,L|463:202,1,79.2000024169922,2|0,0:0|0:0,0:0:0:0:
373,150,4650,1,0,0:0:0:0:
373,150,4727,6,0,L|419:229,1,90,2|0,0:0|0:0,0:0:0:0:
315,49,5034,2,0,L|380:162,1,116.999994644165,2|0,0:0|0:0,0:0:0:0:
228,164,5339,5,2,0:0:0:0:
256,153,5416,1,0,0:0:0:0:
283,164,5492,1,0,0:0:0:0:
294,192,5569,1,0,0:0:0:0:
283,219,5645,1,2,0:0:0:0:
256,230,5722,1,0,0:0:0:0:
228,219,5798,1,0,0:0:0:0:
217,192,5875,1,0,0:0:0:0:
139,150,5951,6,0,L|93:229,1,90,6|0,0:0|0:0,0:0:0:0:
173,92,6258,2,0,L|129:167,1,67.5000025749208,2|0,0:0|0:0,0:0:0:0:
80,40,6487,1,0,0:0:0:0:
80,40,6564,6,0,L|0:86,1,90,2|0,0:0|0:0,0:0:0:0:
138,6,6870,2,0,L|58:52,1,67.5000025749208,2|0,0:0|0:0,0:0:0:0:
139,150,7176,6,0,L|93:229,1,90,2|0,0:0|0:0,0:0:0:0:
173,92,7406,1,0,0:0:0:0:
173,92,7483,2,0,L|129:167,1,67.5000025749208,2|0,0:0|0:0,0:0:0:0:
252,184,7788,6,0,L|252:276,1,90,2|0,0:0|0:0,0:0:0:0:
252,67,8094,6,0,L|252:200,1,116.999994644165,2|0,0:0|0:0,0:0:0:0:
373,150,8400,6,0,L|419:229,1,90,6|0,0:0|0:0,0:0:0:0:
339,92,8630,1,0,0:0:0:0:
339,92,8707,2,0,L|383:167,1,67.5000025749208,2|0,0:0|0:0,0:0:0:0:
432,40,8936,1,0,0:0:0:0:
432,40,9013,6,0,L|512:86,1,90,2|0,0:0|0:0,0:0:0:0:
374,6,9319,2,0,L|454:52,1,79.2000024169922,2|0,0:0|0:0,0:0:0:0:
373,150,9625,6,0,L|419:229,1,90,2|0,0:0|0:0,0:0:0:0:
339,91,9932,2,0,L|390:179,1,90,2|0,0:0|0:0,0:0:0:0:
284,164,10237,5,2,0:0:0:0:
256,153,10314,1,0,0:0:0:0:
229,164,10390,1,0,0:0:0:0:
218,192,10467,1,0,0:0:0:0:
229,219,10543,1,2,0:0:0:0:
256,230,10620,1,0,0:0:0:0:
284,219,10696,1,0,0:0:0:0:
295,192,10773,1,0,0:0:0:0:
256,92,10849,6,0,L|256:0,1,90,4|0,3:2|2:0,0:0:0:0:
144,192,11156,1,0,0:0:0:0:
68,144,11309,2,0,P|41:76|70:6,1,135,2|0,0:0|0:0,0:0:0:0:
80,0,11615,1,2,0:0:0:0:
160,120,11768,1,0,0:0:0:0:
48,208,11921,1,0,0:0:0:0:
0,72,12074,6,0,L|104:80,1,90,0|0,3:0|2:0,0:0:0:0:
216,172,12380,1,0,0:0:0:0:
180,324,12533,2,0,P|112:351|42:322,1,135,2|0,0:0|0:0,0:0:0:0:
36,312,12839,1,2,0:0:0:0:
132,204,12992,1,0,0:0:0:0:
256,276,13145,1,0,0:0:0:0:
256,92,13298,6,0,L|256:48,1,45,4|0,3:2|0:0,0:0:0:0:
256,2,13451,1,0,0:0:0:0:
172,76,13605,5,0,0:0:0:0:
340,76,13758,1,2,0:0:0:0:
420,240,13911,5,8,0:0:0:0:
332,228,14064,1,2,0:0:0:0:
256,276,14217,1,0,0:0:0:0:
180,228,14370,1,2,0:0:0:0:
92,240,14523,6,0,P|72:272|76:328,1,90,0|0,3:0|0:0,0:0:0:0:
256,182,14829,2,0,L|256:82,1,90,2|0,3:2|0:0,0:0:0:0:
256,276,15135,1,8,0:0:0:0:
420,240,15288,2,0,P|440:272|436:328,1,90,2|0,0:0|3:0,0:0:0:0:
256,116,15594,1,0,0:0:0:0:
256,104,15671,1,0,0:0:0:0:
256,91,15747,6,0,P|235:100|213:96,1,45,0|0,3:0|0:0,0:0:0:0:
156,269,15900,2,0,P|161:246|184:209,1,45,0|0,3:0|0:0,0:0:0:0:
309,193,16054,2,0,P|284:184|248:188,1,45,2|0,0:0|0:0,0:0:0:0:
344,352,16207,2,0,P|351:308|334:266,1,90,2|0,0:0|0:0,0:0:0:0:
261,285,16436,1,0,0:0:0:0:
261,285,16513,6,0,P|235:307|210:310,1,45,2|0,0:0|0:0,0:0:0:0:
156,344,16666,2,0,P|122:335|105:317,1,45
48,296,16819,2,0,P|36:264|39:239,1,45,2|0,0:0|0:0,0:0:0:0:
267,170,16972,6,0,P|265:148|256:128,1,45,4|0,3:1|0:0,0:0:0:0:
200,72,17125,2,0,P|181:61|159:58,1,45
89,92,17278,2,0,P|69:100|54:117,1,45,2|0,0:0|0:0,0:0:0:0:
144,220,17431,6,0,P|146:197|155:177,1,45,2|0,0:0|0:0,0:0:0:0:
355,177,17584,1,0,3:0:0:0:
355,177,17661,1,0,3:0:0:0:
355,177,17737,2,0,P|364:197|367:219,1,45,2|0,0:0|0:0,0:0:0:0:
188,292,17890,2,0,P|169:303|147:307,1,45
365,307,18043,2,0,P|343:303|324:292,1,45,2|0,0:0|0:0,0:0:0:0:
255,127,18196,6,0,L|255:83,7,45,12|0|0|0|0|0|0|0,3:2|0:0|0:0|0:0|0:0|0:0|0:0|0:0,0:0:0:0:
126,162,18809,6,0,P|153:156|183:157,1,58.4999973220826,2|0,0:2|0:0,0:0:0:0:
244,204,18962,2,0,P|270:209|297:207,1,53.9999983520508,2|0,0:2|0:0,0:0:0:0:
424,223,19115,6,0,P|400:227|375:226,1,49.5000015106202,2|0,0:2|0:0,0:0:0:0:
329,290,19268,2,0,P|306:285|283:286,1,45,2|0,0:2|0:0,0:0:0:0:
100,246,19421,6,0,B|132:247|162:241|162:241|221:244|234:317|208:363|115:363|112:293,1,270,4|0,0:1|2:0,0:0:0:0:
226,237,19727,2,0,B|193:235|162:241|162:241|104:238|91:165|117:119|210:119|213:189,1,270,4|0,0:1|2:0,0:0:0:0:
387,167,20033,5,2,0:0:0:0:
343,144,20109,1,2,0:0:0:0:
301,170,20186,1,0,3:0:0:0:
302,220,20262,1,0,0:0:0:0:
345,244,20339,1,2,1:2:0:0:
386,271,20415,1,2,0:0:0:0:
385,321,20492,1,2,0:0:0:0:
343,345,20568,1,0,0:0:0:0:
299,321,20645,5,4,3:1:0:0:
120,124,20951,2,0,L|16:136,1,90,0|0,1:1|0:0,0:0:0:0:
176,32,21258,5,2,0:0:0:0:
172,28,21334,1,0,0:0:0:0:
104,0,21411,5,2,3:2:0:0:
100,16,21487,1,2,0:3:0:0:
100,36,21564,1,2,1:3:0:0:
104,56,21640,1,2,0:3:0:0:
112,72,21717,2,0,P|112:96|104:132,1,45,0|2,0:0|0:3,0:0:0:0:
8,216,21870,5,0,3:0:0:0:
44,212,21946,1,2,0:3:0:0:
96,136,22023,5,2,0:2:0:0:
80,172,22099,1,2,0:3:0:0:
76,212,22176,1,0,1:0:0:0:
88,252,22252,5,2,0:3:0:0:
152,288,22329,1,2,0:3:0:0:
116,352,22406,1,2,0:3:0:0:
52,316,22482,6,0,P|47:294|47:271,3,45,2|0|2|0,0:3|0:0|3:2|0:0,0:0:0:0:
136,360,22788,1,0,1:0:0:0:
128,356,22865,1,2,0:3:0:0:
120,360,22941,1,2,0:0:0:0:
112,356,23018,1,2,0:3:0:0:
152,288,23094,6,0,L|185:285,1,33.7500012874604,0|0,3:0|0:0,0:0:0:0:
320,276,23247,2,0,L|323:309,1,33.7500012874604
460,268,23400,1,0,1:0:0:0:
185,284,23554,1,2,0:0:0:0:
324,328,23707,1,2,0:0:0:0:
307,101,23860,6,0,L|304:68,1,33.7500012874604,2|0,3:3|0:3,0:0:0:0:
320,276,24013,2,0,L|317:243,1,33.7500012874604,0|0,1:3|0:3,0:0:0:0:
311,171,24166,1,2,3:2:0:0:
368,332,24319,6,0,B|328:360|328:360|268:332,1,101.250003862381,0|0,3:2|0:0,0:0:0:0:
320,276,24625,6,0,L|315:231,1,45,0|0,1:3|0:3,0:0:0:0:
307,100,24778,2,0,L|302:55,1,45,2|2,2:0|0:3,0:0:0:0:
436,196,24931,6,0,P|436:168|420:140,1,58.4999973220826,2|2,0:3|0:3,0:0:0:0:
196,212,25084,2,0,P|192:184|204:154,1,58.4999973220826,2|2,0:3|0:3,0:0:0:0:
456,276,25237,5,0,1:0:0:0:
388,256,25314,1,2,0:2:0:0:
336,208,25390,1,2,0:0:0:0:
320,276,25467,1,2,0:0:0:0:
280,337,25543,6,0,P|234:363|182:353,1,107.999996704102,4|0,3:1|0:0,0:0:0:0:
148,328,25773,1,0,0:0:0:0:
143,287,25849,1,0,1:0:0:0:
166,253,25926,1,0,0:0:0:0:
180,360,26002,2,0,P|142:383|98:382,1,90,2|2,0:2|0:3,0:0:0:0:
32,352,26232,1,2,0:3:0:0:
12,304,26309,1,2,0:3:0:0:
24,252,26385,1,0,0:3:0:0:
83,208,26462,6,0,B|90:164,1,45,0|0,1:0|0:0,0:0:0:0:
100,96,26615,2,0,L|65:67,1,33.7500012874604
20,32,26768,1,0,3:0:0:0:
83,208,26921,6,0,B|100:96|100:96|146:57|146:57|263:76,1,292.499986610413,2|0,0:0|0:0,0:0:0:0:
264,4,27380,6,0,L|276:68,1,58.4999973220826,2|2,0:0|0:0,0:0:0:0:
248,380,27533,6,0,L|236:316,1,45,0|2,3:0|0:0,0:0:0:0:
296,140,27686,6,0,L|285:197,1,33.7500012874604,0|2,1:0|0:0,0:0:0:0:
216,244,27839,6,0,L|221:215,1,22.5,2|0,0:0|0:0,0:0:0:0:
468,144,27992,6,0,L|402:150,3,45,0|0|0|0,0:0|0:2|0:3|0:3,0:0:0:0:
348,312,28298,5,0,1:0:0:0:
256,20,28451,1,2,0:2:0:0:
84,152,28605,5,2,0:2:0:0:
428,152,28758,1,0,3:0:0:0:
164,312,28911,5,0,1:0:0:0:
256,160,29064,1,2,0:0:0:0:
344,316,29217,6,0,B|292:328|300:292|245:306,1,101.250003862381,0|0,3:0|0:0,0:0:0:0:
168,316,29523,6,0,P|148:288|156:236,1,53.9999983520508,0|0,1:0|0:0,0:0:0:0:
416,228,29676,2,0,P|419:262|386:303,1,53.9999983520508,0|0,1:0|0:0,0:0:0:0:
312,384,29829,6,0,L|293:305,1,76.5000014591217,2|0,3:2|0:0,0:0:0:0:
229,206,29982,2,0,P|232:183|248:150,2,45.0000017166138,0|2|2,3:0|0:0|0:0,0:0:0:0:
236,220,30135,5,0,1:0:0:0:
224,152,30212,1,0,3:0:0:0:
212,84,30288,1,0,3:0:0:0:
200,16,30365,1,0,3:0:0:0:
124,16,30441,5,4,3:1:0:0:
64,60,30594,1,0,0:0:0:0:
116,68,30747,1,2,1:2:0:0:
72,8,30900,1,0,0:2:0:0:
141,262,31054,6,0,L|108:308,1,33.7500012874604,2|0,0:2|0:0,0:0:0:0:
202,170,31207,2,0,L|235:124,1,33.7500012874604,0|0,3:2|0:0,0:0:0:0:
217,246,31360,2,0,L|263:279,1,33.7500012874604,2|0,1:2|0:0,0:0:0:0:
125,185,31513,1,0,0:0:0:0:
125,185,31589,1,0,0:0:0:0:
125,185,31666,6,0,L|163:189,1,22.5,2|2,3:3|0:3,0:0:0:0:
241,327,31819,2,0,L|203:323,1,22.5,2|2,0:3|0:3,0:0:0:0:
252,196,31972,2,0,L|248:234,1,22.5,0|2,1:2|0:3,0:0:0:0:
108,314,32125,2,0,L|112:276,1,22.5,0|2,0:2|0:3,0:0:0:0:
296,120,32278,6,0,L|365:170,1,45,2|2,0:2|0:3,0:0:0:0:
475,247,32431,2,0,L|438:220,1,45,0|2,3:2|0:3,0:0:0:0:
447,92,32584,6,0,L|420:128,1,45,2|2,1:2|0:3,0:0:0:0:
346,234,32737,2,0,L|320:271,1,45,0|2,0:0|0:3,0:0:0:0:
180,356,32890,5,2,3:2:0:0:
247,330,32967,1,2,0:0:0:0:
226,262,33043,1,0,0:0:0:0:
199,253,33120,1,0,0:0:0:0:
180,259,33196,2,0,P|167:269|162:290,1,33.7500012874604,0|0,1:0|0:0,0:0:0:0:
180,356,33349,5,2,0:2:0:0:
247,330,33426,1,2,0:0:0:0:
226,262,33502,1,0,0:0:0:0:
199,253,33579,1,0,0:0:0:0:
180,259,33655,2,0,P|166:249|155:231,1,33.7500012874604,0|0,3:0|0:0,0:0:0:0:
180,356,33809,5,0,1:2:0:0:
247,330,33886,1,2,0:0:0:0:
226,262,33962,1,0,0:0:0:0:
199,253,34039,1,0,0:0:0:0:
180,259,34115,2,0,P|167:269|162:290,1,33.7500012874604,0|0,3:0|0:0,0:0:0:0:
180,356,34268,5,2,0:2:0:0:
247,330,34345,1,2,0:0:0:0:
226,262,34421,1,2,1:2:0:0:
199,253,34497,1,2,0:0:0:0:
180,259,34574,2,0,P|181:236|190:216,1,45,2|0,0:2|0:0,0:0:0:0:
36,224,34727,6,0,L|100:236,1,58.4999973220826,2|2,0:0|0:0,0:0:0:0:
476,160,34880,2,0,L|412:148,1,45,2|2,3:2|0:0,0:0:0:0:
184,168,35033,6,0,L|223:160,1,33.7500012874604,0|2,1:0|0:0,0:0:0:0:
328,216,35186,6,0,L|288:223,1,22.5,0|2,0:0|0:0,0:0:0:0:
315,35,35339,6,0,B|309:13|309:13|290:1,1,45,4|0,3:1|0:0,0:0:0:0:
212,0,35492,1,0,0:0:0:0:
72,124,35645,6,0,B|90:136|90:136|113:137,1,45,2|0,1:2|0:0,0:0:0:0:
177,91,35798,1,0,0:0:0:0:
352,100,35951,6,0,L|361:160,1,56.25,2|2,0:2|0:3,0:0:0:0:
376,252,36105,1,0,3:0:0:0:
488,128,36258,6,0,L|430:136,1,56.25,2|2,1:2|0:3,0:0:0:0:
284,160,36412,1,0,3:0:0:0:
403,4,36564,6,0,B|400:37|400:37|415:67,1,67.5000025749208,2|0,3:2|0:0,0:0:0:0:
508,200,36717,1,0,0:0:0:0:
332,267,36870,6,0,B|362:282|362:282|376:251,1,67.5000025749208,2|0,1:2|0:0,0:0:0:0:
333,65,37023,1,2,0:3:0:0:
272,72,37100,1,2,0:3:0:0:
264,4,37176,6,0,L|276:68,1,58.4999973220826,2|2,0:0|0:0,0:0:0:0:
248,380,37329,6,0,L|236:316,1,45,0|2,3:0|0:0,0:0:0:0:
296,140,37482,6,0,L|285:197,1,33.7500012874604,0|2,1:0|0:0,0:0:0:0:
216,244,37635,6,0,L|221:215,1,22.5,2|0,0:0|0:0,0:0:0:0:
504,80,37788,5,2,3:2:0:0:
478,13,37865,1,2,0:0:0:0:
410,34,37941,1,0,0:0:0:0:
401,61,38018,1,0,0:0:0:0:
407,80,38094,2,0,P|417:93|438:98,1,33.7500012874604,0|0,1:0|0:0,0:0:0:0:
504,80,38247,5,2,0:2:0:0:
478,13,38324,1,2,0:0:0:0:
410,34,38400,1,0,0:0:0:0:
401,61,38477,1,0,0:0:0:0:
407,80,38553,2,0,P|397:94|379:105,1,33.7500012874604,0|0,3:0|0:0,0:0:0:0:
504,80,38707,5,0,1:2:0:0:
478,13,38784,1,2,0:0:0:0:
410,34,38860,1,0,0:0:0:0:
401,61,38937,1,0,0:0:0:0:
407,80,39013,2,0,P|417:93|438:98,1,33.7500012874604,0|0,3:0|0:0,0:0:0:0:
492,216,39166,1,2,0:0:0:0:
424,212,39242,1,2,0:0:0:0:
384,268,39319,6,0,P|384:248|392:220,1,30,0|2,1:1|0:0,0:0:0:0:
360,176,39421,2,0,P|362:190|361:205,1,30,2|2,2:0|1:2,0:0:0:0:
292,232,39548,1,0,0:0:0:0:
288,160,39625,6,0,P|308:160|328:156,1,35.9999989013672,0|2,0:1|0:0,0:0:0:0:
428,132,39727,2,0,P|411:139|394:143,1,35.9999989013672,0|2,0:1|0:0,0:0:0:0:
340,64,39854,1,0,0:0:0:0:
352,132,39931,6,0,P|352:108|348:88,1,45,0|0,1:0|0:0,0:0:0:0:
224,8,40084,2,0,P|224:32|220:52,1,45
96,120,40237,5,4,3:1:0:0:
100,16,40314,1,2,0:0:0:0:
120,40,40390,2,0,P|92:44|72:36,1,45
88,212,40543,5,2,1:2:0:0:
96,120,40620,1,2,0:0:0:0:
66,135,40696,2,0,P|96:131|118:140,1,56.25
184,264,40849,5,2,0:2:0:0:
284,264,40926,1,2,0:0:0:0:
320,236,41002,2,0,P|282:241|255:230,1,67.5000025749208
204,80,41156,6,0,P|202:40|224:6,3,80.9999975280763,2|0|0|0,1:2|0:0|0:0|0:0,0:0:0:0:
376,140,41462,5,2,3:2:0:0:
272,144,41539,1,2,0:0:0:0:
296,164,41615,2,0,P|300:136|292:116,1,45
468,132,41768,5,2,1:2:0:0:
376,140,41845,1,2,0:0:0:0:
391,110,41921,2,0,P|387:140|396:162,1,56.25
500,336,42074,5,2,0:2:0:0:
400,336,42151,1,2,0:0:0:0:
364,308,42227,2,0,P|402:313|429:302,1,67.5000025749208
340,240,42380,5,2,1:2:0:0:
476,248,42457,1,2,0:0:0:0:
512,220,42533,2,0,P|474:225|447:214,1,67.5000025749208
356,68,42686,5,2,3:2:0:0:
384,55,42763,1,2,0:0:0:0:
411,42,42839,1,2,0:0:0:0:
436,61,42916,1,0,0:0:0:0:
461,81,42992,1,0,1:0:0:0:
356,68,43145,5,0,0:2:0:0:
370,20,43222,1,2,0:0:0:0:
418,2,43298,1,2,0:0:0:0:
459,29,43375,1,0,0:0:0:0:
461,81,43451,1,0,3:0:0:0:
356,68,43605,5,2,1:2:0:0:
350,1,43681,1,2,0:0:0:0:
418,2,43758,1,0,0:0:0:0:
484,17,43834,1,0,0:0:0:0:
461,81,43911,5,0,3:0:0:0:
456,240,44064,1,2,0:2:0:0:
444,208,44140,6,0,B|398:197|405:228|357:216,1,90,2|0,0:0|0:0,0:0:0:0:
240,192,44370,2,0,P|261:203|296:200,1,45,2|0,0:0|0:0,0:0:0:0:
316,116,44523,5,0,0:0:0:0:
272,60,44599,1,2,0:0:0:0:
208,54,44676,1,2,3:2:0:0:
162,82,44752,1,2,0:2:0:0:
146,125,44829,1,0,1:0:0:0:
151,161,44906,1,2,0:0:0:0:
165,183,44982,2,0,P|159:202|145:221,1,33.7500012874604,2|0,0:0|0:0,0:0:0:0:
96,264,45135,5,4,3:1:0:0:
100,368,45212,1,2,0:0:0:0:
120,344,45288,2,0,P|92:340|72:348,1,45
88,172,45441,5,2,1:2:0:0:
96,264,45518,1,2,0:0:0:0:
66,249,45594,2,0,P|96:253|118:244,1,56.25
184,120,45747,5,2,0:2:0:0:
284,120,45824,1,2,0:0:0:0:
320,148,45900,2,0,P|282:143|255:154,1,67.5000025749208
204,304,46054,6,0,P|202:344|224:378,2,80.9999975280763,2|0|0,1:2|0:0|0:0,0:0:0:0:
372,248,46283,1,0,2:0:0:0:
376,244,46360,5,2,3:2:0:0:
272,240,46437,1,2,0:0:0:0:
296,220,46513,2,0,P|300:248|292:268,1,45
428,360,46666,5,2,1:2:0:0:
316,344,46743,1,2,0:0:0:0:
345,322,46819,2,0,P|349:352|340:374,1,56.25
372,248,46972,5,2,0:2:0:0:
468,244,47049,1,2,0:0:0:0:
504,216,47125,2,0,P|466:221|439:210,1,67.5000025749208
352,132,47278,5,2,1:2:0:0:
476,140,47355,1,2,0:0:0:0:
504,96,47431,2,0,P|472:107|439:101,1,67.5000025749208
288,16,47584,5,2,3:2:0:0:
260,29,47661,1,2,0:0:0:0:
232,42,47737,1,0,0:0:0:0:
208,23,47814,1,0,0:0:0:0:
183,4,47890,1,0,1:0:0:0:
288,16,48043,5,0,0:2:0:0:
274,64,48120,1,2,0:0:0:0:
226,82,48196,1,2,0:0:0:0:
185,55,48273,1,0,0:0:0:0:
183,4,48349,1,0,3:0:0:0:
288,16,48503,5,2,1:2:0:0:
288,84,48579,1,2,0:0:0:0:
223,106,48656,1,0,0:0:0:0:
166,70,48732,1,0,0:0:0:0:
183,4,48809,5,0,3:0:0:0:
360,112,48962,2,0,L|370:182,1,45,0|0,1:1|0:0,0:0:0:0:
420,292,49115,6,0,P|420:276|424:262,1,30,2|2,0:0|0:0,0:0:0:0:
436,192,49217,2,0,P|436:208|431:221,1,30,2|0,0:0|1:0,0:0:0:0:
352,228,49344,1,2,0:0:0:0:
272,176,49421,6,0,L|276:205,1,30,2|2,0:0|0:0,0:0:0:0:
288,276,49523,2,0,L|292:305,1,30,2|0,0:0|3:0,0:0:0:0:
236,372,49650,1,0,0:0:0:0:
224,356,49727,6,0,P|204:344|192:344,1,33.7500012874604,0|0,1:0|0:0,0:0:0:0:
84,344,49880,2,0,P|76:336|72:320,1,22.5
97,216,50033,6,0,P|124:233|180:228,1,67.5000025749208,4|0,3:1|0:0,0:0:0:0:
272,280,50186,2,0,P|299:262|355:268,1,67.5000025749208,0|0,0:1|0:0,0:0:0:0:
448,212,50339,1,0,3:0:0:0:
112,264,50492,6,0,P|146:249|176:255,1,58.4999973220826,4|0,1:2|0:0,0:0:0:0:
268,240,50645,2,0,P|302:254|332:249,1,58.4999973220826,0|0,0:2|0:0,0:0:0:0:
388,172,50798,1,0,3:0:0:0:
128,196,50951,6,0,P|151:215|188:217,1,49.5000015106202,4|0,3:1|0:0,0:0:0:0:
252,228,51105,2,0,P|275:208|312:206,1,49.5000015106202,0|0,0:1|0:0,0:0:0:0:
324,132,51257,1,0,3:0:0:0:
120,96,51411,6,0,L|64:92,1,33.7500012874604,4|0,1:2|0:0,0:0:0:0:
392,96,51564,2,0,L|448:92,1,33.7500012874604,2|0,0:2|0:0,0:0:0:0:
256,36,51717,2,0,L|256:0,1,33.7500012874604,2|0,0:2|0:0,0:0:0:0:
228,176,51870,6,0,P|247:194|281:201,1,53.9999983520508,0|0,3:1|0:0,0:0:0:0:
192,284,52023,2,0,P|218:290|251:279,1,53.9999983520508,0|0,3:1|0:0,0:0:0:0:
292,360,52176,2,0,P|349:334|368:284,1,116.999994644165,0|0,1:1|3:0,0:0:0:0:
428,217,52406,1,0,3:0:0:0:
428,217,52482,6,0,L|364:194,1,67.5000025749208,4|0,3:1|0:0,0:0:0:0:
260,143,52635,2,0,L|196:166,1,67.5000025749208,0|0,2:1|0:0,0:0:0:0:
84,211,52788,1,0,3:0:0:0:
380,245,52941,6,0,L|341:199,1,58.4999973220826,4|0,1:2|0:0,0:0:0:0:
260,143,53094,2,0,L|221:189,1,58.4999973220826,0|0,0:2|0:0,0:0:0:0:
160,265,53247,1,0,3:0:0:0:
324,233,53400,6,0,L|328:181,1,49.5000015106202,4|0,3:1|0:0,0:0:0:0:
260,143,53554,2,0,L|256:199,1,49.5000015106202,0|0,0:1|0:0,0:0:0:0:
256,265,53707,1,0,3:0:0:0:
120,288,53860,6,0,L|64:292,1,33.7500012874604,4|0,1:2|0:0,0:0:0:0:
392,288,54013,2,0,L|448:292,1,33.7500012874604,2|0,0:2|0:0,0:0:0:0:
256,348,54166,2,0,L|256:384,1,33.7500012874604,2|0,0:2|0:0,0:0:0:0:
256,192,54319,6,0,B|237:172|237:172|230:146,1,53.9999983520508,0|0,3:1|0:0,0:0:0:0:
144,172,54472,2,0,B|137:145|137:145|144:119,1,53.9999983520508,0|0,3:1|0:0,0:0:0:0:
60,96,54625,2,0,B|76:40|76:40|132:19,1,116.999994644165,0|0,1:1|3:0,0:0:0:0:
224,0,54855,1,0,3:0:0:0:
224,0,54931,6,0,L|236:76,1,67.5000025749208,4|0,3:1|0:0,0:0:0:0:
256,192,55084,2,0,L|268:268,1,67.5000025749208,0|0,0:1|0:0,0:0:0:0:
288,384,55237,1,0,3:0:0:0:
283,33,55390,6,0,L|273:96,1,58.4999973220826,4|0,3:2|0:0,0:0:0:0:
256,192,55543,2,0,L|247:254,1,58.4999973220826,0|0,0:1|0:0,0:0:0:0:
230,350,55696,1,0,3:0:0:0:
234,67,55849,6,0,L|242:116,1,49.5000015106202,4|0,3:1|0:0,0:0:0:0:
256,192,56002,2,0,L|264:241,1,49.5000015106202,0|0,0:1|0:0,0:0:0:0:
277,317,56155,1,0,3:0:0:0:
392,236,56309,6,0,L|448:236,1,33.7500012874604,4|0,3:2|0:0,0:0:0:0:
120,236,56462,2,0,L|64:236,1,33.7500012874604,2|0,0:0|0:0,0:0:0:0:
256,384,56615,2,0,L|256:350,1,33.7500012874604,2|0,0:0|0:0,0:0:0:0:
373,118,56768,6,0,P|354:138|348:164,1,53.9999983520508,0|0,3:1|0:0,0:0:0:0:
260,99,56921,2,0,P|254:125|260:152,1,53.9999983520508,0|0,3:1|0:0,0:0:0:0:
100,106,57074,2,0,P|123:158|176:180,1,116.999994644165,0|0,1:1|3:0,0:0:0:0:
68,220,57304,1,0,3:0:0:0:
68,220,57380,6,2,B|32:236|29:193|-10:205|-12:236|12:236,1,90.0000034332277,4|0,0:1|0:0,0:1:0:0:
48,300,57584,2,2,B|136:320|140:264|236:292,1,180.000006866455,0|0,3:1|0:0,0:1:0:0:
312,264,57890,1,0,0:0:0:0:
236,224,57992,6,0,P|226:251|233:284,1,60,4|0,0:0|0:0,0:0:0:0:
384,300,58196,2,0,P|396:273|394:243,1,60,0|0,3:0|0:0,0:0:0:0:
320,176,58400,1,0,3:0:0:0:
312,256,58502,1,0,3:0:0:0:
387,311,58605,6,0,P|437:314|477:284,1,102.000001945496,4|0,3:2|0:0,0:0:0:0:
504,200,58911,2,0,L|492:80,1,102.000001945496,0|0,3:0|0:0,0:0:0:0:
412,36,59217,1,0,1:0:0:0:
424,48,59319,2,0,P|404:28|400:0,1,51.0000009727478,0|2,0:0|0:0,0:0:0:0:
395,134,59523,1,0,0:0:0:0:
412,132,59625,2,0,L|348:140,1,51.0000009727478,2|0,0:0|3:0,0:0:0:0:
328,60,59829,6,0,P|278:57|238:87,1,102.000001945496,0|0,3:2|0:0,0:0:0:0:
211,171,60135,2,0,L|223:291,1,102.000001945496,0|0,3:0|0:0,0:0:0:0:
204,164,60441,1,0,1:0:0:0:
136,252,60543,2,0,P|116:232|112:204,1,51.0000009727478,2|0,0:0|0:0,0:0:0:0:
228,280,60747,1,0,3:0:0:0:
312,189,60849,2,0,P|313:214|299:236,1,51.0000009727478,2|0,0:0|0:0,0:0:0:0:
200,360,61053,6,0,P|132:367|89:350,1,102.000001945496,0|0,3:0|0:0,0:0:0:0:
40,296,61360,2,0,L|24:180,1,102.000001945496,2|0,3:2|0:0,0:0:0:0:
12,108,61666,6,0,L|0:15,1,51.0000009727478,0|2,1:2|0:0,0:0:0:0:
27,195,61870,1,0,0:0:0:0:
112,180,61972,2,0,L|204:167,1,51.0000009727478,0|2,0:2|0:0,0:0:0:0:
27,195,62176,1,0,3:0:0:0:
39,284,62278,6,0,B|43:327|43:327|68:355|68:355|61:302,1,120,2|0,0:0|3:0,0:0:0:0:
140,263,62584,2,0,B|196:275|200:231|256:244,1,120,2|0,3:2|0:0,0:0:0:0:
296,136,62891,5,0,1:0:0:0:
296,136,62993,1,2,0:0:0:0:
236,168,63095,1,2,0:0:0:0:
236,100,63197,5,0,3:0:0:0:
236,100,63299,1,2,0:0:0:0:
296,136,63401,1,2,3:2:0:0:
256,243,63502,6,0,B|286:236|289:260|320:254,1,66.0000020141602,4|2,3:2|0:0,0:0:0:0:
392,196,63707,1,2,0:0:0:0:
392,196,63809,1,0,0:0:0:0:
400,292,63911,2,0,B|396:314|396:314|384:329|384:329|387:302,1,66.0000020141602,2|0,0:0|2:0,0:0:0:0:
476,232,64115,5,0,1:0:0:0:
392,196,64217,2,0,P|388:168|392:128,1,66.0000020141602,2|0,2:0|0:0,0:0:0:0:
424,16,64421,5,2,0:0:0:0:
424,16,64523,1,2,0:0:0:0:
348,52,64625,1,0,3:0:0:0:
488,76,64727,6,0,P|444:94|364:72,1,132.00000402832,2|0,3:2|3:0,0:0:0:0:
284,8,65033,1,0,0:0:0:0:
280,112,65135,2,0,B|301:115|301:115|285:100|285:100|262:97,1,66.0000020141602,2|0,0:0|2:0,0:0:0:0:
124,112,65339,5,0,1:0:0:0:
192,8,65441,2,0,P|196:40|192:73,1,66.0000020141602,2|0,2:0|0:0,0:0:0:0:
96,272,65645,5,2,0:0:0:0:
96,272,65747,1,2,0:0:0:0:
44,212,65849,1,0,3:0:0:0:
184,196,65951,6,0,B|201:203|201:225|201:225|188:241|168:235,1,71.9999978027344,2|0,3:2|0:0,0:0:0:0:
132,344,66156,1,2,0:0:0:0:
132,344,66258,1,0,0:0:0:0:
232,328,66360,2,0,B|255:323|255:323|270:311|270:311|242:314,1,71.9999978027344,2|0,0:0|2:0,0:0:0:0:
168,244,66564,5,0,1:0:0:0:
224,184,66640,2,0,P|219:163|216:152,2,26.9999991760254,2|2|0,0:0|0:0|0:0,0:0:0:0:
292,228,66768,1,2,0:0:0:0:
336,288,66870,5,2,0:0:0:0:
336,288,66972,1,2,0:0:0:0:
452,300,67074,1,0,3:0:0:0:
400,248,67176,6,0,B|392:215|417:212|411:179,1,71.9999978027344,2|0,0:2|0:0,0:0:0:0:
388,348,67380,1,2,0:2:0:0:
388,348,67482,1,0,3:0:0:0:
512,296,67584,2,0,B|479:313|479:313|445:303,1,71.9999978027344,2|0,2:0|0:0,0:0:0:0:
292,308,67788,5,0,1:0:0:0:
220,308,67890,1,2,0:0:0:0:
256,244,67992,1,2,3:2:0:0:
216,160,68094,5,0,1:0:0:0:
296,160,68196,1,0,0:0:0:0:
256,88,68298,1,2,3:2:0:0:
301,16,68400,6,0,L|211:16,1,90,4|0,0:1|0:0,0:0:0:0:
301,12,69013,6,0,L|211:12,1,90,8|0,0:1|0:0,0:0:0:0:
256,84,69472,1,0,0:0:0:0:
347,8,69625,6,0,L|283:8,1,45,2|0,0:3|0:0,0:0:0:0:
210,8,69931,2,0,L|165:8,1,45
302,1,70237,6,0,L|212:1,1,90,8|0,0:1|0:0,0:0:0:0:
256,192,70696,1,0,0:0:0:0:
327,121,70849,5,4,0:3:0:0:
256,91,71002,1,0,0:0:0:0:
184,121,71156,1,2,0:1:0:0:
154,192,71309,1,0,0:0:0:0:
158,232,71385,1,0,0:0:0:0:
184,264,71462,1,0,0:0:0:0:
256,294,71615,1,0,0:0:0:0:
327,264,71768,1,2,0:1:0:0:
357,192,71921,2,0,P|357:180|348:160,1,22.5,0|0,0:0|0:0,0:0:0:0:
236,172,72074,5,8,2:3:0:0:
256,163,72150,1,8,2:1:0:0:
277,172,72227,1,8,2:1:0:0:
286,192,72303,1,8,2:1:0:0:
277,213,72380,1,8,2:1:0:0:
256,222,72457,1,8,2:1:0:0:
236,213,72533,1,8,2:1:0:0:
227,192,72610,1,8,2:1:0:0:
256,192,72686,5,8,2:1:0:0:
256,192,72763,1,8,2:1:0:0:
256,192,72839,1,0,3:0:0:0:
332,200,72992,6,0,L|404:208,1,45,0|2,1:0|0:0,0:0:0:0:
180,184,73145,2,0,L|108:176,1,45,2|2,0:0|0:0,0:0:0:0:
72,20,73298,5,4,3:1:0:0:
37,53,73375,1,2,0:0:0:0:
29,100,73451,1,2,0:0:0:0:
45,146,73528,1,0,0:0:0:0:
88,172,73605,5,0,1:2:0:0:
59,170,73681,1,0,0:0:0:0:
31,178,73758,1,0,0:2:0:0:
11,198,73834,1,0,0:0:0:0:
0,244,73911,6,0,P|0:269|3:292,3,48.1499985305787,2|0|0|0,0:0|0:0|3:0|0:0,0:0:0:0:
112,376,74217,5,0,1:0:0:0:
80,338,74294,1,2,0:0:0:0:
79,291,74370,1,2,0:0:0:0:
101,248,74447,1,2,0:0:0:0:
146,226,74523,6,0,B|182:214|204:243|156:276|189:314|257:309|281:265|229:241|245:207|283:214,1,216,2|0,3:2|0:0,0:1:0:0:
272,120,74829,5,2,1:2:0:0:
281,92,74905,1,0,0:0:0:0:
281,63,74982,1,0,0:0:0:0:
266,38,75058,1,0,0:0:0:0:
246,21,75135,1,2,0:2:0:0:
360,84,75288,5,2,3:2:0:0:
364,45,75365,1,2,0:0:0:0:
340,9,75441,1,0,1:0:0:0:
232,140,75594,6,0,P|260:136|278:123,1,48.1499985305787,0|0,3:0|0:0,0:0:0:0:
440,20,75747,5,0,3:1:0:0:
475,53,75824,1,2,0:0:0:0:
483,100,75900,1,2,0:0:0:0:
467,146,75977,1,0,0:0:0:0:
424,172,76054,5,0,1:2:0:0:
453,170,76130,1,0,0:0:0:0:
481,178,76207,1,0,0:2:0:0:
501,198,76283,1,0,0:0:0:0:
512,244,76360,6,0,P|512:269|509:292,3,48.1499985305787,2|0|0|0,0:0|0:0|3:0|0:0,0:0:0:0:
400,376,76666,5,0,1:0:0:0:
432,338,76743,1,2,0:0:0:0:
433,291,76819,1,2,0:0:0:0:
411,248,76896,1,2,0:0:0:0:
365,225,76972,6,0,B|339:218|316:233|330:246|291:258|257:232|279:228|262:208|235:209,1,144.449995591736,2|0,3:2|0:0,0:0:0:0:
112,192,77278,5,2,1:2:0:0:
103,220,77354,1,0,0:0:0:0:
103,249,77431,1,0,0:0:0:0:
118,274,77507,1,0,0:0:0:0:
144,228,77584,5,2,0:2:0:0:
144,260,77661,1,2,0:0:0:0:
165,287,77737,1,0,3:0:0:0:
288,36,77890,5,0,1:2:0:0:
256,36,77967,1,2,0:0:0:0:
229,57,78043,1,0,0:0:0:0:
27,160,78196,5,4,3:1:0:0:
79,184,78273,1,0,0:0:0:0:
123,148,78349,1,0,0:0:0:0:
171,112,78426,1,2,0:0:0:0:
223,140,78502,2,0,L|304:132,3,48.1499985305787,2|0|0|0,1:2|0:0|0:0|0:0,0:0:0:0:
320,44,78809,5,2,0:0:0:0:
333,67,78885,1,0,0:0:0:0:
333,95,78962,1,0,3:0:0:0:
321,119,79038,1,0,0:0:0:0:
297,135,79115,5,0,1:0:0:0:
353,123,79191,1,0,0:0:0:0:
405,147,79268,1,2,0:0:0:0:
429,199,79344,1,2,0:0:0:0:
411,248,79421,6,0,B|404:312|440:296|432:364,1,116.999994644165,2|0,3:2|0:1,0:1:0:0:
288,264,79727,5,2,1:2:0:0:
240,252,79804,1,0,0:0:0:0:
192,260,79880,1,0,0:0:0:0:
156,292,79957,1,2,0:0:0:0:
144,336,80033,6,0,P|140:356|140:388,1,48.1499985305787,2|0,0:0|0:0,0:0:0:0:
236,340,80186,1,0,3:0:0:0:
192,260,80263,2,0,L|168:216,1,48.1499985305787,2|0,0:0|1:0,0:0:0:0:
236,340,80416,1,0,0:0:0:0:
288,264,80492,2,0,P|312:277|332:292,1,48.1499985305787,2|0,0:0|0:0,0:0:0:0:
256,384,80645,5,0,3:0:0:0:
143,347,80798,1,0,0:0:0:0:
73,251,80951,1,0,1:0:0:0:
73,132,81105,1,2,0:0:0:0:
143,36,81258,1,2,0:0:0:0:
256,16,81411,2,0,L|256:56,2,32.0999990203858,2|2|0,3:2|0:0|0:0,0:0:0:0:
256,0,81564,5,0,1:0:0:0:
256,192,81717,1,2,0:2:0:0:
256,0,81870,5,0,3:0:0:0:
391,56,82023,1,2,0:2:0:0:
448,192,82176,1,2,1:2:0:0:
391,327,82329,1,2,1:2:0:0:
256,384,82482,5,0,0:0:0:0:
256,176,82636,2,0,L|256:144,2,32.0999990203858,2|2|0,3:2|0:0|0:0,0:0:0:0:
268,192,82788,6,0,B|271:206|271:206|268:220,1,30,0|0,1:0|0:0,0:0:0:0:
256,296,82890,6,0,B|251:278|251:278|256:260,1,37.5
244,192,82992,6,0,B|238:213|238:213|244:234,1,45.0000017166138
336,336,83094,5,4,3:1:0:0:
384,332,83171,1,2,0:0:0:0:
432,328,83247,1,2,0:0:0:0:
480,324,83324,1,0,0:0:0:0:
432,292,83401,5,0,1:2:0:0:
400,288,83477,1,0,0:0:0:0:
368,280,83554,1,0,0:2:0:0:
400,264,83630,1,0,0:0:0:0:
400,216,83707,6,0,L|396:152,2,48.1499985305787,2|0|0,0:0|0:0|3:0,0:0:0:0:
392,164,83936,1,0,0:0:0:0:
468,248,84013,5,0,1:1:0:0:
472,200,84090,1,2,0:0:0:0:
476,152,84166,1,2,0:0:0:0:
480,104,84243,1,0,0:0:0:0:
464,28,84320,6,0,B|488:24|488:24|512:32,2,48.1499985305787,0|0|0,3:0|0:0|0:0,0:0:0:0:
400,80,84548,1,0,0:0:0:0:
328,112,84625,5,2,1:2:0:0:
320,84,84701,1,0,0:0:0:0:
312,56,84778,1,0,0:0:0:0:
332,36,84854,1,0,0:0:0:0:
352,16,84931,2,0,L|340:64,1,33.7500012874604,2|0,0:0|0:0,0:0:0:0:
232,80,85084,5,2,3:2:0:0:
228,37,85161,1,2,0:0:0:0:
252,0,85237,1,0,1:0:0:0:
256,44,85314,1,2,0:0:0:0:
232,80,85390,6,0,B|206:81|206:81|186:69,1,48.1499985305787,2|0,3:2|0:0,0:0:0:0:
48,0,85543,5,0,3:1:0:0:
72,52,85620,1,2,0:0:0:0:
36,96,85696,5,2,0:0:0:0:
0,144,85773,1,2,0:0:0:0:
28,196,85849,5,0,1:0:0:0:
56,248,85926,1,0,0:0:0:0:
20,292,86002,6,0,L|12:373,1,48.1499985305787,2|0,0:2|0:0,0:0:0:0:
156,296,86156,5,0,0:0:0:0:
172,264,86232,1,0,0:2:0:0:
180,296,86309,1,0,3:0:0:0:
184,328,86385,1,0,0:2:0:0:
216,376,86462,5,0,1:0:0:0:
220,328,86539,1,2,0:0:0:0:
224,280,86615,1,2,0:0:0:0:
228,232,86692,1,2,0:0:0:0:
236,152,86769,6,0,B|220:128|220:128|232:100,2,58.4999973220826,0|0|0,3:0|0:0|0:0,0:0:0:0:
304,200,86997,1,0,0:0:0:0:
428,188,87074,5,2,1:2:0:0:
437,160,87150,1,0,0:0:0:0:
437,131,87227,1,0,0:0:0:0:
422,106,87303,1,0,0:0:0:0:
396,152,87380,5,2,0:2:0:0:
396,120,87457,1,2,0:0:0:0:
374,92,87533,2,0,B|361:83|361:83|344:80,1,33.7500012874604,0|0,3:0|0:0,0:0:0:0:
272,328,87686,5,0,1:2:0:0:
304,328,87763,1,2,0:0:0:0:
331,306,87839,2,0,B|331:290|331:290|328:273,1,33.7500012874604
485,224,87992,5,4,3:1:0:0:
433,200,88069,1,0,0:0:0:0:
389,236,88145,1,0,0:0:0:0:
341,272,88222,1,2,0:0:0:0:
289,244,88298,2,0,L|208:252,2,48.1499985305787,2|0|0,1:2|0:0|0:0,0:0:0:0:
276,332,88528,1,0,0:0:0:0:
192,340,88605,5,2,0:0:0:0:
184,316,88681,1,0,0:0:0:0:
176,292,88758,1,0,3:0:0:0:
192,272,88834,1,0,0:0:0:0:
208,252,88911,5,0,1:0:0:0:
156,240,88987,1,0,0:0:0:0:
104,228,89064,1,2,0:0:0:0:
92,176,89140,1,2,0:0:0:0:
84,124,89217,6,0,B|100:72|100:72|96:56|96:56|112:4,1,125.999996154785,2|0,3:2|0:0,0:0:0:0:
192,44,89446,1,0,0:0:0:0:
220,124,89523,5,2,1:2:0:0:
268,128,89600,1,0,0:0:0:0:
316,132,89676,1,0,0:0:0:0:
348,92,89753,1,2,0:0:0:0:
376,56,89829,6,0,L|408:16,1,48.1499985305787,2|0,0:0|0:0,0:0:0:0:
316,132,89982,2,0,L|336:177,1,48.1499985305787,0|2,3:0|0:0,0:0:0:0:
220,124,90135,2,0,L|168:120,1,48.1499985305787,0|0,1:0|0:0,0:0:0:0:
260,4,90288,2,0,L|280:49,1,48.1499985305787,0|2,3:0|0:0,0:0:0:0:
256,192,90441,5,0,3:0:0:0:
256,67,90594,1,2,0:0:0:0:
188,75,90747,1,0,1:0:0:0:
124,130,90900,1,2,0:0:0:0:
107,231,91054,5,2,0:0:0:0:
174,333,91207,2,0,L|200:288,2,32.0999990203858,0|0|0,3:0|0:0|0:0,0:0:0:0:
314,353,91360,1,0,1:0:0:0:
431,238,91513,1,2,0:0:0:0:
391,56,91666,5,0,3:0:0:0:
190,11,91819,1,2,0:0:0:0:
64,192,91972,1,0,1:0:0:0:
206,377,92125,1,0,1:0:0:0:
430,273,92278,5,2,0:0:0:0:
352,25,92431,1,0,3:0:0:0:
89,96,92584,1,0,1:0:0:0:
145,349,92737,1,2,0:2:0:0:
436,368,92890,5,4,3:1:0:0:
404,332,92967,1,2,0:0:0:0:
360,316,93043,1,2,0:0:0:0:
312,316,93120,1,0,0:0:0:0:
268,332,93196,2,0,P|247:347|240:372,1,45,0|0,1:0|0:0,0:0:0:0:
140,364,93349,5,0,3:0:0:0:
161,327,93426,1,2,0:0:0:0:
162,287,93502,1,2,0:0:0:0:
149,247,93579,1,0,0:0:0:0:
124,215,93655,2,0,P|105:202|83:202,1,40.4999987640381,0|0,1:0|0:0,0:0:0:0:
44,124,93809,5,0,3:1:0:0:
81,131,93886,1,2,0:0:0:0:
115,121,93962,1,2,0:0:0:0:
146,99,94039,1,0,0:0:0:0:
166,68,94115,2,0,P|171:48|165:29,1,40.4999987640381,0|0,1:0|0:0,0:0:0:0:
252,8,94268,5,0,3:2:0:0:
256,41,94345,1,2,0:0:0:0:
274,68,94421,1,2,0:0:0:0:
301,88,94498,1,0,0:0:0:0:
333,96,94574,2,0,P|351:95|365:84,1,36,0|0,1:0|0:0,0:0:0:0:
484,88,94727,5,0,3:1:0:0:
439,107,94804,1,2,0:0:0:0:
411,144,94880,1,2,0:0:0:0:
396,189,94957,1,0,0:0:0:0:
397,236,95033,2,0,P|405:260|426:274,1,45,0|0,1:0|0:0,0:0:0:0:
436,367,95186,6,0,B|364:370|375:340|303:344,1,135,4|0,3:2|0:0,0:0:0:0:
284,356,95492,2,0,P|263:320|275:264,1,90,0|0,0:0|1:0,0:0:0:0:
296,116,95798,2,0,P|316:151|305:208,1,90,0|0,0:0|0:0,0:0:0:0:
192,336,96105,1,0,3:0:0:0:
40,240,96258,2,0,P|19:204|31:148,1,90,0|0,1:0|0:0,0:0:0:0:
136,40,96564,6,0,L|29:46,1,90,0|0,3:0|0:0,0:0:0:0:
212,104,96870,2,0,L|307:109,1,90,0|0,1:0|0:0,0:0:0:0:
404,20,97176,1,0,0:0:0:0:
388,204,97329,1,0,3:0:0:0:
496,56,97482,2,0,P|504:24|496:-4,2,45,0|2|2,1:0|0:0|0:0,0:0:0:0:
264,188,97788,5,4,3:1:0:0:
228,200,97865,1,2,0:0:0:0:
192,200,97941,1,2,0:0:0:0:
156,196,98018,1,0,0:0:0:0:
120,184,98094,2,0,P|92:192|76:212,1,45,0|0,1:0|0:0,0:0:0:0:
288,231,98247,5,4,3:2:0:0:
264,188,98324,1,2,0:0:0:0:
249,141,98400,1,2,0:0:0:0:
242,93,98477,1,0,0:0:0:0:
245,46,98553,2,0,P|229:14|214:6,1,49.5000015106202,0|0,1:0|0:0,0:0:0:0:
248,290,98707,5,4,3:1:0:0:
288,231,98784,1,2,0:0:0:0:
338,180,98860,1,2,0:0:0:0:
399,146,98937,1,0,0:0:0:0:
466,122,99013,2,0,P|489:107|515:73,1,58.4999973220826,0|0,1:0|0:0,0:0:0:0:
244,210,99166,5,4,3:2:0:0:
288,231,99243,1,2,0:0:0:0:
326,260,99319,1,2,0:0:0:0:
361,296,99396,1,0,0:0:0:0:
386,335,99472,2,0,L|426:372,1,49.5000015106202,0|0,1:0|0:0,0:0:0:0:
250,165,99625,5,4,3:1:0:0:
244,210,99702,1,2,0:0:0:0:
230,252,99778,1,2,0:0:0:0:
209,291,99855,1,0,0:0:0:0:
181,324,99931,2,0,P|163:339|142:353,1,45,0|0,1:0|0:0,0:0:0:0:
20,360,100084,6,0,L|24:220,1,135,4|0,3:2|0:0,0:0:0:0:
16,244,100390,2,0,P|52:272|96:271,1,90,0|0,0:0|1:0,0:0:0:0:
243,239,100696,2,0,P|209:212|165:211,1,90,0|0,0:0|0:0,0:0:0:0:
264,328,101002,1,0,3:0:0:0:
300,168,101156,2,0,L|324:52,1,90,0|0,1:0|0:0,0:0:0:0:
200,8,101385,1,0,0:0:0:0:
192,4,101462,6,0,L|132:0,1,45,0|0,3:0|0:0,0:0:0:0:
320,4,101615,2,0,L|380:0,1,45,0|0,0:0|0:0,0:0:0:0:
184,80,101768,6,0,P|155:84|129:94,1,40.4999987640381,0|0,1:0|0:0,0:0:0:0:
328,80,101921,2,0,P|356:84|382:94,1,40.4999987640381,0|0,0:0|0:0,0:0:0:0:
196,156,102074,6,0,P|179:171|171:194,1,36,0|0,0:0|0:0,0:0:0:0:
316,156,102227,2,0,P|333:171|341:194,1,36,0|0,3:0|0:0,0:0:0:0:
256,212,102380,6,0,L|256:248,1,31.4999990386963,0|0,1:0|0:0,0:0:0:0:
256,320,102533,2,0,L|256:356,1,31.4999990386963,0|0,0:0|0:0,0:0:0:0:
76,368,102686,5,4,3:1:0:0:
108,332,102763,1,2,0:0:0:0:
152,316,102839,1,2,0:0:0:0:
200,316,102916,1,0,0:0:0:0:
244,332,102992,2,0,P|264:347|272:372,1,45,0|0,1:0|0:0,0:0:0:0:
372,364,103145,5,0,3:0:0:0:
351,327,103222,1,2,0:0:0:0:
350,287,103298,1,2,0:0:0:0:
363,247,103375,1,0,0:0:0:0:
388,215,103451,2,0,P|406:202|428:202,1,40.4999987640381,0|0,1:0|0:0,0:0:0:0:
468,124,103605,5,4,3:1:0:0:
431,131,103682,1,2,0:0:0:0:
397,121,103758,1,2,0:0:0:0:
366,99,103835,1,0,0:0:0:0:
346,68,103911,2,0,P|340:48|346:29,1,40.4999987640381,0|0,1:0|0:0,0:0:0:0:
260,8,104064,5,0,3:0:0:0:
256,41,104141,1,2,0:0:0:0:
238,68,104217,1,2,0:0:0:0:
211,88,104294,1,0,0:0:0:0:
179,96,104370,2,0,P|160:95|146:84,1,36,0|0,1:0|0:0,0:0:0:0:
28,88,104523,5,4,3:1:0:0:
73,107,104600,1,2,0:0:0:0:
101,144,104676,1,2,0:0:0:0:
116,189,104753,1,0,0:0:0:0:
115,236,104829,2,0,P|106:260|85:274,1,45,0|0,1:0|0:0,0:0:0:0:
76,367,104982,6,0,B|147:370|136:340|208:344,1,135,4|0,3:2|0:0,0:0:0:0:
228,356,105288,2,0,P|248:320|237:264,1,90,0|0,0:0|1:0,0:0:0:0:
216,116,105594,2,0,P|195:151|207:208,1,90,0|0,0:0|0:0,0:0:0:0:
320,336,105901,1,0,3:0:0:0:
472,240,106054,2,0,P|492:204|481:148,1,90,0|0,1:0|0:0,0:0:0:0:
376,40,106360,6,0,L|483:46,1,90,0|0,3:0|0:0,0:0:0:0:
300,104,106666,2,0,L|205:109,1,90,0|0,1:0|0:0,0:0:0:0:
108,20,106972,1,0,0:0:0:0:
124,204,107125,1,0,3:0:0:0:
16,56,107278,2,0,P|8:24|16:-4,2,45,0|2|2,1:0|0:0|0:0,0:0:0:0:
248,188,107584,5,4,3:1:0:0:
284,200,107661,1,2,0:0:0:0:
320,200,107737,1,2,0:0:0:0:
356,196,107814,1,0,0:0:0:0:
392,184,107890,2,0,P|420:192|436:212,1,45,0|0,1:0|0:0,0:0:0:0:
224,231,108043,5,4,3:2:0:0:
248,188,108120,1,2,0:0:0:0:
263,141,108196,1,2,0:0:0:0:
270,93,108273,1,0,0:0:0:0:
267,46,108349,2,0,P|282:14|297:6,1,49.5000015106202,0|0,1:0|0:0,0:0:0:0:
264,290,108503,5,4,3:1:0:0:
224,231,108580,1,2,0:0:0:0:
174,180,108656,1,2,0:0:0:0:
113,146,108733,1,0,0:0:0:0:
46,122,108809,2,0,P|22:107|-3:73,1,58.4999973220826,0|0,1:0|0:0,0:0:0:0:
268,210,108962,5,4,3:2:0:0:
224,231,109039,1,2,0:0:0:0:
186,260,109115,1,2,0:0:0:0:
151,296,109192,1,0,0:0:0:0:
126,335,109268,2,0,L|85:372,1,49.5000015106202,0|0,1:0|0:0,0:0:0:0:
262,165,109421,5,4,3:1:0:0:
268,210,109498,1,2,0:0:0:0:
282,252,109574,1,2,0:0:0:0:
303,291,109651,1,0,0:0:0:0:
331,324,109727,2,0,P|348:339|369:353,1,45,0|0,1:0|0:0,0:0:0:0:
492,360,109880,6,0,L|488:220,1,135,4|0,3:2|0:0,0:0:0:0:
496,244,110186,2,0,P|460:272|416:271,1,90,0|0,0:0|1:0,0:0:0:0:
268,240,110492,2,0,P|303:212|347:212,1,90,0|0,0:0|0:0,0:0:0:0:
248,328,110798,1,0,3:0:0:0:
212,168,110952,2,0,L|188:52,1,90,0|0,1:0|0:0,0:0:0:0:
140,8,111181,1,0,0:0:0:0:
147,1,111258,6,0,L|192:4,1,45,0|0,3:0|0:0,0:0:0:0:
364,1,111411,2,0,L|320:4,1,45,0|0,0:0|0:0,0:0:0:0:
144,87,111564,6,0,P|163:82|184:80,1,40.4999987640381,0|0,1:0|0:0,0:0:0:0:
367,87,111717,2,0,P|348:82|328:80,1,40.4999987640381,0|0,0:0|0:0,0:0:0:0:
173,182,111870,6,0,P|181:167|196:156,1,36,0|0,0:0|0:0,0:0:0:0:
338,182,112023,2,0,P|330:167|316:156,1,36,0|0,3:0|0:0,0:0:0:0:
256,312,112176,5,0,1:0:0:0:
256,300,112252,1,0,0:0:0:0:
256,272,112329,1,0,0:0:0:0:
256,260,112406,1,0,0:0:0:0:
256,232,112482,6,0,L|256:199,1,22.5,4|0,0:2|0:0,0:0:0:0:
256,192,112635,12,0,114778,0:0:0:0:
256,24,114931,5,4,0:1:0:0:
68,220,115237,5,0,0:0:0:0:
118,275,115543,1,0,0:0:0:0:
183,312,115849,1,0,0:0:0:0:
257,324,116156,1,0,0:0:0:0:
330,312,116462,1,0,0:0:0:0:
395,275,116768,1,0,0:0:0:0:
445,219,117074,1,0,0:0:0:0:
256,24,117380,37,4,0:1:0:0:
68,220,118298,5,0,0:0:0:0:
183,312,119217,1,0,0:0:0:0:
256,24,119817,37,4,0:1:0:0:
330,312,120192,5,0,0:0:0:0:
395,275,121152,1,0,0:0:0:0:
445,219,122112,1,0,0:0:0:0:
