osu file format v14

[General]
AudioFilename: audio.mp3
AudioLeadIn: 0
PreviewTime: 72902
Countdown: 0
SampleSet: Normal
StackLeniency: 0.7
Mode: 2
LetterboxInBreaks: 0
WidescreenStoryboard: 1

[Editor]
DistanceSpacing: 3.5
BeatDivisor: 4
GridSize: 16
TimelineZoom: 2.6

[Metadata]
Title:Chrono Diver -PENDULUMs-
TitleUnicode:Chrono Diver -PENDULUMs-
Artist:Nekomata L.E.D.Master+
ArtistUnicode:猫叉L.E.D.Master+
Creator:Rocma
Version:Salad
Source:beatmania IIDX 22 PENDUAL
Tags:ost original soundtrack volume 2 track cwc 2021 quarterfinals nomod Toshiyuki Kakuta Naoyuki Sato 4th KONAMI Arcade Championship CHRONO BREAKS SOUND VOLTEX IV HEAVENLY HAVEN Electronic Instrumental
BeatmapID:3039731
BeatmapSetID:1457286

[Difficulty]
HPDrainRate:4
CircleSize:3
OverallDifficulty:7
ApproachRate:7
SliderMultiplier:1.28
SliderTickRate:1

[Events]
//Background and Video events
0,0,"bg.jpg",0,0
//Break Periods
//Storyboard Layer 0 (Background)
//Storyboard Layer 1 (Fail)
//Storyboard Layer 2 (Pass)
//Storyboard Layer 3 (Foreground)
//Storyboard Layer 4 (Overlay)
//Storyboard Sound Samples

[TimingPoints]
1040,306.122448979592,4,1,2,60,1,0
10835,-100,4,1,2,80,0,0
58591,-100,4,1,2,60,0,0
63488,-100,4,1,2,70,0,0
68386,-100,4,1,2,80,0,0
68540,-100,4,1,2,60,0,0
69611,-100,4,1,2,50,0,0
70529,-100,4,1,2,40,0,0
73284,-100,4,1,2,85,0,1
112468,-100,4,1,2,85,0,0
112621,-100,4,1,2,60,0,0
113693,-100,4,1,2,50,0,0
114917,-100,4,1,2,40,0,0
116142,-100,4,1,2,30,0,0
117366,-100,4,1,2,20,0,0
118591,-100,4,1,2,10,0,0

[Colours]
Combo1 : 207,211,131
Combo2 : 207,139,202
Combo3 : 164,170,167

[HitObjects]
144,320,1040,6,0,P|84:301|160:176,1,256,4|0,0:0|3:0,0:0:0:0:
368,320,2264,2,0,P|428:301|352:176,1,256,0|0,3:0|3:0,0:0:0:0:
240,176,3182,1,0,0:0:0:0:
480,192,3488,6,0,P|464:256|288:336,1,256,4|0,0:0|3:0,0:0:0:0:
32,192,4713,2,0,P|84:304|204:339,1,256,0|0,3:0|3:0,0:0:0:0:
112,256,5631,1,0,0:0:0:0:
368,320,5937,6,0,P|428:301|352:176,1,256,4|0,0:0|3:0,0:0:0:0:
144,320,7161,2,0,P|84:301|160:176,1,256,0|0,3:0|3:0,0:0:0:0:
272,176,8079,1,0,0:0:0:0:
32,192,8386,6,0,P|48:256|224:336,1,256,4|0,0:0|3:0,0:0:0:0:
480,192,9610,2,0,P|428:304|308:339,1,256,0|0,3:0|3:0,0:0:0:0:
432,336,10529,1,0,0:0:0:0:
176,336,10835,6,0,P|128:320|96:240,1,128,4|0,0:0|0:0,0:0:0:0:
224,208,11448,2,0,P|272:192|304:112,1,128,8|0,0:0|0:0,0:0:0:0:
176,112,12060,2,0,P|144:128|192:192,1,128,0|0,0:0|0:0,0:0:0:0:
304,192,12672,2,0,L|432:192,1,128,8|0,0:0|0:0,0:0:0:0:
176,272,13284,6,0,P|119:259|176:128,1,256,0|8,0:0|0:0,0:0:0:0:
320,112,14203,1,0,0:0:0:0:
160,112,14509,6,0,L|32:112,1,128,0|0,0:0|0:0,0:0:0:0:
64,240,15121,2,0,L|192:240,1,128,8|0,0:0|0:0,0:0:0:0:
448,256,15733,6,0,P|432:192|352:176,1,128,4|2,0:0|0:0,0:0:0:0:
320,176,16193,1,0,0:0:0:0:
256,176,16346,1,0,0:0:0:0:
384,96,16652,1,2,0:0:0:0:
128,128,16958,6,0,P|80:144|48:224,1,128,8|2,0:0|0:0,0:0:0:0:
64,272,17417,1,0,0:0:0:0:
128,304,17570,1,0,0:0:0:0:
256,304,17876,1,2,0:0:0:0:
496,240,18182,6,0,L|352:240,1,128,4|2,0:0|0:0,0:0:0:0:
368,240,18795,2,0,L|496:240,1,128,0|2,0:0|0:0,0:0:0:0:
240,240,19407,6,0,L|96:240,1,128,4|4,0:0|0:0,0:0:0:0:
240,176,20019,1,2,0:0:0:0:
304,176,20172,1,0,0:0:0:0:
336,112,20325,1,2,0:0:0:0:
304,176,20478,1,0,0:0:0:0:
160,176,20631,6,0,L|16:176,1,128,4|2,0:0|0:0,0:0:0:0:
160,256,21244,1,0,0:0:0:0:
224,256,21397,1,8,0:0:0:0:
288,256,21550,1,2,0:0:0:0:
160,352,21856,6,0,L|144:208,1,128,8|2,0:0|0:0,0:0:0:0:
224,192,22315,1,0,0:0:0:0:
256,128,22468,1,0,0:0:0:0:
224,64,22621,1,8,0:0:0:0:
144,48,22774,1,2,0:0:0:0:
400,48,23080,6,0,P|442:81|400:128,1,128,4|2,0:0|0:0,0:0:0:0:
256,208,23693,2,0,L|400:208,1,128,0|2,0:0|0:0,0:0:0:0:
128,192,24305,6,0,P|86:225|128:272,1,128,8|2,0:0|0:0,0:0:0:0:
272,352,24918,2,0,L|128:352,1,128,0|2,0:0|0:0,0:0:0:0:
208,352,25376,1,0,0:0:0:0:
352,336,25529,6,0,L|352:192,1,128,4|2,0:0|0:0,0:0:0:0:
272,208,25988,1,0,0:0:0:0:
240,144,26141,1,0,0:0:0:0:
272,80,26294,1,8,0:0:0:0:
352,64,26447,1,2,0:0:0:0:
80,64,26754,5,8,0:0:0:0:
64,144,26907,2,0,L|272:144,1,192,2|0,0:0|0:0,0:0:0:0:
320,176,27519,1,8,0:0:0:0:
336,240,27672,1,2,0:0:0:0:
80,320,27978,6,0,P|47:292|96:224,1,128,4|2,0:0|0:0,0:0:0:0:
208,304,28591,1,0,0:0:0:0:
272,272,28744,1,8,0:0:0:0:
304,208,28897,1,2,0:0:0:0:
272,144,29050,1,0,0:0:0:0:
128,144,29203,6,0,P|134:87|217:72,1,128,4|2,0:0|0:0,0:0:0:0:
320,64,29815,2,0,L|416:64,2,96,2|0|0,0:0|0:0|0:0,0:0:0:0:
176,176,30427,6,0,L|48:176,1,128,4|2,0:0|0:0,0:0:0:0:
176,256,31040,2,0,L|240:256,2,64,0|8|2,0:0|0:0|0:0,0:0:0:0:
304,272,31652,6,0,L|448:272,1,128,8|2,0:0|0:0,0:0:0:0:
304,208,32264,2,0,L|224:208,1,64,0|8,0:0|0:0,0:0:0:0:
176,208,32570,2,0,L|240:208,1,64,2|0,0:0|0:0,0:0:0:0:
384,208,32876,6,0,P|416:192|368:128,1,128,4|2,0:0|0:0,0:0:0:0:
304,128,33335,2,0,L|176:128,1,128,0|8,0:0|0:0,0:0:0:0:
240,128,33795,1,2,0:0:0:0:
496,176,34101,5,8,0:0:0:0:
432,176,34254,2,0,L|288:176,1,128,0|0,0:0|0:0,0:0:0:0:
384,128,34713,2,0,L|448:128,2,64,0|8|2,0:0|0:0|0:0,0:0:0:0:
144,160,35325,6,0,L|80:160,2,64,4|0|2,0:0|0:0|0:0,0:0:0:0:
272,160,35937,2,0,L|400:160,2,128,0|2|8,0:0|0:0|0:0,0:0:0:0:
128,208,36703,6,0,P|86:243|128:288,1,128,2|0,0:0|0:0,0:0:0:0:
208,288,37162,2,0,L|352:288,1,128,0|2,0:0|0:0,0:0:0:0:
272,288,37621,1,0,0:0:0:0:
128,192,37774,6,0,P|96:176|144:112,1,128,4|2,0:0|0:0,0:0:0:0:
208,96,38233,2,0,L|80:96,1,128,0|8,0:0|0:0,0:0:0:0:
144,96,38693,1,2,0:0:0:0:
384,112,38999,5,0,0:0:0:0:
448,160,39152,2,0,L|320:160,1,128,8|0,0:0|0:0,0:0:0:0:
176,160,39611,2,0,L|64:160,2,96,2|0|0,0:0|0:0|0:0,0:0:0:0:
322,175,40223,6,0,L|338:303,1,128,4|2,0:0|0:0,0:0:0:0:
176,224,40835,2,0,L|160:352,1,128,0|2,0:0|0:0,0:0:0:0:
400,192,41448,6,0,P|432:224|395:292,1,128,8|2,0:0|0:0,0:0:0:0:
272,320,42060,2,0,L|416:320,1,128,0|2,0:0|0:0,0:0:0:0:
144,256,42672,6,0,L|16:256,1,128,4|2,0:0|0:0,0:0:0:0:
16,160,43131,2,0,L|160:160,1,128,0|8,0:0|0:0,0:0:0:0:
208,160,43591,1,2,0:0:0:0:
464,192,43897,5,8,0:0:0:0:
400,192,44050,2,0,L|384:320,1,128,2|8,0:0|0:0,0:0:0:0:
320,319,44509,2,0,L|312:247,1,64,0|8,0:0|0:0,0:0:0:0:
377,261,44815,2,0,L|385:189,1,64,2|8,0:0|0:0,0:0:0:0:
240,176,45121,6,0,L|96:176,1,128,4|2,0:0|0:0,0:0:0:0:
240,176,45733,2,0,L|384:176,1,128,0|2,0:0|0:0,0:0:0:0:
112,192,46346,6,0,P|80:224|117:292,1,128,8|2,0:0|0:0,0:0:0:0:
240,320,46958,2,0,L|96:320,1,128,0|2,0:0|0:0,0:0:0:0:
368,256,47570,6,0,L|496:256,1,128,4|2,0:0|0:0,0:0:0:0:
496,160,48029,2,0,L|352:160,1,128,0|8,0:0|0:0,0:0:0:0:
304,160,48489,1,2,0:0:0:0:
48,192,48795,5,0,0:0:0:0:
112,192,48948,2,0,L|128:320,1,128,8|0,0:0|0:0,0:0:0:0:
63,319,49407,2,0,L|143:319,1,64,0|8,0:0|0:0,0:0:0:0:
192,320,49713,2,0,L|256:320,1,64,2|0,0:0|0:0,0:0:0:0:
400,320,50019,6,0,P|448:304|380:221,1,192,4|0,0:0|0:0,0:0:0:0:
208,192,50937,2,0,L|400:192,1,192
80,288,51856,6,0,L|64:208,2,64,0|8|2,0:0|0:0|0:0,0:0:0:0:
336,304,52468,6,0,L|128:304,1,192,4|0,0:0|0:0,0:0:0:0:
336,240,53386,2,0,P|401:198|320:144,1,192,0|0,0:0|0:0,0:0:0:0:
160,144,54305,2,0,L|144:80,1,64,0|8,0:0|0:0,0:0:0:0:
240,64,54611,2,0,L|256:128,1,64,2|0,0:0|0:0,0:0:0:0:
112,320,54917,6,0,P|64:304|132:221,1,192,4|0,0:0|0:0,0:0:0:0:
304,192,55835,2,0,L|112:192,1,192,0|8,0:0|0:0,0:0:0:0:
432,288,56754,6,0,L|448:208,2,64,0|8|2,0:0|0:0|0:0,0:0:0:0:
176,304,57366,6,0,L|64:304,2,85.3333333333333,4|8|2,0:0|0:0|0:0,0:0:0:0:
272,304,57978,2,0,L|384:304,2,85.3333333333333,8|8|2,0:0|0:0|0:0,0:0:0:0:
96,304,58591,6,0,P|48:288|16:208,2,128,0|0|2,3:0|0:0|0:0,0:0:0:0:
256,304,59815,2,0,L|352:304,1,85.3333333333333,8|0,0:0|0:0,0:0:0:0:
352,240,60121,1,8,0:0:0:0:
224,240,60427,2,0,P|171:214|156:145,1,128,2|0,0:0|0:0,0:0:0:0:
416,304,61040,6,0,P|464:288|496:208,2,128,0|0|2,3:0|0:0|0:0,0:0:0:0:
256,304,62264,2,0,L|160:304,1,85.3333333333333,8|0,0:0|0:0,0:0:0:0:
160,240,62570,1,8,0:0:0:0:
288,224,62876,2,0,P|324:192|272:128,1,128,2|0,0:0|0:0,0:0:0:0:
32,144,63488,6,0,L|192:144,2,128,0|0|2,3:0|0:0|0:0,0:0:0:0:
256,208,64713,2,0,L|272:320,1,85.3333333333333,8|0,0:0|0:0,0:0:0:0:
224,320,65019,1,8,0:0:0:0:
96,256,65325,2,0,P|112:192|192:160,1,128,2|0,0:0|0:0,0:0:0:0:
416,176,65937,6,0,P|448:208|336:336,1,256,0|2,3:0|0:0,0:0:0:0:
96,176,67162,2,0,P|64:208|176:336,1,256,8|2,0:0|0:0,0:0:0:0:
288,304,68080,1,0,0:0:0:0:
32,240,68386,5,4,0:0:0:0:
256,192,68999,12,0,70223,0:0:0:0:
256,304,70835,6,0,P|130:223|273:94,1,384,0|0,0:0|0:0,0:0:0:0:
384,240,72060,2,0,L|256:240,1,128
384,240,72672,2,0,P|416:192|365:135,1,128,0|2,0:0|0:0,0:0:0:0:
128,144,73284,6,0,P|48:192|48:224,1,128,12|2,0:0|0:0,0:0:0:0:
176,272,73897,1,0,0:0:0:0:
112,272,74050,1,8,0:0:0:0:
48,272,74203,1,2,0:0:0:0:
304,288,74509,6,0,L|448:288,1,128,8|2,0:0|0:0,0:0:0:0:
288,224,75121,1,0,0:0:0:0:
432,192,75427,2,0,L|448:128,1,64,2|0,0:0|0:0,0:0:0:0:
304,96,75733,6,0,L|176:96,1,128,8|2,0:0|0:0,0:0:0:0:
304,208,76346,2,0,L|368:208,2,64,0|8|2,0:0|0:0|0:0,0:0:0:0:
48,224,76958,6,0,P|64:288|144:304,1,128,8|2,0:0|0:0,0:0:0:0:
256,320,77570,2,0,L|112:320,1,128,0|2,0:0|0:0,0:0:0:0:
192,320,78029,1,0,0:0:0:0:
336,320,78182,6,0,L|464:320,1,128,12|2,0:0|0:0,0:0:0:0:
336,256,78795,1,0,0:0:0:0:
272,256,78948,1,8,0:0:0:0:
208,256,79101,1,2,0:0:0:0:
464,176,79407,6,0,P|464:224|384:272,1,128,8|2,0:0|0:0,0:0:0:0:
272,320,80019,2,0,L|416:320,1,128,0|2,0:0|0:0,0:0:0:0:
336,320,80478,1,0,0:0:0:0:
192,304,80631,5,4,0:0:0:0:
131,291,80784,1,0,0:0:0:0:
105,235,80937,1,2,0:0:0:0:
134,180,81090,1,0,0:0:0:0:
195,170,81243,1,0,0:0:0:0:
272,160,81397,2,0,L|352:160,1,64,8|2,0:0|0:0,0:0:0:0:
103,294,81856,5,4,0:0:0:0:
42,281,82009,1,0,0:0:0:0:
16,225,82162,1,2,0:0:0:0:
45,170,82315,1,0,0:0:0:0:
106,160,82468,1,0,0:0:0:0:
176,144,82622,2,0,L|112:144,1,64,8|2,0:0|0:0,0:0:0:0:
48,144,82927,1,0,0:0:0:0:
192,144,83080,6,0,P|272:192|272:224,1,128,4|2,0:0|0:0,0:0:0:0:
144,272,83693,1,0,0:0:0:0:
80,272,83846,1,8,0:0:0:0:
16,272,83999,1,2,0:0:0:0:
272,288,84305,6,0,L|416:288,1,128,8|2,0:0|0:0,0:0:0:0:
256,224,84917,1,0,0:0:0:0:
128,192,85223,2,0,L|64:192,1,64,2|0,0:0|0:0,0:0:0:0:
208,96,85529,6,0,L|336:96,1,128,8|2,0:0|0:0,0:0:0:0:
208,208,86142,2,0,L|144:208,2,64,0|8|2,0:0|0:0|0:0,0:0:0:0:
464,224,86754,6,0,P|448:288|368:304,1,128,8|2,0:0|0:0,0:0:0:0:
256,320,87366,2,0,L|400:320,1,128,0|2,0:0|0:0,0:0:0:0:
320,320,87825,1,0,0:0:0:0:
176,320,87978,6,0,L|48:320,1,128,12|2,0:0|0:0,0:0:0:0:
176,256,88591,1,0,0:0:0:0:
240,256,88744,1,8,0:0:0:0:
304,256,88897,1,2,0:0:0:0:
48,176,89203,6,0,P|48:224|128:272,1,128,8|2,0:0|0:0,0:0:0:0:
240,320,89815,2,0,L|96:320,1,128,0|2,0:0|0:0,0:0:0:0:
176,320,90274,1,0,0:0:0:0:
320,304,90427,5,4,0:0:0:0:
381,291,90580,1,0,0:0:0:0:
407,235,90733,1,2,0:0:0:0:
378,180,90886,1,0,0:0:0:0:
317,170,91039,1,0,0:0:0:0:
240,160,91193,2,0,L|160:160,1,64,8|2,0:0|0:0,0:0:0:0:
409,294,91652,5,4,0:0:0:0:
470,281,91805,1,0,0:0:0:0:
496,225,91958,1,2,0:0:0:0:
467,170,92111,1,0,0:0:0:0:
406,160,92264,1,0,0:0:0:0:
336,144,92418,1,8,0:0:0:0:
400,144,92571,1,2,0:0:0:0:
464,144,92723,1,0,0:0:0:0:
320,208,92876,6,0,L|176:208,1,128,4|2,0:0|0:0,0:0:0:0:
128,144,93335,2,0,P|91:91|128:48,1,128,8|2,0:0|0:0,0:0:0:0:
272,144,93795,2,0,P|309:91|272:48,1,128,8|2,0:0|0:0,0:0:0:0:
208,160,94254,2,0,L|352:160,1,128,8|2,0:0|0:0,0:0:0:0:
400,176,94713,2,0,P|441:211|384:256,1,128,8|2,0:0|0:0,0:0:0:0:
256,256,95172,6,0,L|112:256,1,128,4|8,0:0|0:0,0:0:0:0:
192,256,95631,1,2,0:0:0:0:
320,240,95937,2,0,P|368:224|416:144,1,128,0|2,0:0|0:0,0:0:0:0:
288,128,96550,6,0,L|224:128,2,64,8|0|2,0:0|0:0|0:0,0:0:0:0:
416,160,97162,1,0,0:0:0:0:
448,192,97315,1,8,0:0:0:0:
416,240,97468,1,2,0:0:0:0:
336,256,97621,1,0,0:0:0:0:
192,208,97774,6,0,P|204:152|275:130,1,128,4|2,0:0|0:0,0:0:0:0:
332,111,98233,2,0,P|320:55|249:33,1,128,0|2,0:0|0:0,0:0:0:0:
112,96,98693,2,0,P|73:148|129:176,1,128,4|2,0:0|0:0,0:0:0:0:
256,160,99152,2,0,P|295:212|239:240,1,128,8|2,0:0|0:0,0:0:0:0:
192,240,99611,2,0,L|64:240,1,128,8|2,0:0|0:0,0:0:0:0:
208,288,100070,6,0,L|352:288,1,128,4|8,0:0|0:0,0:0:0:0:
272,288,100529,1,2,0:0:0:0:
144,288,100835,2,0,L|80:288,2,64,0|8|2,0:0|0:0|0:0,0:0:0:0:
400,288,101448,6,0,P|464:240|444:180,1,128,8|2,0:0|0:0,0:0:0:0:
320,176,102060,2,0,L|448:176,1,128,0|2,0:0|0:0,0:0:0:0:
192,176,102672,6,0,L|336:176,1,128,4|2,0:0|0:0,0:0:0:0:
384,240,103131,2,0,P|421:293|384:336,1,128,8|2,0:0|0:0,0:0:0:0:
240,240,103591,2,0,P|203:293|240:336,1,128,8|2,0:0|0:0,0:0:0:0:
304,224,104050,2,0,L|160:224,1,128,8|2,0:0|0:0,0:0:0:0:
112,208,104509,2,0,P|71:173|128:128,1,128,8|2,0:0|0:0,0:0:0:0:
256,128,104968,6,0,L|400:128,1,128,4|8,0:0|0:0,0:0:0:0:
320,128,105427,1,2,0:0:0:0:
192,144,105733,2,0,P|144:160|96:240,1,128,0|2,0:0|0:0,0:0:0:0:
224,256,106346,6,0,L|288:256,2,64,8|0|2,0:0|0:0|0:0,0:0:0:0:
96,224,106958,1,0,0:0:0:0:
64,192,107111,1,8,0:0:0:0:
96,144,107264,1,2,0:0:0:0:
176,128,107417,1,0,0:0:0:0:
320,176,107570,6,0,P|308:232|237:254,1,128,4|2,0:0|0:0,0:0:0:0:
180,273,108029,2,0,P|192:329|263:351,1,128,0|2,0:0|0:0,0:0:0:0:
400,288,108489,2,0,P|439:236|383:208,1,128,4|2,0:0|0:0,0:0:0:0:
256,224,108948,2,0,P|217:172|273:144,1,128,8|2,0:0|0:0,0:0:0:0:
320,144,109407,2,0,L|448:144,1,128,8|2,0:0|0:0,0:0:0:0:
304,96,109866,6,0,L|160:96,1,128,4|8,0:0|0:0,0:0:0:0:
240,96,110325,1,2,0:0:0:0:
368,96,110631,2,0,L|432:96,2,64,0|8|2,0:0|0:0|0:0,0:0:0:0:
112,96,111244,6,0,L|32:96,2,64,8|0|2,0:0|0:0|0:0,0:0:0:0:
240,112,111856,1,0,0:0:0:0:
176,112,112009,1,8,0:0:0:0:
112,112,112162,1,2,0:0:0:0:
368,208,112468,5,4,0:0:0:0:
256,192,112774,12,0,119815,0:0:0:0:
