osu file format v14

[General]
AudioFilename: audio.mp3
AudioLeadIn: 0
PreviewTime: 72902
Countdown: 0
SampleSet: Normal
StackLeniency: 0.7
Mode: 2
LetterboxInBreaks: 0
WidescreenStoryboard: 0

[Editor]
DistanceSpacing: 3.5
BeatDivisor: 4
GridSize: 16
TimelineZoom: 2.6

[Metadata]
Title:Chrono Diver -PENDULUMs-
TitleUnicode:Chrono Diver -PENDULUMs-
Artist:Nekomata L.E.D.Master+
ArtistUnicode:猫叉L.E.D.Master+
Creator:Rocma
Version:Overdose
Source:beatmania IIDX 22 PENDUAL
Tags:ost original soundtrack volume 2 track cwc 2021 quarterfinals nomod Toshiyuki Kakuta Naoyuki Sato 4th KONAMI Arcade Championship CHRONO BREAKS SOUND VOLTEX IV HEAVENLY HAVEN Electronic Instrumental
BeatmapID:2995016
BeatmapSetID:1457286

[Difficulty]
HPDrainRate:6
CircleSize:4
OverallDifficulty:9.4
ApproachRate:9.4
SliderMultiplier:1.92
SliderTickRate:1

[Events]
//Background and Video events
0,0,"bg.jpg",0,0
//Break Periods
//Storyboard Layer 0 (Background)
//Storyboard Layer 1 (Fail)
//Storyboard Layer 2 (Pass)
//Storyboard Layer 3 (Foreground)
//Storyboard Layer 4 (Overlay)
//Storyboard Sound Samples

[TimingPoints]
1040,306.122448979592,4,1,2,60,1,0
10835,-100,4,1,2,80,0,0
58591,-100,4,1,2,60,0,0
63488,-100,4,1,2,70,0,0
68386,-100,4,1,2,80,0,0
68540,-100,4,1,2,60,0,0
69611,-100,4,1,2,50,0,0
70529,-100,4,1,2,40,0,0
73284,-100,4,1,2,85,0,1
112468,-100,4,1,2,85,0,0
112621,-100,4,1,2,60,0,0
113693,-100,4,1,2,50,0,0
114917,-100,4,1,2,40,0,0
116142,-100,4,1,2,30,0,0
117366,-100,4,1,2,20,0,0
118591,-100,4,1,2,10,0,0

[Colours]
Combo1 : 207,211,131
Combo2 : 207,139,202
Combo3 : 164,170,167

[HitObjects]
128,352,1040,5,4,0:0:0:0:
240,304,1193,1,0,0:0:0:0:
288,192,1346,1,0,0:0:0:0:
240,80,1499,1,0,0:0:0:0:
288,80,1652,1,0,3:0:0:0:
336,192,1805,1,0,0:0:0:0:
288,304,1958,1,0,0:0:0:0:
176,352,2111,1,0,0:0:0:0:
48,352,2264,5,0,3:0:0:0:
160,304,2417,1,0,0:0:0:0:
208,192,2570,1,0,0:0:0:0:
160,80,2723,1,0,0:0:0:0:
208,80,2876,1,0,3:0:0:0:
256,192,3029,1,0,0:0:0:0:
208,304,3182,1,0,0:0:0:0:
80,336,3335,1,0,0:0:0:0:
208,352,3488,5,4,0:0:0:0:
320,304,3641,1,0,0:0:0:0:
368,192,3794,1,0,0:0:0:0:
320,80,3947,1,0,0:0:0:0:
192,80,4100,1,0,3:0:0:0:
240,192,4253,1,0,0:0:0:0:
112,208,4406,1,0,0:0:0:0:
64,304,4559,1,0,0:0:0:0:
208,352,4712,5,0,3:0:0:0:
304,304,4865,1,0,0:0:0:0:
448,288,5018,1,0,0:0:0:0:
352,256,5171,1,0,0:0:0:0:
208,208,5325,2,0,L|192:160,3,48,0|0|0|0,3:0|0:0|0:0|0:0,0:0:0:0:
272,144,5631,2,0,L|288:96,3,48
384,352,5937,5,4,0:0:0:0:
272,304,6090,1,0,0:0:0:0:
224,192,6243,1,0,0:0:0:0:
272,80,6396,1,0,0:0:0:0:
224,80,6549,1,0,3:0:0:0:
176,192,6702,1,0,0:0:0:0:
224,304,6855,1,0,0:0:0:0:
336,352,7008,1,0,0:0:0:0:
464,352,7161,5,0,3:0:0:0:
352,304,7314,1,0,0:0:0:0:
304,192,7467,1,0,0:0:0:0:
352,80,7620,1,0,0:0:0:0:
304,80,7773,1,0,3:0:0:0:
256,192,7926,1,0,0:0:0:0:
304,304,8079,1,0,0:0:0:0:
432,336,8232,1,0,0:0:0:0:
304,352,8385,5,4,0:0:0:0:
192,304,8540,1,0,0:0:0:0:
144,192,8693,1,0,0:0:0:0:
192,80,8846,1,0,0:0:0:0:
320,80,8999,1,0,3:0:0:0:
272,192,9152,1,0,0:0:0:0:
400,208,9305,1,0,0:0:0:0:
448,304,9458,1,0,0:0:0:0:
304,352,9611,5,0,3:0:0:0:
208,304,9764,1,0,0:0:0:0:
64,288,9917,1,0,0:0:0:0:
160,256,10070,1,0,0:0:0:0:
304,208,10223,2,0,L|320:160,1,48,0|0,3:0|0:0,0:0:0:0:
256,160,10376,2,0,L|240:112,1,48
400,96,10529,2,0,L|416:48,3,48
240,48,10835,5,4,0:0:0:0:
368,96,10988,2,0,L|272:96,1,96
144,96,11295,1,0,0:0:0:0:
400,144,11448,5,8,0:0:0:0:
272,192,11601,2,0,L|368:192,1,96
496,192,11908,1,0,0:0:0:0:
272,48,12060,5,0,0:0:0:0:
144,96,12213,2,0,L|240:96,1,96
368,96,12520,1,0,0:0:0:0:
112,144,12673,5,8,0:0:0:0:
240,192,12826,2,0,L|144:192,2,96
480,240,13284,5,0,0:0:0:0:
352,288,13437,2,0,L|448:288,1,96
320,240,13744,1,0,0:0:0:0:
96,224,13897,1,8,0:0:0:0:
320,160,14050,1,0,0:0:0:0:
192,112,14203,2,0,L|304:112,1,96
64,176,14509,6,0,L|192:176,1,96
288,208,14815,2,0,L|192:208,1,96
416,240,15121,1,8,0:0:0:0:
288,272,15274,2,0,L|192:272,1,96
320,208,15580,1,0,0:0:0:0:
48,160,15733,6,0,L|144:160,2,96,4|0|2,0:0|0:0|0:0,0:0:0:0:
176,112,16193,2,0,L|224:112,1,48
48,48,16346,2,0,L|160:48,2,96,0|8|2,0:0|0:0|0:0,0:0:0:0:
176,160,16805,2,0,L|128:160,1,48
288,256,16958,6,0,L|384:256,2,96,8|0|2,0:0|0:0|0:0,0:0:0:0:
416,208,17418,2,0,L|464:208,1,48
288,144,17571,2,0,L|176:144,2,96,0|8|2,0:0|0:0|0:0,0:0:0:0:
416,256,18030,2,0,L|368:256,1,48
176,288,18182,6,0,L|288:288,1,96,4|0,0:0|0:0,0:0:0:0:
400,272,18488,1,2,0:0:0:0:
272,192,18642,2,0,L|336:192,1,48
160,144,18795,2,0,L|48:144,1,96,0|8,0:0|0:0,0:0:0:0:
288,80,19101,2,0,L|400:80,1,96,2|0,0:0|0:0,0:0:0:0:
48,336,19407,6,0,L|32:224,1,96,4|0,0:0|0:0,0:0:0:0:
176,224,19636,1,0,0:0:0:0:
320,208,19713,2,0,L|304:96,1,96,4|0,0:0|0:0,0:0:0:0:
240,112,19943,1,0,0:0:0:0:
432,80,20019,6,0,L|496:80,1,48,2|0,0:0|0:0,0:0:0:0:
336,160,20172,2,0,L|400:160,1,48
240,224,20325,1,2,0:0:0:0:
195,235,20401,1,0,0:0:0:0:
176,278,20478,1,0,0:0:0:0:
198,318,20554,1,0,0:0:0:0:
384,320,20631,6,0,L|384:160,1,144,4|0,0:0|0:0,0:0:0:0:
240,176,20937,2,0,L|240:64,1,96,2|0,0:0|0:0,0:0:0:0:
16,64,21244,1,0,0:0:0:0:
240,48,21397,2,0,L|144:48,1,96,8|2,0:0|0:0,0:0:0:0:
272,96,21703,1,0,0:0:0:0:
32,240,21856,6,0,L|128:240,1,96,8|0,0:0|0:0,0:0:0:0:
256,240,22162,1,2,0:0:0:0:
480,176,22315,2,0,L|256:176,1,192,0|8,0:0|0:0,0:0:0:0:
160,128,22774,2,0,L|288:128,1,96,2|0,0:0|0:0,0:0:0:0:
480,224,23080,5,4,0:0:0:0:
352,272,23233,2,0,L|464:272,1,96,0|2,0:0|0:0,0:0:0:0:
320,224,23540,1,0,0:0:0:0:
96,192,23693,2,0,L|192:192,1,96,0|8,0:0|0:0,0:0:0:0:
416,160,23999,2,0,L|320:160,1,96,2|0,0:0|0:0,0:0:0:0:
96,256,24305,5,8,0:0:0:0:
224,224,24458,2,0,L|240:112,1,96,0|2,0:0|0:0,0:0:0:0:
368,96,24764,1,0,0:0:0:0:
240,64,24917,2,0,L|176:64,2,48,0|0|8,0:0|0:0|0:0,0:0:0:0:
304,64,25147,1,0,0:0:0:0:
160,144,25223,2,0,L|96:144,1,48,2|0,0:0|0:0,0:0:0:0:
85,104,25376,2,0,L|117:152,1,48,0|0,0:0|0:0,0:0:0:0:
272,288,25529,6,0,L|384:288,1,96,4|0,0:0|0:0,0:0:0:0:
144,240,25835,2,0,L|48:240,1,96,2|0,0:0|0:0,0:0:0:0:
272,176,26142,1,0,0:0:0:0:
48,128,26295,2,0,L|144:128,1,96,8|2,0:0|0:0,0:0:0:0:
288,96,26601,1,0,0:0:0:0:
144,48,26754,5,8,0:0:0:0:
368,48,26907,2,0,P|430:94|335:145,1,192,2|0,0:0|0:0,0:0:0:0:
224,160,27366,2,0,L|160:160,1,48
336,240,27519,2,0,L|272:240,1,48,8|0,0:0|0:0,0:0:0:0:
112,256,27672,1,2,0:0:0:0:
87,295,27748,1,0,0:0:0:0:
100,340,27825,1,0,0:0:0:0:
142,360,27901,1,0,0:0:0:0:
304,288,27978,5,4,0:0:0:0:
176,336,28131,2,0,L|288:336,1,96,0|2,0:0|0:0,0:0:0:0:
48,272,28438,1,0,0:0:0:0:
272,192,28591,2,0,L|176:192,1,96,0|8,0:0|0:0,0:0:0:0:
400,144,28897,2,0,L|496:144,1,96,2|0,0:0|0:0,0:0:0:0:
368,224,29203,5,4,0:0:0:0:
496,224,29356,1,0,0:0:0:0:
224,272,29509,2,0,B|128:272|128:272|112:208,1,144,2|0,0:0|0:0,0:0:0:0:
288,144,29815,6,0,L|400:144,1,96,2|0,0:0|0:0,0:0:0:0:
416,144,30019,2,0,L|368:144,1,32
224,144,30121,2,0,L|160:144,1,48,2|0,0:0|0:0,0:0:0:0:
320,80,30274,2,0,L|368:80,1,48
160,256,30427,5,4,0:0:0:0:
16,208,30580,2,0,L|128:208,2,96,0|2|0,0:0|0:0|0:0,0:0:0:0:
144,144,31040,1,0,0:0:0:0:
368,176,31193,2,0,L|256:176,1,96,8|2,0:0|0:0,0:0:0:0:
496,144,31499,1,0,0:0:0:0:
272,256,31652,6,0,L|176:256,1,96,8|0,0:0|0:0,0:0:0:0:
320,192,31958,2,0,L|432:192,1,96,2|0,0:0|0:0,0:0:0:0:
192,128,32264,1,0,0:0:0:0:
416,96,32417,2,0,L|320:96,2,96,8|2|0,0:0|0:0|0:0,0:0:0:0:
160,288,32876,6,0,L|96:288,1,48,4|0,0:0|0:0,0:0:0:0:
168,240,33029,1,0,0:0:0:0:
224,192,33106,2,0,L|176:192,1,48,0|2,0:0|0:0,0:0:0:0:
272,304,33335,6,0,L|208:304,1,48
280,256,33488,1,0,0:0:0:0:
336,208,33565,2,0,L|288:208,1,48,0|8,0:0|0:0,0:0:0:0:
384,320,33795,6,0,L|320:320,1,48,2|0,0:0|0:0,0:0:0:0:
392,272,33948,1,0,0:0:0:0:
448,224,34024,1,0,0:0:0:0:
304,176,34101,5,8,0:0:0:0:
176,176,34254,2,0,L|160:112,1,48
224,112,34407,1,2,0:0:0:0:
283,95,34483,2,0,L|267:31,1,48
48,112,34713,6,0,L|32:48,1,48
96,48,34866,1,8,0:0:0:0:
160,32,34943,1,0,0:0:0:0:
352,96,35019,2,0,L|368:32,1,48,2|0,0:0|0:0,0:0:0:0:
304,32,35172,1,0,0:0:0:0:
240,16,35249,1,0,0:0:0:0:
80,208,35325,5,4,0:0:0:0:
304,224,35478,2,0,L|432:224,2,96,0|2|0,0:0|0:0|0:0,0:0:0:0:
80,288,35937,1,0,0:0:0:0:
304,320,36091,1,8,0:0:0:0:
208,320,36244,1,2,0:0:0:0:
112,320,36397,1,0,0:0:0:0:
256,256,36550,5,8,0:0:0:0:
16,192,36703,2,0,L|240:192,1,192,2|0,0:0|0:0,0:0:0:0:
448,176,37162,2,0,L|368:176,1,48
240,192,37315,2,0,L|304:192,1,48,8|0,0:0|0:0,0:0:0:0:
144,240,37468,1,2,0:0:0:0:
103,262,37544,1,0,0:0:0:0:
100,308,37621,1,0,0:0:0:0:
136,337,37697,1,0,0:0:0:0:
352,288,37774,6,0,L|416:288,1,48,4|0,0:0|0:0,0:0:0:0:
344,240,37927,1,0,0:0:0:0:
288,192,38004,2,0,L|336:192,1,48,0|2,0:0|0:0,0:0:0:0:
240,304,38233,6,0,L|304:304,1,48
232,256,38386,1,0,0:0:0:0:
176,208,38463,2,0,L|224:208,1,48,0|8,0:0|0:0,0:0:0:0:
128,320,38693,6,0,L|192:320,1,48,2|0,0:0|0:0,0:0:0:0:
120,272,38846,1,0,0:0:0:0:
64,224,38922,1,0,0:0:0:0:
208,176,38999,5,0,0:0:0:0:
336,176,39152,2,0,L|352:112,1,48,8|0,0:0|0:0,0:0:0:0:
208,96,39305,2,0,L|160:96,2,32,2|0|0,0:0|0:0|0:0,0:0:0:0:
347,129,39458,2,0,L|400:128,1,48
208,224,39611,5,2,0:0:0:0:
201,255,39662,1,0,0:0:0:0:
195,286,39713,1,0,0:0:0:0:
256,288,39764,2,0,L|272:368,1,48
96,336,39917,1,2,0:0:0:0:
50,326,39993,1,0,0:0:0:0:
27,286,40070,1,0,0:0:0:0:
43,242,40146,1,0,0:0:0:0:
240,192,40223,6,0,L|256:128,1,48,4|0,0:0|0:0,0:0:0:0:
176,144,40376,2,0,L|160:80,1,48
336,144,40529,2,0,L|352:80,1,48,2|0,0:0|0:0,0:0:0:0:
416,96,40682,2,0,L|400:32,1,48
231,202,40835,6,0,L|247:138,1,48
384,144,40988,2,0,L|400:80,1,48,8|0,0:0|0:0,0:0:0:0:
240,80,41142,1,2,0:0:0:0:
194,87,41218,1,0,0:0:0:0:
173,128,41295,1,0,0:0:0:0:
194,169,41371,1,0,0:0:0:0:
384,240,41448,6,0,L|400:304,1,48,8|0,0:0|0:0,0:0:0:0:
320,288,41601,2,0,L|304:352,1,48
128,224,41754,2,0,L|144:288,1,48,2|0,0:0|0:0,0:0:0:0:
208,272,41907,2,0,L|192:336,1,48
16,336,42060,6,0,L|80:336,1,48
256,304,42213,2,0,L|272:240,1,48,8|0,0:0|0:0,0:0:0:0:
32,208,42366,2,0,L|48:272,1,48,2|0,0:0|0:0,0:0:0:0:
208,208,42519,2,0,L|272:208,1,48
448,352,42672,6,0,L|464:288,1,48,4|0,0:0|0:0,0:0:0:0:
272,288,42825,1,0,0:0:0:0:
208,272,42902,2,0,L|192:208,1,48,0|2,0:0|0:0,0:0:0:0:
64,352,43131,6,0,L|48:288,1,48
240,288,43284,1,0,0:0:0:0:
304,272,43361,2,0,L|320:208,1,48,0|8,0:0|0:0,0:0:0:0:
448,352,43591,6,0,L|432:288,1,48,2|0,0:0|0:0,0:0:0:0:
368,288,43744,1,0,0:0:0:0:
288,272,43821,2,0,L|304:208,1,48,0|8,0:0|0:0,0:0:0:0:
160,224,44050,6,0,L|176:160,1,48,2|0,0:0|0:0,0:0:0:0:
240,160,44203,1,0,0:0:0:0:
320,144,44280,2,0,L|304:80,1,48,0|8,0:0|0:0,0:0:0:0:
80,96,44509,5,0,0:0:0:0:
38,116,44585,1,0,0:0:0:0:
31,161,44662,1,8,0:0:0:0:
65,193,44738,1,0,0:0:0:0:
208,224,44815,2,0,L|272:224,3,48,2|0|0|0,0:0|0:0|0:0|0:0,0:0:0:0:
416,224,45121,6,0,L|432:160,1,48,4|0,0:0|0:0,0:0:0:0:
352,176,45274,2,0,L|336:112,1,48
192,160,45427,2,0,L|176:96,1,48,2|0,0:0|0:0,0:0:0:0:
256,112,45580,2,0,L|272:48,1,48
96,224,45733,6,0,L|80:160,1,48
224,176,45886,2,0,L|240:112,1,48,8|0,0:0|0:0,0:0:0:0:
384,128,46040,1,2,0:0:0:0:
390,81,46116,1,0,0:0:0:0:
364,43,46193,1,0,0:0:0:0:
318,33,46269,1,0,0:0:0:0:
144,304,46346,6,0,L|128:240,1,48,8|0,0:0|0:0,0:0:0:0:
208,256,46499,2,0,L|224:192,1,48
416,256,46652,2,0,L|432:192,1,48,2|0,0:0|0:0,0:0:0:0:
352,208,46805,2,0,L|336:144,1,48
192,144,46958,6,0,L|128:144,1,48
304,96,47111,2,0,L|320:32,1,48,8|0,0:0|0:0,0:0:0:0:
144,64,47264,2,0,L|160:0,1,48,2|0,0:0|0:0,0:0:0:0:
320,160,47417,2,0,L|256:160,1,48
96,208,47570,6,0,L|160:208,1,48,4|0,0:0|0:0,0:0:0:0:
288,144,47723,2,0,L|304:80,1,48
240,80,47876,1,2,0:0:0:0:
352,240,48029,6,0,L|288:240,1,48
160,176,48182,2,0,L|144:128,1,48
192,112,48335,1,8,0:0:0:0:
80,240,48488,6,0,L|32:240,1,48,2|0,0:0|0:0,0:0:0:0:
48,160,48642,2,0,L|112:160,1,48
176,144,48795,1,0,0:0:0:0:
320,144,48948,6,0,L|368:144,1,48,8|0,0:0|0:0,0:0:0:0:
208,128,49102,1,2,0:0:0:0:
201,96,49153,1,0,0:0:0:0:
195,65,49204,1,0,0:0:0:0:
256,48,49254,2,0,L|320:48,1,48
160,240,49407,5,0,0:0:0:0:
153,208,49458,1,0,0:0:0:0:
147,177,49509,1,0,0:0:0:0:
208,160,49559,2,0,L|256:160,1,48,8|0,0:0|0:0,0:0:0:0:
112,368,49713,5,2,0:0:0:0:
64,352,49790,1,0,0:0:0:0:
48,304,49866,1,0,0:0:0:0:
64,352,49943,1,0,0:0:0:0:
384,160,50019,6,0,L|384:48,1,96,4|0,0:0|0:0,0:0:0:0:
144,48,50325,1,2,0:0:0:0:
384,224,50478,2,0,L|512:224,1,96,0|8,0:0|0:0,0:0:0:0:
240,48,50784,1,2,0:0:0:0:
480,288,50937,6,0,L|384:288,1,96,0|8,0:0|0:0,0:0:0:0:
144,288,51244,1,2,0:0:0:0:
384,240,51397,2,0,L|480:240,2,96,0|8|2,0:0|0:0|0:0,0:0:0:0:
144,224,51856,6,0,L|240:224,1,96,0|8,0:0|0:0,0:0:0:0:
480,176,52162,2,0,L|368:176,1,96,2|0,0:0|0:0,0:0:0:0:
128,160,52468,6,0,L|128:48,1,96,4|0,0:0|0:0,0:0:0:0:
368,48,52774,1,2,0:0:0:0:
128,224,52927,2,0,L|0:224,1,96,0|8,0:0|0:0,0:0:0:0:
272,48,53233,1,2,0:0:0:0:
32,288,53386,6,0,L|128:288,1,96,0|8,0:0|0:0,0:0:0:0:
368,288,53693,1,2,0:0:0:0:
128,240,53846,2,0,L|32:240,2,96,0|8|2,0:0|0:0|0:0,0:0:0:0:
368,224,54305,6,0,L|272:224,1,96,0|8,0:0|0:0,0:0:0:0:
496,176,54611,2,0,L|384:176,1,96,2|0,0:0|0:0,0:0:0:0:
128,160,54917,6,0,L|32:160,1,96,4|0,0:0|0:0,0:0:0:0:
272,48,55223,1,2,0:0:0:0:
32,336,55376,2,0,L|32:224,1,96,0|8,0:0|0:0,0:0:0:0:
272,48,55682,1,2,0:0:0:0:
32,288,55835,6,0,L|128:288,1,96,0|8,0:0|0:0,0:0:0:0:
368,288,56142,1,2,0:0:0:0:
128,240,56295,2,0,L|32:240,2,96,8|0|2,0:0|0:0|0:0,0:0:0:0:
368,224,56754,6,0,L|480:224,1,96,0|8,0:0|0:0,0:0:0:0:
224,176,57060,2,0,L|112:176,1,96,2|0,0:0|0:0,0:0:0:0:
368,320,57366,6,0,L|368:192,1,96,4|0,0:0|0:0,0:0:0:0:
224,240,57570,2,0,L|224:144,1,96,8|0,0:0|0:0,0:0:0:0:
368,112,57774,2,0,L|448:112,1,64,2|0,0:0|0:0,0:0:0:0:
368,320,57978,6,0,L|368:192,1,96,8|0,0:0|0:0,0:0:0:0:
288,240,58182,2,0,L|288:144,1,96,8|0,0:0|0:0,0:0:0:0:
368,112,58386,2,0,L|448:112,1,64,2|0,0:0|0:0,0:0:0:0:
144,304,58591,5,0,3:0:0:0:
84,285,58693,1,0,0:0:0:0:
59,229,58795,1,0,0:0:0:0:
85,173,58897,1,0,0:0:0:0:
145,156,58999,1,0,0:0:0:0:
224,160,59101,1,0,0:0:0:0:
416,160,59203,5,2,0:0:0:0:
480,160,59305,1,0,0:0:0:0:
416,160,59407,1,0,0:0:0:0:
320,208,59509,2,0,L|464:208,1,128,0|8,0:0|0:0,0:0:0:0:
224,272,59815,6,0,L|64:272,1,128,8|0,0:0|0:0,0:0:0:0:
288,144,60121,1,8,0:0:0:0:
352,128,60223,1,0,0:0:0:0:
416,112,60325,1,0,0:0:0:0:
320,336,60427,5,2,0:0:0:0:
380,317,60529,1,0,0:0:0:0:
405,261,60631,1,0,0:0:0:0:
379,205,60733,1,0,0:0:0:0:
319,188,60835,1,0,0:0:0:0:
240,192,60937,1,0,0:0:0:0:
432,352,61040,5,0,3:0:0:0:
359,323,61142,1,0,0:0:0:0:
329,251,61244,1,0,0:0:0:0:
360,180,61346,1,0,0:0:0:0:
433,152,61448,1,0,0:0:0:0:
352,128,61550,1,0,0:0:0:0:
160,112,61652,5,2,0:0:0:0:
224,112,61754,1,0,0:0:0:0:
288,112,61856,1,0,0:0:0:0:
192,64,61958,2,0,L|48:64,1,128,0|8,0:0|0:0,0:0:0:0:
224,160,62264,6,0,L|368:160,1,128,8|0,0:0|0:0,0:0:0:0:
192,240,62570,2,0,L|112:240,2,64,8|0|0,0:0|0:0|0:0,0:0:0:0:
288,240,62876,2,0,L|368:240,2,64,2|0|0,0:0|0:0|0:0,0:0:0:0:
192,176,63182,1,0,0:0:0:0:
288,176,63284,1,0,0:0:0:0:
192,176,63386,1,0,0:0:0:0:
416,240,63488,5,0,3:0:0:0:
431,177,63590,1,0,0:0:0:0:
416,240,63693,1,0,0:0:0:0:
352,240,63795,1,0,0:0:0:0:
416,240,63897,1,0,0:0:0:0:
352,240,63999,1,0,0:0:0:0:
160,240,64101,5,2,0:0:0:0:
145,177,64203,1,0,0:0:0:0:
160,240,64306,1,0,0:0:0:0:
224,240,64407,2,0,L|80:240,1,128,0|8,0:0|0:0,0:0:0:0:
288,176,64713,6,0,L|432:176,1,128,8|0,0:0|0:0,0:0:0:0:
352,128,65019,1,8,0:0:0:0:
337,65,65121,1,0,0:0:0:0:
352,128,65224,1,0,0:0:0:0:
160,160,65325,6,0,L|80:160,2,64,2|0|0,0:0|0:0|0:0,0:0:0:0:
256,160,65631,2,0,L|336:160,2,64
32,320,65937,5,0,3:0:0:0:
91,301,66039,1,0,0:0:0:0:
116,245,66141,1,0,0:0:0:0:
90,189,66243,1,0,0:0:0:0:
30,172,66345,1,0,0:0:0:0:
112,144,66448,1,0,0:0:0:0:
320,320,66550,5,2,0:0:0:0:
260,301,66652,1,0,0:0:0:0:
235,245,66754,1,0,0:0:0:0:
261,189,66856,1,0,0:0:0:0:
321,172,66958,1,0,0:0:0:0:
240,144,67061,1,8,0:0:0:0:
464,304,67162,6,0,L|400:304,1,64,8|0,0:0|0:0,0:0:0:0:
304,256,67366,1,0,0:0:0:0:
400,176,67468,2,0,L|304:176,1,64,8|0,0:0|0:0,0:0:0:0:
240,176,67672,1,0,0:0:0:0:
16,304,67774,6,0,L|96:304,1,64,2|0,0:0|0:0,0:0:0:0:
176,288,67978,1,0,0:0:0:0:
336,224,68080,2,0,L|272:224,1,64
112,208,68284,1,0,0:0:0:0:
336,112,68386,5,4,0:0:0:0:
256,192,68540,12,0,70529,0:0:0:0:
112,224,70835,6,0,L|112:112,1,96
256,144,71142,2,0,L|256:32,1,96
320,80,71371,1,0,0:0:0:0:
400,224,71448,2,0,L|400:112,1,96
256,224,71754,2,0,L|256:112,1,96
192,80,71983,1,0,0:0:0:0:
368,256,72060,5,0,0:0:0:0:
409,235,72136,1,0,0:0:0:0:
416,190,72213,1,0,0:0:0:0:
382,158,72289,1,0,0:0:0:0:
304,144,72366,2,0,L|288:80,1,48
208,112,72519,2,0,L|192:48,1,48
352,96,72672,6,0,L|336:32,1,48
256,64,72825,2,0,L|240:0,1,48,8|0,0:0|0:0,0:0:0:0:
384,32,72978,1,2,0:0:0:0:
429,39,73054,1,0,0:0:0:0:
450,80,73131,1,0,0:0:0:0:
429,121,73207,1,0,0:0:0:0:
256,224,73284,6,0,L|336:224,1,48,12|0,0:0|0:0,0:0:0:0:
384,224,73437,2,0,L|432:224,1,48
240,144,73591,2,0,L|320:144,1,48,2|0,0:0|0:0,0:0:0:0:
368,144,73744,2,0,L|416:144,1,48
224,64,73897,6,0,L|304:64,1,48
448,64,74050,2,0,L|400:64,1,48,8|0,0:0|0:0,0:0:0:0:
208,144,74203,1,2,0:0:0:0:
162,145,74279,1,0,0:0:0:0:
143,186,74356,1,0,0:0:0:0:
167,224,74432,1,0,0:0:0:0:
304,240,74509,6,0,L|240:240,1,48,8|0,0:0|0:0,0:0:0:0:
176,240,74662,2,0,L|112:240,1,48
320,336,74815,2,0,L|256:336,1,48,2|0,0:0|0:0,0:0:0:0:
112,336,74968,2,0,L|64:336,1,48
256,256,75121,6,0,L|192:256,1,48
128,256,75274,2,0,L|192:256,1,48,8|0,0:0|0:0,0:0:0:0:
352,192,75427,1,2,0:0:0:0:
405,219,75503,1,0,0:0:0:0:
421,279,75580,1,0,0:0:0:0:
405,219,75656,1,0,0:0:0:0:
256,224,75733,6,0,L|176:224,1,48,8|0,0:0|0:0,0:0:0:0:
128,224,75886,2,0,L|80:224,1,48
272,144,76040,2,0,L|192:144,1,48,2|0,0:0|0:0,0:0:0:0:
144,144,76193,2,0,L|96:144,1,48
288,64,76346,6,0,L|208:64,1,48
64,64,76499,2,0,L|112:64,1,48,8|0,0:0|0:0,0:0:0:0:
304,144,76652,1,2,0:0:0:0:
350,145,76728,1,0,0:0:0:0:
369,186,76805,1,0,0:0:0:0:
341,222,76881,1,0,0:0:0:0:
192,256,76958,6,0,L|128:256,1,48,8|0,0:0|0:0,0:0:0:0:
125,211,77111,2,0,L|148:266,1,48
288,336,77264,2,0,L|336:336,1,48,2|0,0:0|0:0,0:0:0:0:
176,336,77417,2,0,L|128:336,1,48
352,256,77570,6,0,L|288:256,1,48
112,256,77723,2,0,L|160:256,1,48,8|0,0:0|0:0,0:0:0:0:
336,192,77876,1,2,0:0:0:0:
378,170,77952,1,0,0:0:0:0:
383,125,78029,1,0,0:0:0:0:
349,94,78105,1,0,0:0:0:0:
128,208,78182,6,0,L|192:208,1,48,12|0,0:0|0:0,0:0:0:0:
256,208,78335,2,0,L|336:208,1,48
496,128,78488,2,0,L|432:128,1,48,2|0,0:0|0:0,0:0:0:0:
368,128,78641,2,0,L|288:128,1,48
112,96,78795,6,0,L|176:96,1,48
304,96,78948,2,0,L|240:96,1,48,8|0,0:0|0:0,0:0:0:0:
320,128,79101,2,0,L|384:128,1,48,2|0,0:0|0:0,0:0:0:0:
224,160,79254,2,0,L|144:160,1,48
368,256,79407,6,0,L|304:256,1,48,8|0,0:0|0:0,0:0:0:0:
240,256,79560,2,0,L|160:256,1,48
384,336,79713,2,0,L|320:336,1,48,2|0,0:0|0:0,0:0:0:0:
176,336,79866,2,0,L|96:336,1,48
320,256,80019,6,0,L|256:256,1,48
192,256,80172,2,0,L|112:256,1,48,8|0,0:0|0:0,0:0:0:0:
336,192,80325,2,0,L|272:192,1,48,2|0,0:0|0:0,0:0:0:0:
208,192,80478,2,0,L|128:192,1,48
352,128,80631,5,4,0:0:0:0:
496,112,80784,1,0,0:0:0:0:
256,80,80937,1,2,0:0:0:0:
496,32,81091,1,0,0:0:0:0:
160,32,81244,1,0,0:0:0:0:
272,112,81397,2,0,L|288:144,2,32,8|0|0,0:0|0:0|0:0,0:0:0:0:
400,128,81550,2,0,L|432:256,1,96,2|0,0:0|0:0,0:0:0:0:
160,128,81856,5,4,0:0:0:0:
16,112,82009,1,0,0:0:0:0:
256,80,82162,1,2,0:0:0:0:
16,32,82316,1,0,0:0:0:0:
352,32,82469,1,0,0:0:0:0:
240,112,82622,2,0,L|224:144,2,32,8|0|0,0:0|0:0|0:0,0:0:0:0:
384,160,82775,2,0,L|480:160,1,96,2|0,0:0|0:0,0:0:0:0:
256,224,83080,6,0,L|176:224,1,48,4|0,0:0|0:0,0:0:0:0:
128,224,83233,2,0,L|80:224,1,48
272,144,83387,2,0,L|192:144,1,48,2|0,0:0|0:0,0:0:0:0:
144,144,83540,2,0,L|96:144,1,48
288,64,83693,6,0,L|208:64,1,48
64,64,83846,2,0,L|112:64,1,48,8|0,0:0|0:0,0:0:0:0:
304,144,83999,1,2,0:0:0:0:
350,145,84075,1,0,0:0:0:0:
369,186,84152,1,0,0:0:0:0:
345,222,84228,1,0,0:0:0:0:
208,240,84305,6,0,L|272:240,1,48,8|0,0:0|0:0,0:0:0:0:
336,240,84458,2,0,L|400:240,1,48
192,336,84611,2,0,L|256:336,1,48,2|0,0:0|0:0,0:0:0:0:
400,336,84764,2,0,L|448:336,1,48
256,256,84917,6,0,L|320:256,1,48
384,256,85070,2,0,L|320:256,1,48,8|0,0:0|0:0,0:0:0:0:
160,176,85223,2,0,L|240:176,1,48,2|0,0:0|0:0,0:0:0:0:
384,160,85376,2,0,L|336:160,1,48
144,240,85529,6,0,L|224:240,1,48,8|0,0:0|0:0,0:0:0:0:
272,240,85682,2,0,L|320:240,1,48
128,160,85836,2,0,L|208:160,1,48,2|0,0:0|0:0,0:0:0:0:
256,160,85989,2,0,L|304:160,1,48
112,80,86142,6,0,L|192:80,1,48
336,80,86295,2,0,L|288:80,1,48,8|0,0:0|0:0,0:0:0:0:
96,144,86448,1,2,0:0:0:0:
50,145,86524,1,0,0:0:0:0:
31,186,86601,1,0,0:0:0:0:
59,222,86677,1,0,0:0:0:0:
240,240,86754,6,0,L|288:240,1,48,8|0,0:0|0:0,0:0:0:0:
368,240,86907,2,0,L|432:240,1,48
224,336,87060,2,0,L|176:336,1,48,2|0,0:0|0:0,0:0:0:0:
336,336,87213,2,0,L|384:336,1,48
160,256,87366,6,0,L|224:256,1,48
400,256,87519,2,0,L|352:256,1,48,8|0,0:0|0:0,0:0:0:0:
176,192,87672,1,2,0:0:0:0:
134,170,87748,1,0,0:0:0:0:
129,125,87825,1,0,0:0:0:0:
163,94,87901,1,0,0:0:0:0:
384,208,87978,6,0,L|320:208,1,48,12|0,0:0|0:0,0:0:0:0:
256,208,88131,2,0,L|176:208,1,48
16,128,88284,2,0,L|80:128,1,48,2|0,0:0|0:0,0:0:0:0:
144,128,88437,2,0,L|224:128,1,48
400,96,88591,6,0,L|336:96,1,48
208,96,88744,2,0,L|272:96,1,48,8|0,0:0|0:0,0:0:0:0:
192,128,88897,2,0,L|128:128,1,48,2|0,0:0|0:0,0:0:0:0:
288,160,89050,2,0,L|368:160,1,48
144,256,89203,6,0,L|208:256,1,48,8|0,0:0|0:0,0:0:0:0:
272,256,89356,2,0,L|352:256,1,48
128,336,89509,2,0,L|192:336,1,48,2|0,0:0|0:0,0:0:0:0:
336,336,89662,2,0,L|416:336,1,48
192,256,89815,6,0,L|256:256,1,48
320,256,89968,2,0,L|400:256,1,48,8|0,0:0|0:0,0:0:0:0:
176,192,90121,2,0,L|240:192,1,48,2|0,0:0|0:0,0:0:0:0:
304,192,90274,2,0,L|384:192,1,48
160,128,90427,5,4,0:0:0:0:
16,112,90580,1,0,0:0:0:0:
256,80,90733,1,2,0:0:0:0:
16,32,90887,1,0,0:0:0:0:
352,32,91040,1,0,0:0:0:0:
240,112,91193,2,0,L|224:144,2,32,8|0|0,0:0|0:0|0:0,0:0:0:0:
112,128,91346,2,0,L|80:256,1,96,2|0,0:0|0:0,0:0:0:0:
352,128,91652,5,4,0:0:0:0:
496,112,91805,1,0,0:0:0:0:
256,80,91958,1,2,0:0:0:0:
496,32,92111,1,0,0:0:0:0:
208,32,92264,1,0,0:0:0:0:
352,32,92417,1,8,0:0:0:0:
80,160,92570,1,2,0:0:0:0:
352,224,92723,1,0,0:0:0:0:
80,288,92876,6,0,L|16:288,1,48,4|0,0:0|0:0,0:0:0:0:
208,208,93029,2,0,L|144:208,1,48
80,208,93182,2,0,L|16:208,1,48,2|0,0:0|0:0,0:0:0:0:
208,160,93335,6,0,L|272:160,1,48,8|0,0:0|0:0,0:0:0:0:
80,80,93488,2,0,L|144:80,1,48
208,80,93642,2,0,L|272:80,1,48,2|0,0:0|0:0,0:0:0:0:
432,272,93795,6,0,L|496:272,1,48,8|0,0:0|0:0,0:0:0:0:
304,192,93948,2,0,L|368:192,1,48
432,192,94101,2,0,L|496:192,1,48,2|0,0:0|0:0,0:0:0:0:
304,160,94254,6,0,L|240:160,1,48,8|0,0:0|0:0,0:0:0:0:
432,80,94407,2,0,L|368:80,1,48
304,80,94560,2,0,L|240:80,1,48,2|0,0:0|0:0,0:0:0:0:
96,256,94713,5,8,0:0:0:0:
140,244,94790,1,0,0:0:0:0:
161,202,94866,1,0,0:0:0:0:
143,159,94943,1,0,0:0:0:0:
100,144,95019,1,2,0:0:0:0:
36,144,95096,1,0,0:0:0:0:
256,288,95172,6,0,L|256:80,1,192,4|8,0:0|0:0,0:0:0:0:
480,128,95631,2,0,L|368:128,1,96,2|0,0:0|0:0,0:0:0:0:
256,128,95937,2,0,L|368:128,1,96,0|8,0:0|0:0,0:0:0:0:
128,128,96244,2,0,L|32:128,1,96,2|0,0:0|0:0,0:0:0:0:
160,128,96550,6,0,L|288:128,1,96,8|0,0:0|0:0,0:0:0:0:
480,128,96856,2,0,L|368:128,1,96,2|0,0:0|0:0,0:0:0:0:
256,128,97162,2,0,L|368:128,1,96,0|8,0:0|0:0,0:0:0:0:
128,128,97468,2,0,L|96:176,2,48,2|0|0,0:0|0:0|0:0,0:0:0:0:
192,128,97698,1,0,0:0:0:0:
432,288,97774,6,0,L|496:288,1,48,4|0,0:0|0:0,0:0:0:0:
304,208,97927,2,0,L|368:208,1,48
432,208,98080,2,0,L|496:208,1,48,2|0,0:0|0:0,0:0:0:0:
304,160,98233,6,0,L|240:160,1,48,8|0,0:0|0:0,0:0:0:0:
432,80,98386,2,0,L|496:80,1,48
304,80,98539,2,0,L|240:80,1,48,2|0,0:0|0:0,0:0:0:0:
80,272,98693,6,0,L|16:272,1,48,4|0,0:0|0:0,0:0:0:0:
208,192,98846,2,0,L|272:192,1,48
80,192,98999,2,0,L|16:192,1,48,2|0,0:0|0:0,0:0:0:0:
256,144,99152,6,0,L|320:144,1,48,8|0,0:0|0:0,0:0:0:0:
128,64,99305,2,0,L|192:64,1,48
256,64,99458,2,0,L|320:64,1,48,2|0,0:0|0:0,0:0:0:0:
128,320,99611,5,8,0:0:0:0:
84,308,99688,1,0,0:0:0:0:
63,266,99764,1,0,0:0:0:0:
81,223,99841,1,0,0:0:0:0:
124,208,99917,1,2,0:0:0:0:
188,208,99994,1,0,0:0:0:0:
400,176,100070,6,0,L|192:176,1,192,4|8,0:0|0:0,0:0:0:0:
432,112,100529,2,0,L|448:16,1,96,2|0,0:0|0:0,0:0:0:0:
192,112,100835,2,0,L|176:16,1,96,0|8,0:0|0:0,0:0:0:0:
320,112,101142,2,0,L|336:16,1,96,2|0,0:0|0:0,0:0:0:0:
64,176,101448,6,0,L|48:240,1,48,8|0,0:0|0:0,0:0:0:0:
128,224,101601,2,0,L|144:288,1,48
320,240,101754,2,0,L|336:304,1,48,2|0,0:0|0:0,0:0:0:0:
256,288,101907,2,0,L|240:352,1,48
432,336,102060,5,0,0:0:0:0:
448,292,102136,1,0,0:0:0:0:
427,250,102213,1,8,0:0:0:0:
383,236,102289,1,0,0:0:0:0:
304,192,102366,2,0,L|368:192,1,48,2|0,0:0|0:0,0:0:0:0:
432,192,102519,2,0,L|384:192,1,48
176,128,102672,6,0,L|224:128,1,48,4|0,0:0|0:0,0:0:0:0:
416,112,102825,2,0,L|352:112,1,48
288,96,102978,2,0,L|240:96,1,48,2|0,0:0|0:0,0:0:0:0:
64,192,103131,6,0,L|112:192,1,48,8|0,0:0|0:0,0:0:0:0:
304,176,103284,2,0,L|240:176,1,48
176,160,103437,2,0,L|128:160,1,48,2|0,0:0|0:0,0:0:0:0:
336,128,103591,6,0,L|288:128,1,48,8|0,0:0|0:0,0:0:0:0:
96,112,103744,2,0,L|160:112,1,48
224,96,103897,2,0,L|272:96,1,48,2|0,0:0|0:0,0:0:0:0:
448,176,104050,6,0,L|400:176,1,48,8|0,0:0|0:0,0:0:0:0:
208,160,104203,2,0,L|272:160,1,48
336,144,104356,2,0,L|384:144,1,48,2|0,0:0|0:0,0:0:0:0:
192,256,104509,6,0,L|144:208,2,48,8|0|0,0:0|0:0|0:0,0:0:0:0:
256,256,104738,2,0,L|304:208,2,48,0|2|0,0:0|0:0|0:0,0:0:0:0:
32,320,104968,6,0,L|32:128,1,192,4|8,0:0|0:0,0:0:0:0:
256,128,105427,2,0,L|368:128,1,96,2|0,0:0|0:0,0:0:0:0:
224,144,105733,2,0,L|112:144,1,96,0|8,0:0|0:0,0:0:0:0:
352,224,106040,2,0,L|256:224,1,96,2|0,0:0|0:0,0:0:0:0:
384,176,106346,6,0,L|480:176,1,96,8|0,0:0|0:0,0:0:0:0:
256,128,106652,2,0,L|144:128,1,96,2|0,0:0|0:0,0:0:0:0:
288,144,106958,2,0,L|400:144,1,96,0|8,0:0|0:0,0:0:0:0:
160,208,107264,1,2,0:0:0:0:
114,210,107340,1,0,0:0:0:0:
96,251,107417,1,0,0:0:0:0:
125,286,107493,1,0,0:0:0:0:
336,128,107570,6,0,L|256:128,1,48,4|0,0:0|0:0,0:0:0:0:
96,112,107723,2,0,L|160:112,1,48
224,96,107876,2,0,L|272:96,1,48,2|0,0:0|0:0,0:0:0:0:
448,192,108029,6,0,L|400:192,1,48,8|0,0:0|0:0,0:0:0:0:
208,176,108182,2,0,L|272:176,1,48
448,160,108335,2,0,L|400:160,1,48,2|0,0:0|0:0,0:0:0:0:
96,176,108489,6,0,L|144:176,1,48,4|0,0:0|0:0,0:0:0:0:
336,160,108642,2,0,L|272:160,1,48
96,128,108795,2,0,L|144:128,1,48,2|0,0:0|0:0,0:0:0:0:
448,208,108948,6,0,L|400:208,1,48,8|0,0:0|0:0,0:0:0:0:
208,192,109101,2,0,L|272:192,1,48
336,176,109254,2,0,L|384:176,1,48,2|0,0:0|0:0,0:0:0:0:
208,288,109407,6,0,L|160:240,2,48,8|0|0,0:0|0:0|0:0,0:0:0:0:
272,288,109636,2,0,L|320:240,2,48,0|2|0,0:0|0:0|0:0,0:0:0:0:
64,320,109866,6,0,L|256:320,1,192,4|8,0:0|0:0,0:0:0:0:
32,256,110325,2,0,L|16:144,1,96,2|0,0:0|0:0,0:0:0:0:
304,128,110631,2,0,L|192:128,1,96,0|8,0:0|0:0,0:0:0:0:
336,128,110937,2,0,L|352:16,1,96,2|0,0:0|0:0,0:0:0:0:
96,160,111244,6,0,L|80:240,1,48,8|0,0:0|0:0,0:0:0:0:
160,208,111397,2,0,L|176:288,1,48
320,256,111550,2,0,L|336:336,1,48,2|0,0:0|0:0,0:0:0:0:
256,304,111703,2,0,L|240:384,1,48
416,96,111856,6,0,L|432:176,1,48
352,144,112009,2,0,L|336:224,1,48,8|0,0:0|0:0,0:0:0:0:
208,192,112162,2,0,L|192:272,1,48,2|0,0:0|0:0,0:0:0:0:
272,240,112315,2,0,L|288:320,1,48
96,176,112468,5,4,0:0:0:0:
256,192,112621,12,0,119815,0:0:0:0:
