osu file format v14

[General]
AudioFilename: audio.mp3
AudioLeadIn: 0
PreviewTime: 72983
Countdown: 0
SampleSet: Normal
StackLeniency: 0.7
Mode: 1
LetterboxInBreaks: 0
WidescreenStoryboard: 1

[Editor]
Bookmarks: 10840,20636,92881
DistanceSpacing: 2
BeatDivisor: 4
GridSize: 32
TimelineZoom: 2.4

[Metadata]
Title:Chrono Diver -PENDULUMs-
TitleUnicode:Chrono Diver -PENDULUMs-
Artist:Nekomata L.E.D.Master+
ArtistUnicode:猫叉L.E.D.Master+
Creator:L y s
Version:Kantan
Source:beatmania IIDX 22 PENDUAL
Tags:Toshiyuki Kakuta Naoyuki Sato 4th KONAMI Arcade Championship IIDX CHRONO BREAKS SDVX POLICY BREAK
BeatmapID:1704323
BeatmapSetID:812548

[Difficulty]
HPDrainRate:7
CircleSize:4
OverallDifficulty:4
ApproachRate:4
SliderMultiplier:1.4
SliderTickRate:1

[Events]
//Background and Video events
0,0,"Chrono Diver -PENDULUMs-.png",0,0
//Break Periods
//Storyboard Layer 0 (Background)
//Storyboard Layer 1 (Fail)
//Storyboard Layer 2 (Pass)
//Storyboard Layer 3 (Foreground)
//Storyboard Layer 4 (Overlay)
//Storyboard Sound Samples

[TimingPoints]
1045,306.122448979592,4,1,0,100,1,0
50024,-100,4,1,0,100,0,1
58596,-100,4,1,0,100,0,0
73289,-100,4,1,0,100,0,1
112473,-100,4,1,0,100,0,0
115254,-105.263157894737,4,1,0,100,0,0
115611,-111.111111111111,4,1,0,100,0,0
116019,-117.64705882353,4,1,0,100,0,0
116504,-125,4,1,0,100,0,0
116988,-133.333333333333,4,1,0,100,0,0
117524,-142.857142857143,4,1,0,100,0,0
118111,-153.846153846154,4,1,0,100,0,0
118902,-166.666666666667,4,1,0,100,0,0
119820,-200,4,1,0,100,0,0

[HitObjects]
256,192,1045,5,8,0:0:0:0:
256,192,1657,1,8,0:0:0:0:
256,192,2269,1,8,0:0:0:0:
256,192,2881,1,8,0:0:0:0:
256,192,3493,1,8,0:0:0:0:
256,192,4106,1,8,0:0:0:0:
256,192,4718,1,8,0:0:0:0:
256,192,5942,1,8,0:0:0:0:
256,192,6555,1,8,0:0:0:0:
256,192,7167,1,8,0:0:0:0:
256,192,7779,1,8,0:0:0:0:
256,192,8391,1,8,0:0:0:0:
256,192,9004,1,8,0:0:0:0:
256,192,9616,1,8,0:0:0:0:
256,192,10840,1,0,0:0:0:0:
256,192,11453,1,0,0:0:0:0:
256,192,12065,1,0,0:0:0:0:
256,192,12677,1,0,0:0:0:0:
256,192,13289,1,0,0:0:0:0:
256,192,13902,1,0,0:0:0:0:
256,192,14514,1,0,0:0:0:0:
256,192,15738,1,0,0:0:0:0:
256,192,16351,1,0,0:0:0:0:
256,192,16963,1,0,0:0:0:0:
256,192,17575,1,0,0:0:0:0:
256,192,18187,1,0,0:0:0:0:
256,192,18800,1,0,0:0:0:0:
256,192,19412,1,0,0:0:0:0:
256,192,20636,1,4,0:0:0:0:
256,192,21555,1,8,0:0:0:0:
256,192,21861,1,0,0:0:0:0:
256,192,22167,1,0,0:0:0:0:
256,192,22779,1,8,0:0:0:0:
256,192,23085,1,0,0:0:0:0:
256,192,23391,1,0,0:0:0:0:
256,192,24004,1,8,0:0:0:0:
256,192,24310,1,0,0:0:0:0:
256,192,24616,1,0,0:0:0:0:
256,192,25534,1,0,0:0:0:0:
256,192,26147,1,0,0:0:0:0:
256,192,26759,1,0,0:0:0:0:
256,192,27983,1,0,0:0:0:0:
256,192,28596,1,0,0:0:0:0:
256,192,29208,1,0,0:0:0:0:
256,192,30432,1,0,0:0:0:0:
256,192,30738,1,0,0:0:0:0:
256,192,31045,1,0,0:0:0:0:
256,192,31657,1,0,0:0:0:0:
256,192,31963,1,0,0:0:0:0:
256,192,32269,1,0,0:0:0:0:
256,192,32881,2,0,L|32:192,4,210
256,192,35330,1,0,0:0:0:0:
256,192,35636,1,0,0:0:0:0:
256,192,35942,1,0,0:0:0:0:
256,192,36555,1,0,0:0:0:0:
256,192,36861,1,0,0:0:0:0:
256,192,37167,1,0,0:0:0:0:
256,192,37779,2,0,L|32:192,4,210
256,192,40228,1,0,0:0:0:0:
256,192,40534,1,0,0:0:0:0:
256,192,40840,1,0,0:0:0:0:
256,192,41453,1,0,0:0:0:0:
256,192,41759,1,0,0:0:0:0:
256,192,42065,1,0,0:0:0:0:
256,192,42677,2,0,L|32:192,4,210
256,192,45126,1,0,0:0:0:0:
256,192,45432,1,0,0:0:0:0:
256,192,45738,1,0,0:0:0:0:
256,192,46351,1,0,0:0:0:0:
256,192,46657,1,0,0:0:0:0:
256,192,46963,1,0,0:0:0:0:
256,192,47575,2,0,L|32:192,4,210
256,192,50024,1,12,0:0:0:0:
256,192,50483,1,12,0:0:0:0:
256,192,50942,1,12,0:0:0:0:
256,192,51402,1,12,0:0:0:0:
256,192,51861,1,12,0:0:0:0:
256,192,52473,1,12,0:0:0:0:
256,192,52932,1,12,0:0:0:0:
256,192,53391,1,12,0:0:0:0:
256,192,53851,1,12,0:0:0:0:
256,192,54310,1,12,0:0:0:0:
256,192,54922,1,12,0:0:0:0:
256,192,55381,1,12,0:0:0:0:
256,192,55840,1,12,0:0:0:0:
256,192,56300,1,12,0:0:0:0:
256,192,56759,1,12,0:0:0:0:
256,192,57371,2,0,L|96:192,3,140
256,192,58596,5,0,0:0:0:0:
256,192,60432,1,0,0:0:0:0:
256,192,60738,1,0,0:0:0:0:
256,192,61045,1,8,0:0:0:0:
256,192,62269,1,8,0:0:0:0:
256,192,63493,1,0,0:0:0:0:
256,192,63800,1,0,0:0:0:0:
256,192,64106,1,0,0:0:0:0:
256,192,64718,1,0,0:0:0:0:
256,192,65024,1,0,0:0:0:0:
256,192,65330,1,0,0:0:0:0:
256,192,65942,1,8,0:0:0:0:
256,192,66249,1,8,0:0:0:0:
256,192,66555,1,8,0:0:0:0:
256,192,67167,1,8,0:0:0:0:
256,192,67473,1,8,0:0:0:0:
256,192,67779,1,8,0:0:0:0:
256,192,68391,1,12,0:0:0:0:
256,192,69616,1,8,0:0:0:0:
256,192,70840,1,8,0:0:0:0:
256,192,72065,1,8,0:0:0:0:
256,192,72983,1,0,0:0:0:0:
256,192,73289,1,0,0:0:0:0:
256,192,73902,1,0,0:0:0:0:
256,192,74514,1,8,0:0:0:0:
256,192,75126,1,0,0:0:0:0:
256,192,75432,1,0,0:0:0:0:
256,192,75738,1,8,0:0:0:0:
256,192,76351,1,8,0:0:0:0:
256,192,76657,1,8,0:0:0:0:
256,192,76963,1,0,0:0:0:0:
256,192,77575,1,8,0:0:0:0:
256,192,78187,1,0,0:0:0:0:
256,192,78800,1,0,0:0:0:0:
256,192,79106,1,0,0:0:0:0:
256,192,79412,1,0,0:0:0:0:
256,192,80024,1,8,0:0:0:0:
256,192,80636,2,0,L|96:192,6,140
256,192,83085,1,0,0:0:0:0:
256,192,83698,1,0,0:0:0:0:
256,192,84004,1,0,0:0:0:0:
256,192,84310,1,0,0:0:0:0:
256,192,84922,1,8,0:0:0:0:
256,192,85534,1,8,0:0:0:0:
256,192,86147,1,8,0:0:0:0:
256,192,86453,1,8,0:0:0:0:
256,192,86759,1,8,0:0:0:0:
256,192,87371,1,8,0:0:0:0:
256,192,87983,1,0,0:0:0:0:
256,192,88289,1,0,0:0:0:0:
256,192,88596,1,0,0:0:0:0:
256,192,89208,1,8,0:0:0:0:
256,192,89514,1,8,0:0:0:0:
256,192,89820,1,8,0:0:0:0:
256,192,90432,2,0,L|96:192,6,140
256,192,92881,1,12,0:0:0:0:
256,192,93340,1,12,0:0:0:0:
256,192,93800,1,12,0:0:0:0:
256,192,94259,1,12,0:0:0:0:
256,192,94718,1,12,0:0:0:0:
256,192,95330,1,0,0:0:0:0:
256,192,95942,1,0,0:0:0:0:
256,192,96555,1,0,0:0:0:0:
256,192,96861,1,0,0:0:0:0:
256,192,97167,1,0,0:0:0:0:
256,192,97779,1,12,0:0:0:0:
256,192,98238,1,12,0:0:0:0:
256,192,98698,1,12,0:0:0:0:
256,192,99157,1,12,0:0:0:0:
256,192,99616,1,12,0:0:0:0:
256,192,100228,1,0,0:0:0:0:
256,192,100840,1,0,0:0:0:0:
256,192,101453,1,8,0:0:0:0:
256,192,101759,1,8,0:0:0:0:
256,192,102065,1,8,0:0:0:0:
256,192,102677,1,12,0:0:0:0:
256,192,103136,1,12,0:0:0:0:
256,192,103596,1,12,0:0:0:0:
256,192,104055,1,12,0:0:0:0:
256,192,104514,1,12,0:0:0:0:
256,192,105126,1,0,0:0:0:0:
256,192,105738,1,0,0:0:0:0:
256,192,106351,1,0,0:0:0:0:
256,192,106657,1,0,0:0:0:0:
256,192,106963,1,0,0:0:0:0:
256,192,107575,1,12,0:0:0:0:
256,192,108034,1,12,0:0:0:0:
256,192,108493,1,12,0:0:0:0:
256,192,108953,1,12,0:0:0:0:
256,192,109412,1,12,0:0:0:0:
256,192,110024,1,0,0:0:0:0:
256,192,110636,1,0,0:0:0:0:
256,192,111249,1,8,0:0:0:0:
256,192,111555,1,8,0:0:0:0:
256,192,111861,1,8,0:0:0:0:
256,192,112473,12,0,114310,0:0:0:0:
256,192,114922,5,8,0:0:0:0:
256,192,115254,5,8,0:0:0:0:
256,192,115611,1,8,0:0:0:0:
256,192,116019,1,8,0:0:0:0:
256,192,116504,1,8,0:0:0:0:
256,192,116988,1,8,0:0:0:0:
256,192,117524,1,8,0:0:0:0:
256,192,118111,1,8,0:0:0:0:
256,192,118902,1,8,0:0:0:0:
256,192,119820,1,12,0:0:0:0:
