osu file format v14

[General]
AudioFilename: audio.mp3
AudioLeadIn: 0
PreviewTime: 77486
Countdown: 0
SampleSet: Soft
StackLeniency: 0.7
Mode: 3
LetterboxInBreaks: 0
SpecialStyle: 0
WidescreenStoryboard: 1

[Editor]
Bookmarks: 1817,14046,26276,40034,64492,78250,102709,111970
DistanceSpacing: 1.1
BeatDivisor: 4
GridSize: 8
TimelineZoom: 2.4

[Metadata]
Title:AsiaN distractive
TitleUnicode:AsiaN distractive
Artist:Nekomata Gekidan
ArtistUnicode:猫叉劇団
Creator:_Stan
Version:Normal
Source:beatmania IIDX 24 SINOBUZ
Tags:BEMANI KONAMI video game instrumental -H_i_k_a_r_i- Critical_Star Leniane famoss
BeatmapID:2245485
BeatmapSetID:1070605

[Difficulty]
HPDrainRate:7
CircleSize:7
OverallDifficulty:7
ApproachRate:5
SliderMultiplier:1.4
SliderTickRate:1

[Events]
//Background and Video events
0,0,"bg.jpg",0,0
//Break Periods
//Storyboard Layer 0 (Background)
//Storyboard Layer 1 (Fail)
//Storyboard Layer 2 (Pass)
//Storyboard Layer 3 (Foreground)
//Storyboard Layer 4 (Overlay)
//Storyboard Sound Samples
Sample,1053,0,"tom01.wav",70
Sample,1148,0,"tom01.wav",70
Sample,1244,0,"tom02.wav",70
Sample,1339,0,"tom02.wav",70
Sample,1435,0,"tom03.wav",70
Sample,1531,0,"tom03.wav",70
Sample,1626,0,"tom04.wav",70
Sample,1722,0,"tom04.wav",70
Sample,3728,0,"tom01.wav",70
Sample,3855,0,"tom01.wav",70
Sample,3983,0,"tom01.wav",70
Sample,4238,0,"tom02.wav",70
Sample,4365,0,"tom03.wav",70
Sample,4620,0,"tom04.wav",70
Sample,4747,0,"tom04.wav",70
Sample,7359,0,"tom03.wav",70
Sample,7422,0,"tom03.wav",70
Sample,7486,0,"tom04.wav",70
Sample,10416,0,"tom03.wav",70
Sample,10511,0,"tom03.wav",70
Sample,13473,0,"tom03.wav",70
Sample,13569,0,"tom03.wav",70
Sample,13855,0,"tom04.wav",70
Sample,13951,0,"tom04.wav",70
Sample,23983,0,"ride02.wav",70
Sample,24365,0,"ride02.wav",70
Sample,24747,0,"ride02.wav",70
Sample,25129,0,"ride02.wav",70
Sample,27422,0,"ride01.wav",70
Sample,28951,0,"ride02.wav",70
Sample,30480,0,"ride01.wav",70
Sample,32390,0,"cymbal.wav",70
Sample,33537,0,"ride01.wav",70
Sample,35066,0,"ride02.wav",70
Sample,36594,0,"ride01.wav",70
Sample,38123,0,"ride02.wav",70
Sample,38887,0,"ride02.wav",70
Sample,39269,0,"ride01.wav",70
Sample,39652,0,"ride02.wav",70
Sample,39843,0,"ride01.wav",70
Sample,40416,0,"clap.wav",70
Sample,41180,0,"clap.wav",70
Sample,41945,0,"clap.wav",70
Sample,42709,0,"clap.wav",70
Sample,43473,0,"clap.wav",70
Sample,44238,0,"clap.wav",70
Sample,45002,0,"clap.wav",70
Sample,45766,0,"clap.wav",70
Sample,46531,0,"clap.wav",70
Sample,47295,0,"clap.wav",70
Sample,48059,0,"clap.wav",70
Sample,48824,0,"clap.wav",70
Sample,49588,0,"clap.wav",70
Sample,50352,0,"clap.wav",70
Sample,51117,0,"clap.wav",70
Sample,52645,0,"clap.wav",70
Sample,53410,0,"clap.wav",70
Sample,54174,0,"clap.wav",70
Sample,54938,0,"clap.wav",70
Sample,55703,0,"clap.wav",70
Sample,56467,0,"clap.wav",70
Sample,57231,0,"clap.wav",70
Sample,57996,0,"clap.wav",70
Sample,58760,0,"clap.wav",70
Sample,59524,0,"clap.wav",70
Sample,60288,0,"clap.wav",70
Sample,61053,0,"clap.wav",70
Sample,61817,0,"clap.wav",70
Sample,62581,0,"clap.wav",70
Sample,63346,0,"clap.wav",70
Sample,73664,0,"ride02.wav",70
Sample,75193,0,"ride02.wav",70
Sample,83218,0,"clap.wav",70
Sample,83983,0,"clap.wav",70
Sample,90097,0,"clap.wav",70
Sample,95448,0,"clap.wav",70
Sample,96212,0,"clap.wav",70
Sample,104620,0,"tom01.wav",70
Sample,104747,0,"tom01.wav",70
Sample,104874,0,"tom01.wav",70
Sample,105129,0,"tom02.wav",70
Sample,105257,0,"tom03.wav",70
Sample,105511,0,"tom04.wav",70
Sample,105639,0,"tom04.wav",70
Sample,108301,0,"tom02.wav",70
Sample,108368,0,"tom03.wav",70
Sample,108435,0,"tom04.wav",70
Sample,111743,0,"tom04.wav",70
Sample,111857,0,"tom04.wav",70

[TimingPoints]
289,382.165605095541,4,2,1,80,1,0
78250,-100,4,2,1,80,0,1
102709,-100,4,2,1,80,0,0
107295,402.684563758389,4,2,1,80,1,0
107295,-95.2380952380952,4,2,1,80,0,0
108905,425.531914893617,4,2,1,80,1,0
108905,-90.0900900900901,4,2,1,80,0,0
110607,454.545454545455,4,2,1,80,1,0
110607,-84.0336134453782,4,2,1,80,0,0
111970,382.165605095541,4,2,1,80,1,0

[HitObjects]
36,192,1817,5,2,0:0:0:0:
256,192,1817,1,4,0:0:0:0:
475,192,1817,1,0,0:0:0:0:
329,192,2390,1,0,0:0:0:0:
475,192,2581,1,0,0:0:0:0:
182,192,3155,1,0,0:0:0:0:
329,192,3346,1,0,0:0:0:0:
36,192,3919,1,0,0:0:0:0:
182,192,4110,128,0,4492:0:0:0:70:tom02.wav
329,192,4492,128,0,4874:0:0:0:70:tom03.wav
36,192,4874,1,2,0:0:0:0:
475,192,4874,1,0,0:0:0:70:LR_CymbalQST.wav
109,192,5639,1,0,0:0:0:0:
256,192,6021,1,0,0:0:0:0:
402,192,6403,1,0,0:0:0:0:
182,192,6785,1,0,0:0:0:0:
329,192,7167,1,2,0:0:0:0:
475,192,7167,1,0,0:0:0:70:cymbal.wav
36,192,7550,1,2,0:0:0:0:
182,192,7550,1,0,0:0:0:70:LR_CymbalQST.wav
182,192,8696,1,0,0:0:0:0:
329,192,9078,1,0,0:0:0:0:
182,192,9460,1,0,0:0:0:0:
329,192,9843,1,0,0:0:0:0:
36,192,10225,1,2,0:0:0:0:
475,192,10225,1,0,0:0:0:70:cymbal.wav
182,192,10607,1,2,0:0:0:0:
329,192,10607,1,0,0:0:0:70:LR_CymbalQST.wav
182,192,12136,1,0,0:0:0:0:
256,192,12518,1,0,0:0:0:0:
329,192,12900,1,0,0:0:0:0:
36,192,13282,1,2,0:0:0:0:
475,192,13282,1,0,0:0:0:70:cymbal.wav
182,192,13664,1,2,0:0:0:0:
329,192,13664,1,0,0:0:0:70:LR_CymbalQST.wav
36,192,14046,1,2,0:0:0:0:
256,192,14046,1,4,0:0:0:0:
475,192,14046,1,0,0:0:0:0:
402,192,14429,1,2,0:0:0:0:
256,192,14620,1,2,0:0:0:0:
109,192,14811,1,2,0:0:0:0:
329,192,15193,1,2,0:0:0:0:
182,192,15384,1,2,0:0:0:0:
36,192,15575,1,2,0:0:0:0:
475,192,15575,1,0,0:0:0:70:LR_CymbalQST.wav
402,192,15957,1,2,0:0:0:0:
109,192,16148,1,2,0:0:0:0:
256,192,16339,1,2,0:0:0:0:
36,192,16722,1,2,0:0:0:0:
475,192,16722,1,0,0:0:0:70:cymbal.wav
402,192,17104,1,2,0:0:0:0:
109,192,17486,1,2,0:0:0:0:
256,192,17677,1,2,0:0:0:0:
402,192,17868,1,2,0:0:0:0:
36,192,18250,1,2,0:0:0:0:
182,192,18441,1,2,0:0:0:0:
329,192,18632,1,2,0:0:0:0:
402,192,19015,1,2,0:0:0:0:
256,192,19206,1,2,0:0:0:0:
36,192,19397,1,2,0:0:0:0:
109,192,19397,1,0,0:0:0:70:cymbal.wav
402,192,19779,1,2,0:0:0:0:
475,192,19779,1,0,0:0:0:70:cymbal.wav
36,192,20161,1,2,0:0:0:0:
256,192,20161,1,0,0:0:0:0:
402,192,20543,1,2,0:0:0:0:
36,192,20734,1,2,0:0:0:0:
182,192,20925,1,2,0:0:0:0:
402,192,21308,1,2,0:0:0:0:
109,192,21499,1,2,0:0:0:0:
256,192,21690,1,2,0:0:0:0:
475,192,22072,1,2,0:0:0:0:
182,192,22263,1,2,0:0:0:0:
329,192,22454,1,2,0:0:0:0:
475,192,22454,1,0,0:0:0:70:cymbal.wav
36,192,22836,1,2,0:0:0:0:
182,192,22836,1,0,0:0:0:70:LR_CymbalQST.wav
402,192,23218,1,2,0:0:0:0:
329,192,23601,1,2,0:0:0:0:
109,192,23792,1,2,0:0:0:0:
402,192,23983,1,2,0:0:0:0:
36,192,24365,1,2,0:0:0:0:
182,192,24556,1,2,0:0:0:0:
329,192,24747,1,2,0:0:0:0:
256,192,25129,1,2,0:0:0:0:
109,192,25511,1,8,0:0:0:0:
402,192,25511,1,0,0:0:0:70:LR_CymbalQST.wav
182,192,25894,1,0,0:0:0:70:LR_CymbalQST.wav
329,192,25894,1,8,0:0:0:0:
36,192,26276,1,2,0:0:0:0:
256,192,26276,1,4,0:0:0:0:
475,192,26276,1,0,0:0:0:0:
109,192,26562,1,0,0:0:0:0:
182,192,26849,1,0,0:0:0:0:
256,192,27136,1,0,0:0:0:0:
36,192,27422,128,2,27804:0:0:0:0:
475,192,27804,1,2,0:0:0:0:
402,192,28091,1,0,0:0:0:0:
329,192,28378,1,0,0:0:0:0:
256,192,28664,1,2,0:0:0:0:
475,192,28951,128,2,29333:0:0:0:0:
36,192,29333,1,2,0:0:0:0:
182,192,29620,1,0,0:0:0:0:
329,192,29906,1,0,0:0:0:0:
475,192,30193,1,0,0:0:0:0:
256,192,30480,128,2,30862:0:0:0:0:
182,192,30862,1,2,0:0:0:0:
329,192,31148,1,2,0:0:0:0:
36,192,31435,1,8,0:0:0:0:
475,192,31435,1,0,0:0:0:70:LR_CymbalQST.wav
182,192,32008,1,8,0:0:0:0:
329,192,32008,1,0,0:0:0:70:LR_CymbalQST.wav
475,192,32390,1,2,0:0:0:0:
256,192,32677,1,0,0:0:0:0:
402,192,32964,1,0,0:0:0:0:
182,192,33250,1,0,0:0:0:0:
329,192,33537,128,2,33919:0:0:0:0:
36,192,33919,1,2,0:0:0:0:
256,192,34206,1,0,0:0:0:0:
109,192,34492,1,0,0:0:0:0:
329,192,34779,1,2,0:0:0:0:
182,192,35066,128,2,35448:0:0:0:0:
475,192,35448,1,2,0:0:0:0:
329,192,35734,1,0,0:0:0:0:
182,192,36021,1,2,0:0:0:0:
36,192,36308,1,0,0:0:0:0:
256,192,36594,1,2,0:0:0:0:
329,192,36785,1,2,0:0:0:0:
402,192,36976,1,2,0:0:0:0:
182,192,37167,1,2,0:0:0:0:
475,192,37359,1,0,0:0:0:0:
36,192,37550,128,8,38505:0:0:0:0:
256,192,37550,1,0,0:0:0:70:LR_CymbalQST.wav
402,192,38505,128,0,39652:0:0:0:70:ride01.wav
329,192,39652,1,8,0:0:0:0:
36,192,40034,1,2,0:0:0:0:
182,192,40034,1,4,0:0:0:0:
475,192,40034,1,0,0:0:0:0:
329,192,40225,128,0,40607:0:0:0:0:
402,192,40607,1,0,0:0:0:0:
256,192,40798,128,2,41180:0:0:0:0:
182,192,41180,1,2,0:0:0:0:
329,192,41371,1,0,0:0:0:0:
475,192,41562,128,2,42136:0:0:0:0:
36,192,42136,1,0,0:0:0:0:
256,192,42327,128,2,43091:0:0:0:0:
36,192,43282,1,0,0:0:0:0:
182,192,43473,1,2,0:0:0:0:
329,192,43664,1,0,0:0:0:0:
182,192,43855,128,2,44238:0:0:0:0:
402,192,44238,1,2,0:0:0:0:
256,192,44429,1,0,0:0:0:0:
36,192,44620,128,2,45002:0:0:0:0:
475,192,45002,128,2,45384:0:0:0:0:
256,192,45384,128,2,45766:0:0:0:0:
329,192,45766,1,2,0:0:0:0:
182,192,45957,1,8,0:0:0:0:
36,192,46148,1,2,0:0:0:0:
475,192,46148,1,4,0:0:0:0:
329,192,46339,128,0,46722:0:0:0:0:
402,192,46722,1,0,0:0:0:0:
256,192,46913,128,2,47295:0:0:0:0:
36,192,47295,1,2,0:0:0:0:
182,192,47486,1,0,0:0:0:0:
402,192,47677,128,2,48059:0:0:0:0:
256,192,48059,128,2,48441:0:0:0:0:
109,192,48441,128,2,48824:0:0:0:0:
402,192,48824,1,2,0:0:0:0:
256,192,49015,1,0,0:0:0:0:
36,192,49206,1,2,0:0:0:0:
182,192,49397,128,0,49779:0:0:0:0:
475,192,49779,1,0,0:0:0:0:
329,192,49970,128,2,50352:0:0:0:0:
109,192,50352,1,2,0:0:0:0:
256,192,50543,1,0,0:0:0:0:
402,192,50734,1,2,0:0:0:0:
109,192,51117,1,2,0:0:0:0:
182,192,51499,1,2,0:0:0:0:
329,192,51499,1,0,0:0:0:70:cymbal.wav
109,192,51881,1,8,0:0:0:0:
402,192,51881,1,0,0:0:0:70:LR_CymbalQST.wav
36,192,52263,1,2,0:0:0:0:
256,192,52263,1,4,0:0:0:0:
475,192,52263,1,0,0:0:0:0:
182,192,52454,128,0,52836:0:0:0:0:
329,192,52836,1,0,0:0:0:0:
475,192,53027,128,2,53410:0:0:0:0:
109,192,53410,1,2,0:0:0:0:
256,192,53601,1,0,0:0:0:0:
402,192,53792,128,2,54365:0:0:0:0:
475,192,54365,1,0,0:0:0:0:
329,192,54556,128,2,55320:0:0:0:0:
36,192,55511,1,0,0:0:0:0:
182,192,55703,1,2,0:0:0:0:
475,192,55894,1,0,0:0:0:0:
329,192,56085,128,2,56467:0:0:0:0:
182,192,56467,1,2,0:0:0:0:
36,192,56658,1,0,0:0:0:0:
256,192,56849,128,2,57231:0:0:0:0:
402,192,57231,128,2,57613:0:0:0:0:
109,192,57613,128,2,57996:0:0:0:0:
329,192,57996,1,2,0:0:0:0:
182,192,58187,1,8,0:0:0:0:
36,192,58378,1,2,0:0:0:0:
475,192,58378,1,4,0:0:0:0:
182,192,58569,128,0,58951:0:0:0:0:
329,192,58951,1,0,0:0:0:0:
475,192,59142,128,2,59524:0:0:0:0:
109,192,59524,1,2,0:0:0:0:
256,192,59715,1,0,0:0:0:0:
402,192,59906,128,2,60288:0:0:0:0:
256,192,60288,128,2,60671:0:0:0:0:
109,192,60671,128,2,61053:0:0:0:0:
329,192,61053,1,2,0:0:0:0:
256,192,61244,1,0,0:0:0:0:
182,192,61435,1,2,0:0:0:0:
329,192,61626,128,0,62008:0:0:0:0:
475,192,62008,1,0,0:0:0:0:
329,192,62199,128,2,62581:0:0:0:0:
109,192,62581,1,2,0:0:0:0:
182,192,62773,1,0,0:0:0:0:
256,192,62964,1,8,0:0:0:0:
256,192,63346,1,8,0:0:0:0:
36,192,63728,1,2,0:0:0:0:
109,192,63728,1,4,0:0:0:0:
402,192,63919,1,2,0:0:0:0:
475,192,63919,1,0,0:0:0:0:
36,192,64110,1,8,0:0:0:0:
109,192,64110,1,0,0:0:0:70:LR_CymbalQST.wav
182,192,64492,1,2,0:0:0:0:
329,192,64492,1,4,0:0:0:0:
475,192,64492,1,0,0:0:0:0:
36,192,65257,1,0,0:0:0:0:
182,192,65639,1,0,0:0:0:0:
329,192,66021,1,4,0:0:0:0:
475,192,66021,1,2,0:0:0:0:
182,192,66403,1,0,0:0:0:0:
36,192,66785,1,0,0:0:0:0:
475,192,67167,1,0,0:0:0:0:
36,192,67550,1,2,0:0:0:0:
182,192,67550,1,4,0:0:0:0:
475,192,68314,1,0,0:0:0:0:
329,192,68696,1,0,0:0:0:0:
36,192,69078,1,4,0:0:0:0:
182,192,69078,1,2,0:0:0:0:
329,192,69460,1,0,0:0:0:0:
475,192,69843,1,2,0:0:0:0:
182,192,70225,1,8,0:0:0:0:
256,192,70416,1,2,0:0:0:0:
36,192,70607,1,2,0:0:0:0:
329,192,70607,1,4,0:0:0:0:
182,192,70989,1,2,0:0:0:0:
109,192,71371,1,2,0:0:0:0:
256,192,71753,1,8,0:0:0:0:
475,192,71753,1,0,0:0:0:70:LR_CymbalQST.wav
475,192,72136,1,2,0:0:0:0:
329,192,72518,1,2,0:0:0:0:
402,192,72900,1,2,0:0:0:0:
36,192,73282,1,8,0:0:0:0:
256,192,73282,1,0,0:0:0:70:LR_CymbalQST.wav
182,192,73664,1,2,0:0:0:0:
256,192,74046,1,2,0:0:0:0:
329,192,74429,1,2,0:0:0:0:
109,192,74811,1,8,0:0:0:0:
402,192,74811,1,0,0:0:0:0:
475,192,75193,1,2,0:0:0:0:
329,192,75575,1,2,0:0:0:0:
36,192,75957,1,8,0:0:0:0:
182,192,75957,1,0,0:0:0:0:
402,192,76148,1,2,0:0:0:0:
256,192,76339,1,8,0:0:0:0:
475,192,76531,1,2,0:0:0:0:
36,192,78250,1,2,0:0:0:0:
109,192,78250,1,4,0:0:0:0:
182,192,78250,1,0,0:0:0:0:
256,192,78441,1,0,0:0:0:0:
329,192,78632,1,8,0:0:0:0:
475,192,78632,1,0,0:0:0:70:clap.wav
182,192,78824,1,0,0:0:0:0:
36,192,79015,1,2,0:0:0:0:
329,192,79397,1,8,0:0:0:0:
475,192,79397,1,0,0:0:0:70:clap.wav
402,192,79779,1,2,0:0:0:0:
109,192,79970,1,0,0:0:0:0:
329,192,80161,1,8,0:0:0:0:
475,192,80161,1,0,0:0:0:70:clap.wav
182,192,80352,1,0,0:0:0:0:
36,192,80543,1,2,0:0:0:0:
329,192,80925,1,8,0:0:0:0:
475,192,80925,1,0,0:0:0:70:clap.wav
36,192,81308,1,2,0:0:0:0:
182,192,81499,1,0,0:0:0:0:
329,192,81690,1,8,0:0:0:0:
475,192,81690,1,0,0:0:0:70:clap.wav
182,192,81881,1,0,0:0:0:0:
36,192,82072,1,2,0:0:0:0:
329,192,82454,1,8,0:0:0:0:
475,192,82454,1,0,0:0:0:70:clap.wav
109,192,82836,1,2,0:0:0:0:
402,192,83027,1,0,0:0:0:0:
109,192,83218,1,8,0:0:0:0:
402,192,83410,1,0,0:0:0:0:
182,192,83601,1,2,0:0:0:0:
256,192,83983,1,8,0:0:0:0:
36,192,84365,1,4,0:0:0:0:
182,192,84365,1,2,0:0:0:0:
256,192,84556,1,0,0:0:0:0:
329,192,84747,1,8,0:0:0:0:
475,192,84747,1,0,0:0:0:70:clap.wav
182,192,84938,1,0,0:0:0:0:
36,192,85129,1,2,0:0:0:0:
256,192,85511,1,8,0:0:0:0:
402,192,85511,1,0,0:0:0:70:clap.wav
475,192,85894,1,2,0:0:0:0:
329,192,86085,1,0,0:0:0:0:
36,192,86276,1,8,0:0:0:0:
182,192,86276,1,0,0:0:0:70:clap.wav
329,192,86467,1,0,0:0:0:0:
475,192,86658,1,2,0:0:0:0:
109,192,87040,1,8,0:0:0:0:
256,192,87040,1,0,0:0:0:70:clap.wav
36,192,87422,1,2,0:0:0:0:
182,192,87613,1,0,0:0:0:0:
329,192,87804,1,8,0:0:0:0:
475,192,87804,1,0,0:0:0:70:clap.wav
256,192,88187,1,2,0:0:0:0:
402,192,88378,1,0,0:0:0:0:
36,192,88569,1,8,0:0:0:0:
182,192,88569,1,0,0:0:0:70:clap.wav
475,192,88951,1,2,0:0:0:0:
329,192,89142,1,2,0:0:0:0:
36,192,89333,1,8,0:0:0:0:
182,192,89333,1,0,0:0:0:70:clap.wav
109,192,89906,1,8,0:0:0:0:
256,192,89906,1,0,0:0:0:0:
182,192,90480,1,4,0:0:0:0:
329,192,90480,1,2,0:0:0:0:
475,192,90480,1,0,0:0:0:0:
36,192,90671,1,0,0:0:0:0:
256,192,90862,1,8,0:0:0:0:
402,192,90862,1,0,0:0:0:70:clap.wav
109,192,91053,1,0,0:0:0:0:
329,192,91244,1,2,0:0:0:0:
36,192,91626,1,8,0:0:0:0:
182,192,91626,1,0,0:0:0:70:clap.wav
329,192,92008,1,2,0:0:0:0:
256,192,92199,1,0,0:0:0:0:
36,192,92390,1,8,0:0:0:0:
182,192,92390,1,0,0:0:0:70:clap.wav
329,192,92581,1,0,0:0:0:0:
475,192,92773,1,2,0:0:0:0:
36,192,93155,1,8,0:0:0:0:
182,192,93155,1,0,0:0:0:70:clap.wav
256,192,93537,1,2,0:0:0:0:
329,192,93728,1,0,0:0:0:0:
36,192,93919,1,8,0:0:0:0:
402,192,93919,1,0,0:0:0:70:clap.wav
256,192,94301,1,2,0:0:0:0:
182,192,94492,1,0,0:0:0:0:
109,192,94683,1,8,0:0:0:0:
475,192,94683,1,0,0:0:0:70:clap.wav
182,192,95066,1,2,0:0:0:0:
329,192,95257,1,8,0:0:0:0:
182,192,95448,1,2,0:0:0:0:
329,192,95639,1,8,0:0:0:0:
109,192,95830,1,2,0:0:0:0:
256,192,96212,1,8,0:0:0:0:
36,192,96594,1,2,0:0:0:0:
475,192,96594,1,4,0:0:0:0:
256,192,96785,1,0,0:0:0:0:
109,192,96976,1,8,0:0:0:0:
402,192,96976,1,0,0:0:0:70:clap.wav
256,192,97167,1,0,0:0:0:0:
36,192,97359,1,2,0:0:0:0:
329,192,97741,1,8,0:0:0:0:
475,192,97741,1,0,0:0:0:70:clap.wav
182,192,98123,1,2,0:0:0:0:
256,192,98314,1,0,0:0:0:0:
329,192,98505,1,8,0:0:0:0:
475,192,98505,1,0,0:0:0:70:clap.wav
109,192,98696,1,0,0:0:0:0:
182,192,98887,1,2,0:0:0:0:
329,192,99269,1,8,0:0:0:0:
475,192,99269,1,0,0:0:0:70:clap.wav
36,192,99652,1,2,0:0:0:0:
109,192,99843,1,0,0:0:0:0:
182,192,100034,1,8,0:0:0:0:
402,192,100034,1,0,0:0:0:70:clap.wav
475,192,100416,1,2,0:0:0:0:
402,192,100607,1,0,0:0:0:0:
109,192,100798,1,8,0:0:0:0:
329,192,100798,1,0,0:0:0:70:clap.wav
36,192,101180,1,2,0:0:0:0:
182,192,101371,1,2,0:0:0:0:
329,192,101562,1,8,0:0:0:0:
475,192,101562,1,0,0:0:0:70:clap.wav
36,192,101945,1,2,0:0:0:0:
182,192,102136,1,2,0:0:0:0:
329,192,102327,1,8,0:0:0:0:
475,192,102327,1,0,0:0:0:70:clap.wav
256,192,102518,1,2,0:0:0:0:
36,192,102709,128,2,105002:0:0:0:0:
475,192,102709,1,4,0:0:0:0:
182,192,105002,128,0,105384:0:0:0:70:tom02.wav
329,192,105384,128,0,105766:0:0:0:70:tom03.wav
36,192,105766,1,2,0:0:0:0:
475,192,105766,128,0,108100:0:0:0:70:LR_CymbalQST.wav
36,192,108100,1,2,0:0:0:0:
402,192,108100,128,0,108503:0:0:0:70:cymbal.wav
36,192,108503,1,2,0:0:0:0:
329,192,108503,128,0,111061:0:0:0:70:LR_CymbalQST.wav
182,192,111061,128,0,111516:0:0:0:0:
36,192,111516,1,2,0:0:0:0:
329,192,111516,128,0,111970:0:0:0:70:cymbal.wav
36,192,111970,128,2,119613:0:0:0:0:
475,192,111970,128,0,119613:0:0:0:70:LR_CymbalQST.wav
