osu file format v14

[General]
AudioFilename: audio.mp3
AudioLeadIn: 0
PreviewTime: 77486
Countdown: 0
SampleSet: Soft
StackLeniency: 0.7
Mode: 3
LetterboxInBreaks: 0
SpecialStyle: 0
WidescreenStoryboard: 1

[Editor]
Bookmarks: 1817,14046,26276,35448,37550,40034,64492,70607,78250,102709,111970
DistanceSpacing: 1.1
BeatDivisor: 6
GridSize: 8
TimelineZoom: 1.9

[Metadata]
Title:AsiaN distractive
TitleUnicode:AsiaN distractive
Artist:Nekomata Gekidan
ArtistUnicode:猫叉劇団
Creator:_Stan
Version:Leni's Advanced
Source:beatmania IIDX 24 SINOBUZ
Tags:BEMANI KONAMI video game instrumental -H_i_k_a_r_i- Critical_Star Leniane famoss
BeatmapID:2245488
BeatmapSetID:1070605

[Difficulty]
HPDrainRate:7.2
CircleSize:7
OverallDifficulty:7.2
ApproachRate:5
SliderMultiplier:1.4
SliderTickRate:1

[Events]
//Background and Video events
0,0,"bg.jpg",0,0
//Break Periods
//Storyboard Layer 0 (Background)
//Storyboard Layer 1 (Fail)
//Storyboard Layer 2 (Pass)
//Storyboard Layer 3 (Foreground)
//Storyboard Layer 4 (Overlay)
//Storyboard Sound Samples
Sample,1531,0,"tom03.wav",70
Sample,3728,0,"tom01.wav",70
Sample,3855,0,"tom01.wav",70
Sample,3983,0,"tom01.wav",70
Sample,4238,0,"tom02.wav",70
Sample,4365,0,"tom03.wav",70
Sample,4620,0,"tom04.wav",70
Sample,4747,0,"tom04.wav",70
Sample,7359,0,"tom03.wav",70
Sample,7422,0,"tom03.wav",70
Sample,7486,0,"tom04.wav",70
Sample,13473,0,"tom03.wav",70
Sample,13569,0,"tom03.wav",70
Sample,13855,0,"tom04.wav",70
Sample,13951,0,"tom04.wav",70
Sample,39652,0,"ride02.wav",70
Sample,39843,0,"ride01.wav",70
Sample,83218,0,"clap.wav",70
Sample,90097,0,"clap.wav",70
Sample,104620,0,"tom01.wav",70
Sample,104747,0,"tom01.wav",70
Sample,104874,0,"tom01.wav",70
Sample,105129,0,"tom02.wav",70
Sample,105257,0,"tom03.wav",70
Sample,105511,0,"tom04.wav",70
Sample,105639,0,"tom04.wav",70
Sample,108301,0,"tom02.wav",70
Sample,108368,0,"tom03.wav",70
Sample,108435,0,"tom04.wav",70

[TimingPoints]
289,382.165605095541,4,2,1,80,1,0
78250,-100,4,2,1,80,0,1
102709,-100,4,2,1,80,0,0
107295,402.684563758389,4,2,1,80,1,0
107295,-95.2380952380952,4,2,1,80,0,0
108905,425.531914893617,4,2,1,80,1,0
108905,-90.0900900900901,4,2,1,80,0,0
110607,454.545454545455,4,2,1,80,1,0
110607,-84.0336134453781,4,2,1,80,0,0
111970,382.165605095541,4,2,1,80,1,0

[HitObjects]
329,192,1053,5,0,0:0:0:70:tom01.wav
182,192,1148,1,0,0:0:0:70:tom01.wav
402,192,1244,1,0,0:0:0:70:tom02.wav
109,192,1339,1,0,0:0:0:70:tom02.wav
256,192,1435,1,0,0:0:0:70:tom03.wav
36,192,1626,1,0,0:0:0:70:tom04.wav
109,192,1722,1,0,0:0:0:70:tom04.wav
182,192,1817,1,2,0:0:0:0:
329,192,1817,1,4,0:0:0:0:
475,192,1817,128,0,2390:0:0:0:0:
329,192,2390,1,0,0:0:0:0:
402,192,2486,1,0,0:0:0:0:
182,192,2581,128,0,3155:0:0:0:0:
256,192,3155,1,0,0:0:0:0:
329,192,3250,1,0,0:0:0:0:
109,192,3346,128,0,3919:0:0:0:0:
182,192,3919,1,0,0:0:0:0:
256,192,4015,1,0,0:0:0:0:
36,192,4110,128,0,4492:0:0:0:70:tom02.wav
475,192,4492,128,0,4874:0:0:0:70:tom03.wav
36,192,4874,1,2,0:0:0:0:
182,192,4874,1,0,0:0:0:70:LR_CymbalQST.wav
329,192,4874,128,0,5448:0:0:0:0:
109,192,5448,1,0,0:0:0:0:
256,192,5543,1,0,0:0:0:0:
36,192,5639,1,0,0:0:0:0:
182,192,5830,1,0,0:0:0:0:
329,192,6021,1,0,0:0:0:0:
475,192,6212,1,0,0:0:0:0:
329,192,6403,1,0,0:0:0:0:
475,192,6594,1,0,0:0:0:0:
329,192,6785,1,0,0:0:0:0:
109,192,6976,1,0,0:0:0:0:
36,192,7167,1,2,0:0:0:0:
182,192,7167,128,0,7550:0:0:0:70:cymbal.wav
256,192,7167,1,0,0:0:0:0:
256,192,7550,1,2,0:0:0:0:
329,192,7550,128,0,8505:0:0:0:70:LR_CymbalQST.wav
475,192,7550,1,0,0:0:0:0:
109,192,8505,1,0,0:0:0:0:
182,192,8696,128,0,9078:0:0:0:0:
256,192,9078,1,0,0:0:0:0:
402,192,9269,1,0,0:0:0:0:
329,192,9460,1,0,0:0:0:0:
475,192,9652,1,0,0:0:0:0:
329,192,9843,1,0,0:0:0:0:
475,192,10034,1,0,0:0:0:0:
36,192,10225,1,2,0:0:0:0:
329,192,10225,1,0,0:0:0:70:cymbal.wav
182,192,10416,1,0,0:0:0:70:tom03.wav
109,192,10511,1,0,0:0:0:70:tom03.wav
36,192,10607,1,2,0:0:0:0:
256,192,10607,1,0,0:0:0:70:LR_CymbalQST.wav
475,192,10607,128,0,11945:0:0:0:0:
36,192,11945,1,0,0:0:0:0:
182,192,12136,1,0,0:0:0:0:
256,192,12327,1,0,0:0:0:0:
329,192,12518,1,0,0:0:0:0:
475,192,12709,1,0,0:0:0:0:
329,192,12900,1,0,0:0:0:0:
182,192,13091,1,0,0:0:0:0:
109,192,13282,1,2,0:0:0:0:
256,192,13282,1,0,0:0:0:70:cymbal.wav
402,192,13282,1,0,0:0:0:0:
182,192,13664,1,2,0:0:0:0:
329,192,13664,1,0,0:0:0:70:LR_CymbalQST.wav
36,192,14046,1,2,0:0:0:0:
256,192,14046,1,4,0:0:0:0:
475,192,14046,1,0,0:0:0:0:
109,192,14238,1,2,0:0:0:0:
402,192,14333,1,2,0:0:0:0:
109,192,14429,1,2,0:0:0:0:
182,192,14429,1,0,0:0:0:0:
329,192,14620,1,2,0:0:0:0:
475,192,14715,1,2,0:0:0:0:
36,192,14811,1,2,0:0:0:0:
182,192,14811,1,0,0:0:0:0:
329,192,15002,1,2,0:0:0:0:
109,192,15097,1,2,0:0:0:0:
329,192,15193,1,2,0:0:0:0:
475,192,15193,1,0,0:0:0:0:
256,192,15384,1,2,0:0:0:0:
402,192,15480,1,2,0:0:0:0:
36,192,15575,1,2,0:0:0:0:
109,192,15575,1,0,0:0:0:70:LR_CymbalQST.wav
475,192,15575,1,0,0:0:0:0:
402,192,15766,1,2,0:0:0:0:
109,192,15862,1,2,0:0:0:0:
402,192,15957,1,2,0:0:0:0:
475,192,15957,1,0,0:0:0:0:
182,192,16148,1,2,0:0:0:0:
329,192,16244,1,2,0:0:0:0:
36,192,16339,1,2,0:0:0:0:
109,192,16339,1,0,0:0:0:0:
475,192,16531,1,2,0:0:0:0:
182,192,16626,1,2,0:0:0:0:
36,192,16722,128,2,17104:0:0:0:0:
256,192,16722,1,0,0:0:0:70:cymbal.wav
475,192,16722,1,0,0:0:0:0:
329,192,16913,1,2,0:0:0:0:
256,192,17104,1,2,0:0:0:0:
402,192,17104,1,0,0:0:0:0:
182,192,17295,1,2,0:0:0:0:
109,192,17390,1,2,0:0:0:0:
402,192,17486,1,2,0:0:0:0:
475,192,17486,1,0,0:0:0:0:
182,192,17677,1,2,0:0:0:0:
36,192,17773,1,2,0:0:0:0:
182,192,17868,1,2,0:0:0:0:
402,192,17868,1,0,0:0:0:0:
256,192,18059,1,2,0:0:0:0:
109,192,18250,1,2,0:0:0:0:
329,192,18250,1,0,0:0:0:0:
475,192,18441,1,2,0:0:0:0:
36,192,18632,1,2,0:0:0:0:
329,192,18632,1,0,0:0:0:0:
475,192,18824,1,2,0:0:0:0:
182,192,19015,1,2,0:0:0:0:
329,192,19015,1,0,0:0:0:0:
256,192,19206,1,2,0:0:0:0:
109,192,19397,128,2,19779:0:0:0:0:
182,192,19397,1,0,0:0:0:70:cymbal.wav
475,192,19397,1,0,0:0:0:0:
329,192,19588,1,2,0:0:0:0:
256,192,19779,1,2,0:0:0:0:
329,192,19779,1,0,0:0:0:70:cymbal.wav
402,192,19779,128,0,20161:0:0:0:0:
182,192,19970,1,2,0:0:0:0:
36,192,20161,1,2,0:0:0:0:
109,192,20161,1,0,0:0:0:0:
475,192,20161,1,0,0:0:0:0:
256,192,20352,1,2,0:0:0:0:
329,192,20543,1,2,0:0:0:0:
402,192,20543,1,0,0:0:0:0:
36,192,20734,1,2,0:0:0:0:
109,192,20830,1,2,0:0:0:0:
182,192,20925,1,2,0:0:0:0:
475,192,20925,1,0,0:0:0:0:
402,192,21117,1,2,0:0:0:0:
36,192,21308,1,2,0:0:0:0:
329,192,21308,1,0,0:0:0:0:
109,192,21499,1,2,0:0:0:0:
182,192,21594,1,2,0:0:0:0:
256,192,21690,1,2,0:0:0:0:
402,192,21690,1,0,0:0:0:0:
475,192,21881,1,2,0:0:0:0:
36,192,22072,1,2,0:0:0:0:
109,192,22072,1,0,0:0:0:0:
182,192,22263,1,2,0:0:0:0:
256,192,22359,1,2,0:0:0:0:
36,192,22454,1,2,0:0:0:0:
329,192,22454,128,0,22836:0:0:0:70:cymbal.wav
475,192,22454,1,0,0:0:0:0:
256,192,22645,1,2,0:0:0:0:
109,192,22836,1,2,0:0:0:0:
182,192,22836,1,0,0:0:0:70:LR_CymbalQST.wav
402,192,22836,128,0,23218:0:0:0:0:
36,192,23027,1,2,0:0:0:0:
256,192,23218,1,2,0:0:0:0:
329,192,23218,1,0,0:0:0:0:
109,192,23410,1,2,0:0:0:0:
182,192,23601,1,2,0:0:0:0:
256,192,23601,1,0,0:0:0:0:
329,192,23792,1,2,0:0:0:0:
402,192,23887,1,2,0:0:0:0:
109,192,23983,1,2,0:0:0:0:
475,192,23983,1,0,0:0:0:70:ride02.wav
182,192,24174,1,2,0:0:0:0:
36,192,24365,1,2,0:0:0:0:
329,192,24365,1,0,0:0:0:70:ride02.wav
402,192,24556,1,2,0:0:0:0:
109,192,24652,1,0,0:0:0:0:
182,192,24747,1,2,0:0:0:0:
256,192,24747,1,0,0:0:0:70:ride02.wav
329,192,24938,1,2,0:0:0:0:
109,192,25129,1,2,0:0:0:0:
475,192,25129,1,0,0:0:0:70:ride02.wav
329,192,25320,1,2,0:0:0:0:
36,192,25511,128,8,25894:0:0:0:0:
109,192,25511,1,0,0:0:0:70:LR_CymbalQST.wav
182,192,25511,1,0,0:0:0:0:
256,192,25703,1,2,0:0:0:0:
329,192,25894,1,8,0:0:0:0:
402,192,25894,1,0,0:0:0:70:LR_CymbalQST.wav
475,192,25894,128,0,26276:0:0:0:0:
256,192,26085,1,2,0:0:0:0:
109,192,26276,1,2,0:0:0:0:
182,192,26276,1,4,0:0:0:0:
402,192,26276,1,0,0:0:0:0:
256,192,26562,1,0,0:0:0:0:
36,192,26658,1,2,0:0:0:0:
182,192,26658,1,0,0:0:0:0:
109,192,26849,1,0,0:0:0:0:
329,192,27040,1,2,0:0:0:0:
402,192,27040,1,0,0:0:0:0:
256,192,27136,1,0,0:0:0:0:
182,192,27231,1,0,0:0:0:0:
329,192,27327,1,0,0:0:0:0:
36,192,27422,1,2,0:0:0:0:
109,192,27422,1,0,0:0:0:70:ride01.wav
256,192,27613,1,0,0:0:0:0:
402,192,27804,1,2,0:0:0:0:
475,192,27804,1,0,0:0:0:0:
109,192,28091,1,0,0:0:0:0:
182,192,28187,1,2,0:0:0:0:
256,192,28187,1,0,0:0:0:0:
329,192,28378,1,0,0:0:0:0:
36,192,28569,1,2,0:0:0:0:
182,192,28569,1,0,0:0:0:0:
402,192,28664,1,2,0:0:0:0:
329,192,28760,1,0,0:0:0:0:
109,192,28855,1,0,0:0:0:0:
256,192,28951,1,2,0:0:0:0:
475,192,28951,1,0,0:0:0:70:ride02.wav
402,192,29142,1,0,0:0:0:0:
36,192,29333,1,2,0:0:0:0:
329,192,29333,1,0,0:0:0:0:
109,192,29620,1,0,0:0:0:0:
182,192,29715,1,2,0:0:0:0:
402,192,29715,1,0,0:0:0:0:
329,192,29906,1,0,0:0:0:0:
36,192,30097,1,2,0:0:0:0:
256,192,30097,1,0,0:0:0:0:
109,192,30193,1,0,0:0:0:0:
402,192,30288,1,0,0:0:0:0:
182,192,30384,1,0,0:0:0:0:
329,192,30480,1,2,0:0:0:0:
475,192,30480,1,0,0:0:0:70:ride01.wav
256,192,30671,1,0,0:0:0:0:
36,192,30862,1,2,0:0:0:0:
182,192,30862,1,0,0:0:0:0:
329,192,30957,1,0,0:0:0:0:
109,192,31053,1,0,0:0:0:0:
402,192,31148,1,2,0:0:0:0:
36,192,31244,128,0,31722:0:0:0:0:
329,192,31435,128,8,31722:0:0:0:0:
475,192,31435,1,0,0:0:0:70:LR_CymbalQST.wav
109,192,31722,1,0,0:0:0:0:
182,192,31722,1,0,0:0:0:0:
256,192,32008,1,8,0:0:0:0:
329,192,32008,1,0,0:0:0:70:LR_CymbalQST.wav
402,192,32008,128,0,32390:0:0:0:0:
109,192,32199,1,2,0:0:0:0:
182,192,32199,1,0,0:0:0:0:
36,192,32390,1,2,0:0:0:0:
256,192,32390,1,0,0:0:0:70:cymbal.wav
329,192,32390,1,0,0:0:0:0:
182,192,32677,1,0,0:0:0:0:
109,192,32773,1,2,0:0:0:0:
475,192,32773,1,0,0:0:0:0:
329,192,32964,1,0,0:0:0:0:
36,192,33155,1,2,0:0:0:0:
402,192,33155,1,0,0:0:0:0:
109,192,33250,1,0,0:0:0:0:
182,192,33346,1,0,0:0:0:0:
329,192,33441,1,0,0:0:0:0:
402,192,33537,1,2,0:0:0:0:
475,192,33537,1,0,0:0:0:70:ride01.wav
256,192,33728,1,0,0:0:0:0:
36,192,33919,1,2,0:0:0:0:
109,192,33919,1,0,0:0:0:0:
329,192,34206,1,0,0:0:0:0:
182,192,34301,1,2,0:0:0:0:
402,192,34301,1,0,0:0:0:0:
36,192,34492,1,0,0:0:0:0:
109,192,34683,1,2,0:0:0:0:
329,192,34683,1,0,0:0:0:0:
182,192,34779,1,2,0:0:0:0:
402,192,34874,1,0,0:0:0:0:
36,192,34970,1,0,0:0:0:0:
109,192,35066,1,2,0:0:0:0:
475,192,35066,1,0,0:0:0:70:ride02.wav
256,192,35257,1,0,0:0:0:0:
36,192,35448,1,2,0:0:0:0:
475,192,35448,1,0,0:0:0:0:
109,192,35639,1,2,0:0:0:0:
402,192,35639,1,0,0:0:0:0:
182,192,35830,1,2,0:0:0:0:
329,192,35830,1,0,0:0:0:0:
182,192,36021,1,2,0:0:0:0:
329,192,36021,1,0,0:0:0:0:
109,192,36212,1,2,0:0:0:0:
402,192,36212,1,0,0:0:0:0:
36,192,36403,1,2,0:0:0:0:
475,192,36403,1,0,0:0:0:0:
36,192,36594,1,2,0:0:0:0:
182,192,36594,1,0,0:0:0:70:ride01.wav
329,192,36785,1,2,0:0:0:0:
475,192,36785,1,0,0:0:0:0:
109,192,36976,1,2,0:0:0:0:
256,192,37072,1,0,0:0:0:0:
402,192,37167,1,2,0:0:0:0:
36,192,37263,1,8,0:0:0:0:
475,192,37359,1,0,0:0:0:0:
182,192,37550,1,8,0:0:0:0:
256,192,37550,128,0,39652:0:0:0:70:LR_CymbalQST.wav
329,192,37550,1,0,0:0:0:0:
402,192,38123,1,0,0:0:0:70:ride02.wav
36,192,38505,128,0,39652:0:0:0:70:ride01.wav
475,192,38887,1,0,0:0:0:70:ride02.wav
329,192,39269,1,0,0:0:0:70:ride01.wav
402,192,39652,128,8,39843:0:0:0:0:
109,192,39843,128,2,40034:0:0:0:0:
182,192,40034,128,2,40225:0:0:0:0:
329,192,40034,1,4,0:0:0:0:
475,192,40034,1,0,0:0:0:0:
256,192,40225,128,0,40607:0:0:0:0:
402,192,40416,1,2,0:0:0:0:
475,192,40416,1,0,0:0:0:70:clap.wav
109,192,40607,128,0,40798:0:0:0:0:
182,192,40798,1,2,0:0:0:0:
402,192,40798,128,0,41180:0:0:0:0:
36,192,41180,1,2,0:0:0:0:
182,192,41180,128,0,41371:0:0:0:70:clap.wav
402,192,41371,128,0,41562:0:0:0:0:
109,192,41562,1,2,0:0:0:0:
475,192,41562,128,0,42136:0:0:0:0:
256,192,41945,1,2,0:0:0:0:
329,192,41945,1,0,0:0:0:70:clap.wav
36,192,42136,128,0,42327:0:0:0:0:
182,192,42327,1,2,0:0:0:0:
402,192,42327,128,0,43091:0:0:0:0:
109,192,42709,1,2,0:0:0:0:
256,192,42709,1,0,0:0:0:70:clap.wav
36,192,43091,1,2,0:0:0:0:
182,192,43091,1,0,0:0:0:0:
109,192,43282,128,0,43473:0:0:0:0:
256,192,43473,128,2,43664:0:0:0:0:
475,192,43473,1,0,0:0:0:70:clap.wav
402,192,43664,128,0,43855:0:0:0:0:
36,192,43855,1,2,0:0:0:0:
256,192,43855,128,0,44238:0:0:0:0:
182,192,44238,128,2,44429:0:0:0:0:
329,192,44238,1,0,0:0:0:70:clap.wav
36,192,44429,128,0,44620:0:0:0:0:
182,192,44620,128,2,44811:0:0:0:0:
402,192,44620,1,0,0:0:0:0:
256,192,44811,128,0,45002:0:0:0:0:
109,192,45002,1,2,0:0:0:0:
329,192,45002,128,0,45193:0:0:0:70:clap.wav
475,192,45193,128,0,45384:0:0:0:0:
182,192,45384,1,2,0:0:0:0:
256,192,45384,128,0,45766:0:0:0:0:
36,192,45766,1,2,0:0:0:0:
402,192,45766,128,0,45957:0:0:0:70:clap.wav
109,192,45957,128,8,46148:0:0:0:0:
182,192,46148,128,2,46339:0:0:0:0:
329,192,46148,1,4,0:0:0:0:
475,192,46148,1,0,0:0:0:0:
256,192,46339,128,0,46722:0:0:0:0:
36,192,46531,1,2,0:0:0:0:
402,192,46531,1,0,0:0:0:70:clap.wav
109,192,46722,128,0,46913:0:0:0:0:
329,192,46913,1,2,0:0:0:0:
402,192,46913,128,0,47295:0:0:0:0:
109,192,47295,1,2,0:0:0:0:
182,192,47295,128,0,47486:0:0:0:70:clap.wav
329,192,47486,128,0,47677:0:0:0:0:
36,192,47677,1,2,0:0:0:0:
475,192,47677,128,0,47868:0:0:0:0:
402,192,47868,128,0,48059:0:0:0:0:
182,192,48059,1,2,0:0:0:0:
256,192,48059,128,0,48250:0:0:0:70:clap.wav
109,192,48250,128,0,48441:0:0:0:0:
36,192,48441,128,2,48824:0:0:0:0:
402,192,48441,1,0,0:0:0:0:
329,192,48824,128,2,49015:0:0:0:0:
475,192,48824,1,0,0:0:0:70:clap.wav
182,192,49015,128,0,49206:0:0:0:0:
109,192,49206,128,2,49397:0:0:0:0:
402,192,49206,1,0,0:0:0:0:
329,192,49397,128,0,49779:0:0:0:0:
36,192,49588,1,2,0:0:0:0:
109,192,49588,1,0,0:0:0:70:clap.wav
402,192,49779,128,0,49970:0:0:0:0:
182,192,49970,128,2,50352:0:0:0:0:
256,192,49970,1,0,0:0:0:0:
329,192,50352,1,2,0:0:0:0:
402,192,50352,128,0,50543:0:0:0:70:clap.wav
109,192,50543,128,0,50734:0:0:0:0:
36,192,50734,1,2,0:0:0:0:
402,192,50734,128,0,50925:0:0:0:0:
475,192,50925,128,8,51117:0:0:0:0:
109,192,51117,1,2,0:0:0:0:
182,192,51117,1,0,0:0:0:70:clap.wav
329,192,51212,1,0,0:0:0:0:
109,192,51308,1,0,0:0:0:0:
36,192,51499,1,2,0:0:0:0:
256,192,51499,1,0,0:0:0:70:cymbal.wav
475,192,51499,1,0,0:0:0:0:
182,192,51690,1,2,0:0:0:0:
329,192,51690,1,0,0:0:0:0:
109,192,51881,1,8,0:0:0:0:
256,192,51881,1,0,0:0:0:70:LR_CymbalQST.wav
402,192,51881,1,0,0:0:0:0:
109,192,52072,1,8,0:0:0:0:
402,192,52072,1,0,0:0:0:0:
36,192,52263,1,2,0:0:0:0:
182,192,52263,128,4,52454:0:0:0:0:
475,192,52263,1,0,0:0:0:0:
256,192,52454,128,0,52836:0:0:0:0:
36,192,52645,1,2,0:0:0:0:
329,192,52645,1,0,0:0:0:70:clap.wav
109,192,52836,128,0,53027:0:0:0:0:
182,192,53027,1,2,0:0:0:0:
402,192,53027,128,0,53410:0:0:0:0:
182,192,53410,128,2,53601:0:0:0:0:
329,192,53410,1,0,0:0:0:70:clap.wav
402,192,53601,128,0,53792:0:0:0:0:
256,192,53792,1,2,0:0:0:0:
475,192,53792,128,0,54365:0:0:0:0:
109,192,54174,1,2,0:0:0:0:
182,192,54174,1,0,0:0:0:70:clap.wav
36,192,54365,128,0,54556:0:0:0:0:
256,192,54556,1,2,0:0:0:0:
402,192,54556,128,0,55320:0:0:0:0:
109,192,54938,1,2,0:0:0:0:
329,192,54938,1,0,0:0:0:70:clap.wav
182,192,55320,1,2,0:0:0:0:
475,192,55320,1,0,0:0:0:0:
109,192,55511,128,0,55703:0:0:0:0:
256,192,55703,128,2,55894:0:0:0:0:
329,192,55703,1,0,0:0:0:70:clap.wav
402,192,55894,128,0,56085:0:0:0:0:
36,192,56085,1,2,0:0:0:0:
256,192,56085,128,0,56467:0:0:0:0:
182,192,56467,128,2,56658:0:0:0:0:
329,192,56467,1,0,0:0:0:70:clap.wav
36,192,56658,128,0,56849:0:0:0:0:
182,192,56849,128,2,57040:0:0:0:0:
402,192,56849,1,0,0:0:0:0:
256,192,57040,128,0,57231:0:0:0:0:
109,192,57231,1,2,0:0:0:0:
329,192,57231,128,0,57422:0:0:0:70:clap.wav
475,192,57422,128,0,57613:0:0:0:0:
36,192,57613,1,2,0:0:0:0:
256,192,57613,128,0,57996:0:0:0:0:
329,192,57996,1,2,0:0:0:0:
402,192,57996,128,0,58187:0:0:0:70:clap.wav
109,192,58187,128,8,58378:0:0:0:0:
182,192,58378,128,2,58569:0:0:0:0:
402,192,58378,1,4,0:0:0:0:
475,192,58378,1,0,0:0:0:0:
256,192,58569,128,0,58951:0:0:0:0:
36,192,58760,1,2,0:0:0:0:
329,192,58760,1,0,0:0:0:70:clap.wav
109,192,58951,128,0,59142:0:0:0:0:
402,192,59142,128,2,59524:0:0:0:0:
475,192,59142,1,0,0:0:0:0:
109,192,59524,1,2,0:0:0:0:
182,192,59524,128,0,59715:0:0:0:70:clap.wav
329,192,59715,128,0,59906:0:0:0:0:
256,192,59906,1,2,0:0:0:0:
475,192,59906,128,0,60097:0:0:0:0:
402,192,60097,128,0,60288:0:0:0:0:
182,192,60288,1,2,0:0:0:0:
256,192,60288,128,0,60480:0:0:0:70:clap.wav
109,192,60480,128,0,60671:0:0:0:0:
36,192,60671,128,2,61053:0:0:0:0:
402,192,60671,1,0,0:0:0:0:
256,192,61053,1,2,0:0:0:0:
329,192,61053,128,0,61244:0:0:0:70:clap.wav
182,192,61244,128,0,61435:0:0:0:0:
36,192,61435,1,2,0:0:0:0:
109,192,61435,128,0,61626:0:0:0:0:
329,192,61626,128,0,62008:0:0:0:0:
109,192,61817,1,2,0:0:0:0:
182,192,61817,1,0,0:0:0:70:clap.wav
402,192,62008,128,0,62199:0:0:0:0:
182,192,62199,128,2,62581:0:0:0:0:
475,192,62199,1,0,0:0:0:0:
256,192,62581,1,2,0:0:0:0:
402,192,62581,128,0,62773:0:0:0:70:clap.wav
109,192,62773,128,0,62964:0:0:0:0:
329,192,62964,1,8,0:0:0:0:
402,192,62964,1,0,0:0:0:0:
256,192,63155,1,2,0:0:0:0:
109,192,63346,1,8,0:0:0:0:
182,192,63346,1,0,0:0:0:70:clap.wav
329,192,63537,1,2,0:0:0:0:
36,192,63728,1,2,0:0:0:0:
475,192,63728,1,0,0:0:0:0:
256,192,63728,1,4,0:0:0:0:
109,192,63919,1,2,0:0:0:0:
402,192,63919,1,0,0:0:0:0:
182,192,64110,1,8,0:0:0:0:
256,192,64110,1,0,0:0:0:70:LR_CymbalQST.wav
329,192,64110,1,0,0:0:0:0:
402,192,64301,1,8,0:0:0:0:
109,192,64397,1,8,0:0:0:0:
36,192,64492,1,2,0:0:0:0:
256,192,64492,128,4,65066:0:0:0:0:
475,192,64492,1,0,0:0:0:0:
36,192,65066,1,0,0:0:0:0:
182,192,65257,128,0,65448:0:0:0:0:
329,192,65448,128,0,65639:0:0:0:0:
402,192,65639,128,0,65830:0:0:0:0:
475,192,65830,128,0,66021:0:0:0:0:
109,192,66021,1,4,0:0:0:0:
402,192,66021,128,2,66212:0:0:0:0:
329,192,66212,128,0,66403:0:0:0:0:
182,192,66403,128,0,66594:0:0:0:0:
109,192,66594,128,0,66785:0:0:0:0:
36,192,66785,128,0,67167:0:0:0:0:
329,192,67167,1,0,0:0:0:0:
182,192,67359,1,0,0:0:0:0:
256,192,67550,128,2,68123:0:0:0:0:
475,192,67550,1,4,0:0:0:0:
36,192,68123,1,0,0:0:0:0:
182,192,68314,128,0,68505:0:0:0:0:
329,192,68505,128,0,68696:0:0:0:0:
402,192,68696,128,0,68887:0:0:0:0:
475,192,68887,128,0,69078:0:0:0:0:
109,192,69078,1,4,0:0:0:0:
402,192,69078,128,2,69269:0:0:0:0:
329,192,69269,128,0,69460:0:0:0:0:
36,192,69460,128,0,69652:0:0:0:0:
182,192,69652,128,0,69843:0:0:0:0:
402,192,69843,1,2,0:0:0:0:
475,192,69843,128,0,70225:0:0:0:0:
36,192,70225,1,8,0:0:0:0:
329,192,70225,128,0,70416:0:0:0:0:
182,192,70416,128,2,70607:0:0:0:0:
109,192,70607,1,2,0:0:0:0:
256,192,70607,1,4,0:0:0:0:
402,192,70607,1,0,0:0:0:0:
475,192,70798,1,0,0:0:0:0:
36,192,70894,1,0,0:0:0:0:
182,192,70989,1,2,0:0:0:0:
329,192,70989,1,0,0:0:0:0:
402,192,71180,1,0,0:0:0:0:
109,192,71371,1,2,0:0:0:0:
256,192,71371,1,0,0:0:0:0:
475,192,71562,1,0,0:0:0:0:
402,192,71658,1,0,0:0:0:0:
36,192,71753,1,8,0:0:0:0:
329,192,71753,1,0,0:0:0:70:LR_CymbalQST.wav
182,192,71945,1,0,0:0:0:0:
256,192,72136,1,2,0:0:0:0:
475,192,72136,1,0,0:0:0:0:
402,192,72327,1,0,0:0:0:0:
109,192,72422,1,0,0:0:0:0:
36,192,72518,1,2,0:0:0:0:
329,192,72518,1,0,0:0:0:0:
182,192,72709,1,0,0:0:0:0:
109,192,72900,1,2,0:0:0:0:
475,192,72900,1,0,0:0:0:0:
36,192,73091,1,0,0:0:0:0:
256,192,73187,1,0,0:0:0:0:
109,192,73282,1,8,0:0:0:0:
329,192,73282,1,0,0:0:0:70:LR_CymbalQST.wav
182,192,73473,1,2,0:0:0:0:
256,192,73664,1,2,0:0:0:0:
402,192,73664,1,0,0:0:0:70:ride02.wav
36,192,73855,1,2,0:0:0:0:
475,192,73951,1,2,0:0:0:0:
182,192,74046,1,2,0:0:0:0:
329,192,74046,1,0,0:0:0:0:
109,192,74238,1,2,0:0:0:0:
36,192,74429,1,2,0:0:0:0:
402,192,74429,1,0,0:0:0:0:
329,192,74620,1,2,0:0:0:0:
109,192,74715,1,2,0:0:0:0:
182,192,74811,1,8,0:0:0:0:
475,192,74811,1,0,0:0:0:0:
256,192,75002,1,2,0:0:0:0:
329,192,75193,1,2,0:0:0:0:
402,192,75193,1,0,0:0:0:70:ride02.wav
182,192,75384,1,2,0:0:0:0:
109,192,75480,1,0,0:0:0:0:
36,192,75575,1,2,0:0:0:0:
256,192,75575,1,0,0:0:0:0:
329,192,75766,1,2,0:0:0:0:
256,192,75862,1,0,0:0:0:0:
109,192,75957,1,8,0:0:0:0:
182,192,75957,1,0,0:0:0:0:
475,192,76148,1,2,0:0:0:0:
402,192,76244,1,0,0:0:0:0:
256,192,76339,1,8,0:0:0:0:
329,192,76339,1,0,0:0:0:0:
36,192,76531,1,2,0:0:0:0:
182,192,76531,1,0,0:0:0:0:
109,192,77486,1,0,0:0:0:0:
402,192,77581,1,0,0:0:0:0:
329,192,77773,1,0,0:0:0:0:
36,192,77868,1,8,0:0:0:0:
182,192,77868,1,0,0:0:0:0:
109,192,78059,1,2,0:0:0:0:
256,192,78059,1,0,0:0:0:0:
182,192,78250,1,2,0:0:0:0:
329,192,78250,1,4,0:0:0:0:
475,192,78250,1,0,0:0:0:0:
402,192,78441,128,0,78632:0:0:0:0:
36,192,78632,1,8,0:0:0:0:
329,192,78632,128,0,78824:0:0:0:70:clap.wav
182,192,78824,128,0,79015:0:0:0:0:
329,192,79015,1,2,0:0:0:0:
402,192,79015,1,0,0:0:0:0:
109,192,79110,1,0,0:0:0:0:
329,192,79206,1,0,0:0:0:0:
109,192,79301,1,0,0:0:0:0:
182,192,79397,1,8,0:0:0:0:
475,192,79397,1,0,0:0:0:70:clap.wav
256,192,79588,1,0,0:0:0:0:
36,192,79779,1,2,0:0:0:0:
329,192,79779,1,0,0:0:0:0:
402,192,79970,128,0,80161:0:0:0:0:
36,192,80161,1,8,0:0:0:0:
329,192,80161,128,0,80352:0:0:0:70:clap.wav
182,192,80352,128,0,80543:0:0:0:0:
109,192,80543,1,2,0:0:0:0:
475,192,80543,1,0,0:0:0:0:
329,192,80639,1,0,0:0:0:0:
109,192,80734,1,0,0:0:0:0:
329,192,80830,1,0,0:0:0:0:
36,192,80925,1,8,0:0:0:0:
402,192,80925,1,0,0:0:0:70:clap.wav
109,192,81117,1,0,0:0:0:0:
182,192,81308,1,2,0:0:0:0:
475,192,81308,1,0,0:0:0:0:
402,192,81499,128,0,81690:0:0:0:0:
36,192,81690,1,8,0:0:0:0:
329,192,81690,128,0,81881:0:0:0:70:clap.wav
182,192,81881,128,0,82072:0:0:0:0:
402,192,82072,1,2,0:0:0:0:
475,192,82072,1,0,0:0:0:0:
109,192,82167,1,0,0:0:0:0:
402,192,82263,1,0,0:0:0:0:
109,192,82359,1,0,0:0:0:0:
36,192,82454,1,8,0:0:0:0:
329,192,82454,128,0,82645:0:0:0:70:clap.wav
256,192,82645,128,0,82836:0:0:0:0:
109,192,82836,128,2,83027:0:0:0:0:
182,192,83027,1,0,0:0:0:0:
402,192,83027,128,0,83218:0:0:0:0:
36,192,83218,128,8,83410:0:0:0:0:
109,192,83410,128,0,83601:0:0:0:0:
329,192,83410,1,0,0:0:0:0:
182,192,83601,1,2,0:0:0:0:
475,192,83601,1,0,0:0:0:0:
402,192,83696,1,0,0:0:0:0:
182,192,83792,1,2,0:0:0:0:
402,192,83887,1,0,0:0:0:0:
36,192,83983,128,8,84174:0:0:0:0:
109,192,83983,1,0,0:0:0:70:clap.wav
256,192,84174,1,8,0:0:0:0:
329,192,84269,1,0,0:0:0:0:
182,192,84365,1,4,0:0:0:0:
402,192,84365,1,2,0:0:0:0:
475,192,84365,1,0,0:0:0:0:
402,192,84556,128,0,84747:0:0:0:0:
36,192,84747,1,8,0:0:0:0:
329,192,84747,128,0,84938:0:0:0:70:clap.wav
182,192,84938,128,0,85129:0:0:0:0:
256,192,85129,1,2,0:0:0:0:
402,192,85129,1,0,0:0:0:0:
109,192,85225,1,0,0:0:0:0:
402,192,85320,1,0,0:0:0:0:
109,192,85416,1,0,0:0:0:0:
182,192,85511,1,8,0:0:0:0:
475,192,85511,1,0,0:0:0:70:clap.wav
256,192,85703,1,0,0:0:0:0:
36,192,85894,1,2,0:0:0:0:
329,192,85894,1,0,0:0:0:0:
402,192,86085,128,0,86276:0:0:0:0:
109,192,86276,1,8,0:0:0:0:
329,192,86276,128,0,86467:0:0:0:70:clap.wav
182,192,86467,128,0,86658:0:0:0:0:
109,192,86658,1,2,0:0:0:0:
475,192,86658,1,0,0:0:0:0:
402,192,86753,1,0,0:0:0:0:
109,192,86849,1,0,0:0:0:0:
402,192,86945,1,0,0:0:0:0:
36,192,87040,128,8,87422:0:0:0:0:
182,192,87040,1,0,0:0:0:70:clap.wav
329,192,87422,1,2,0:0:0:0:
475,192,87422,1,0,0:0:0:0:
256,192,87613,128,0,87804:0:0:0:0:
36,192,87804,1,8,0:0:0:0:
329,192,87804,128,0,87996:0:0:0:70:clap.wav
402,192,87996,128,0,88187:0:0:0:0:
109,192,88187,128,2,88378:0:0:0:0:
475,192,88187,1,0,0:0:0:0:
256,192,88378,128,0,88569:0:0:0:0:
182,192,88569,1,8,0:0:0:0:
402,192,88569,1,0,0:0:0:70:clap.wav
109,192,88664,1,0,0:0:0:0:
36,192,88760,128,0,88951:0:0:0:0:
256,192,88951,128,2,89142:0:0:0:0:
329,192,89142,1,2,0:0:0:0:
182,192,89238,1,0,0:0:0:0:
109,192,89333,128,8,89524:0:0:0:0:
402,192,89333,1,0,0:0:0:70:clap.wav
256,192,89524,128,2,89715:0:0:0:0:
475,192,89715,1,2,0:0:0:0:
329,192,89811,1,0,0:0:0:0:
36,192,89906,128,8,90097:0:0:0:0:
109,192,89906,1,0,0:0:0:0:
182,192,90097,128,2,90288:0:0:0:0:
329,192,90288,128,2,90480:0:0:0:0:
36,192,90480,1,4,0:0:0:0:
256,192,90480,1,2,0:0:0:0:
475,192,90480,1,0,0:0:0:0:
402,192,90671,128,0,90862:0:0:0:0:
109,192,90862,1,8,0:0:0:0:
329,192,90862,128,0,91053:0:0:0:70:clap.wav
182,192,91053,128,0,91244:0:0:0:0:
329,192,91244,1,2,0:0:0:0:
402,192,91244,1,0,0:0:0:0:
36,192,91339,1,0,0:0:0:0:
329,192,91435,1,0,0:0:0:0:
36,192,91531,1,0,0:0:0:0:
182,192,91626,1,8,0:0:0:0:
475,192,91626,1,0,0:0:0:70:clap.wav
256,192,91817,1,0,0:0:0:0:
36,192,92008,1,2,0:0:0:0:
329,192,92008,1,0,0:0:0:0:
402,192,92199,128,0,92390:0:0:0:0:
36,192,92390,1,8,0:0:0:0:
329,192,92390,128,0,92581:0:0:0:70:clap.wav
182,192,92581,128,0,92773:0:0:0:0:
109,192,92773,1,2,0:0:0:0:
475,192,92773,1,0,0:0:0:0:
402,192,92868,1,0,0:0:0:0:
109,192,92964,1,0,0:0:0:0:
402,192,93059,1,0,0:0:0:0:
36,192,93155,1,8,0:0:0:0:
329,192,93155,1,0,0:0:0:70:clap.wav
109,192,93346,1,0,0:0:0:0:
182,192,93537,1,2,0:0:0:0:
475,192,93537,1,0,0:0:0:0:
402,192,93728,128,0,93919:0:0:0:0:
36,192,93919,1,8,0:0:0:0:
256,192,93919,1,0,0:0:0:70:clap.wav
329,192,94015,1,0,0:0:0:0:
109,192,94110,128,0,94301:0:0:0:0:
36,192,94301,128,2,94492:0:0:0:0:
475,192,94301,1,0,0:0:0:0:
329,192,94492,128,0,94683:0:0:0:0:
182,192,94683,128,8,94874:0:0:0:0:
256,192,94683,1,0,0:0:0:70:clap.wav
109,192,94874,128,0,95066:0:0:0:0:
36,192,95066,128,2,95257:0:0:0:0:
475,192,95066,1,0,0:0:0:0:
329,192,95257,1,8,0:0:0:0:
182,192,95352,1,0,0:0:0:0:
109,192,95448,128,2,95639:0:0:0:0:
402,192,95448,1,0,0:0:0:70:clap.wav
329,192,95639,128,8,95830:0:0:0:0:
182,192,95830,1,2,0:0:0:0:
256,192,95830,1,0,0:0:0:0:
475,192,95925,1,0,0:0:0:0:
182,192,96021,1,8,0:0:0:0:
475,192,96117,1,2,0:0:0:0:
36,192,96212,128,8,96403:0:0:0:0:
109,192,96212,1,0,0:0:0:70:clap.wav
256,192,96403,1,8,0:0:0:0:
329,192,96499,1,0,0:0:0:0:
109,192,96594,1,2,0:0:0:0:
402,192,96594,1,4,0:0:0:0:
475,192,96594,1,0,0:0:0:0:
402,192,96785,128,0,96976:0:0:0:0:
36,192,96976,1,8,0:0:0:0:
329,192,96976,128,0,97167:0:0:0:70:clap.wav
182,192,97167,128,0,97359:0:0:0:0:
329,192,97359,1,2,0:0:0:0:
475,192,97359,1,0,0:0:0:0:
109,192,97454,1,0,0:0:0:0:
329,192,97550,1,0,0:0:0:0:
109,192,97645,1,0,0:0:0:0:
182,192,97741,1,8,0:0:0:0:
475,192,97741,1,0,0:0:0:70:clap.wav
256,192,97932,1,0,0:0:0:0:
36,192,98123,1,2,0:0:0:0:
329,192,98123,1,0,0:0:0:0:
402,192,98314,128,0,98505:0:0:0:0:
109,192,98505,1,8,0:0:0:0:
329,192,98505,128,0,98696:0:0:0:70:clap.wav
182,192,98696,128,0,98887:0:0:0:0:
109,192,98887,1,2,0:0:0:0:
256,192,98887,1,0,0:0:0:0:
329,192,98983,1,0,0:0:0:0:
109,192,99078,1,0,0:0:0:0:
329,192,99174,1,0,0:0:0:0:
36,192,99269,128,8,99652:0:0:0:0:
475,192,99269,1,0,0:0:0:70:clap.wav
182,192,99652,1,2,0:0:0:0:
402,192,99652,1,0,0:0:0:0:
256,192,99843,128,0,100034:0:0:0:0:
36,192,100034,1,8,0:0:0:0:
329,192,100034,128,0,100225:0:0:0:70:clap.wav
402,192,100225,128,0,100416:0:0:0:0:
109,192,100416,128,2,100607:0:0:0:0:
475,192,100416,1,0,0:0:0:0:
402,192,100607,1,0,0:0:0:0:
329,192,100703,1,0,0:0:0:0:
182,192,100798,128,8,100989:0:0:0:0:
256,192,100798,1,0,0:0:0:70:clap.wav
36,192,100989,128,0,101180:0:0:0:0:
329,192,101180,1,2,0:0:0:0:
329,192,101371,1,2,0:0:0:0:
109,192,101562,1,8,0:0:0:0:
402,192,101562,1,0,0:0:0:70:clap.wav
475,192,101753,1,2,0:0:0:0:
182,192,101945,1,2,0:0:0:0:
182,192,102136,1,2,0:0:0:0:
109,192,102327,1,8,0:0:0:0:
402,192,102327,1,0,0:0:0:70:clap.wav
329,192,102422,1,0,0:0:0:0:
36,192,102518,1,2,0:0:0:0:
109,192,102613,1,0,0:0:0:0:
182,192,102709,1,2,0:0:0:0:
329,192,102709,1,4,0:0:0:0:
475,192,102709,128,0,105002:0:0:0:0:
36,192,103282,1,0,0:0:0:0:
109,192,103473,1,0,0:0:0:0:
182,192,104046,1,0,0:0:0:0:
109,192,104238,1,0,0:0:0:0:
182,192,104811,1,0,0:0:0:0:
109,192,105002,1,0,0:0:0:70:tom02.wav
402,192,105002,128,0,105384:0:0:0:0:
329,192,105384,128,0,105766:0:0:0:70:tom03.wav
36,192,105766,1,2,0:0:0:0:
256,192,105766,128,0,108100:0:0:0:70:LR_CymbalQST.wav
475,192,105766,1,0,0:0:0:0:
36,192,106339,1,0,0:0:0:0:
109,192,106531,1,0,0:0:0:0:
475,192,106722,1,0,0:0:0:0:
402,192,106913,1,0,0:0:0:0:
329,192,107104,1,0,0:0:0:0:
182,192,107295,1,0,0:0:0:0:
329,192,107496,1,0,0:0:0:0:
182,192,107697,1,0,0:0:0:0:
36,192,107899,1,0,0:0:0:0:
182,192,108100,128,2,108503:0:0:0:0:
402,192,108100,1,0,0:0:0:70:cymbal.wav
109,192,108503,128,2,111061:0:0:0:0:
329,192,108503,1,0,0:0:0:70:LR_CymbalQST.wav
256,192,109543,1,0,0:0:0:0:
182,192,109756,1,0,0:0:0:0:
329,192,110181,1,0,0:0:0:0:
256,192,110394,1,0,0:0:0:0:
402,192,110607,1,0,0:0:0:0:
329,192,110834,1,0,0:0:0:0:
475,192,111061,1,0,0:0:0:0:
402,192,111288,1,0,0:0:0:0:
256,192,111516,1,2,0:0:0:0:
329,192,111516,1,0,0:0:0:70:cymbal.wav
182,192,111743,1,0,0:0:0:70:tom04.wav
109,192,111857,1,0,0:0:0:70:tom04.wav
36,192,111970,128,2,119613:0:0:0:0:
329,192,111970,1,0,0:0:0:70:LR_CymbalQST.wav
475,192,111970,1,0,0:0:0:0:
