osu file format v14

[General]
AudioFilename: audio.mp3
AudioLeadIn: 0
PreviewTime: 77873
Countdown: 1
SampleSet: Normal
StackLeniency: 0.7
Mode: 1
LetterboxInBreaks: 0
WidescreenStoryboard: 0

[Editor]
Bookmarks: 40039
DistanceSpacing: 1.1
BeatDivisor: 6
GridSize: 32
TimelineZoom: 2

[Metadata]
Title:AsiaN distractive
TitleUnicode:AsiaN distractive
Artist:Nekomata Gekidan
ArtistUnicode:猫叉劇団
Creator:Zetera
Version:Pleioblastus pygmaeus
Source:
Tags:
BeatmapID:1751238
BeatmapSetID:836226

[Difficulty]
HPDrainRate:6
CircleSize:2
OverallDifficulty:7.5
ApproachRate:10
SliderMultiplier:1.4
SliderTickRate:3

[Events]
//Background and Video events
0,0,"BG_distraction.jpg",0,0
//Break Periods
//Storyboard Layer 0 (Background)
//Storyboard Layer 1 (Fail)
//Storyboard Layer 2 (Pass)
//Storyboard Layer 3 (Foreground)
//Storyboard Sound Samples

[TimingPoints]
294,382.165605095541,4,1,0,100,1,0
77491,-101.010101010101,4,1,0,100,0,0
77586,-102.040816326531,4,1,0,100,0,0
77778,-104.166666666667,4,1,0,100,0,0
77873,-105.263157894737,4,1,0,100,0,0
78064,-107.52688172043,4,1,0,100,0,0
78255,-109.89010989011,4,1,0,100,0,1
102714,-109.89010989011,4,1,0,100,0,0

[HitObjects]
256,192,1060,5,8,0:0:0:0:
256,192,1251,1,8,0:0:0:0:
256,192,1442,1,8,0:0:0:0:
256,192,1633,1,8,0:0:0:0:
256,192,1729,1,8,0:0:0:0:
256,192,1824,1,4,0:0:0:0:
256,192,2395,1,8,0:0:0:0:
256,192,2491,1,8,0:0:0:0:
256,192,2586,1,0,0:0:0:0:
256,192,3160,1,8,0:0:0:0:
256,192,3255,1,0,0:0:0:0:
256,192,3351,1,0,0:0:0:0:
256,192,3733,1,0,0:0:0:0:
256,192,3860,1,0,0:0:0:0:
256,192,3988,1,0,0:0:0:0:
256,192,4115,1,8,0:0:0:0:
256,192,4243,1,0,0:0:0:0:
256,192,4370,1,0,0:0:0:0:
256,192,4497,1,8,0:0:0:0:
256,192,4625,1,8,0:0:0:0:
256,192,4752,1,0,0:0:0:0:
256,192,4816,1,0,0:0:0:0:
256,192,4879,1,0,0:0:0:0:
256,192,5453,1,8,0:0:0:0:
256,192,5548,1,0,0:0:0:0:
256,192,5644,1,8,0:0:0:0:
256,192,5835,1,0,0:0:0:0:
256,192,6026,1,8,0:0:0:0:
256,192,6217,1,8,0:0:0:0:
256,192,6408,1,0,0:0:0:0:
256,192,6599,1,8,0:0:0:0:
256,192,6790,1,0,0:0:0:0:
256,192,6981,1,8,0:0:0:0:
256,192,7172,1,4,0:0:0:0:
256,192,7555,1,4,0:0:0:0:
256,192,8510,1,0,0:0:0:0:
256,192,8701,1,0,0:0:0:0:
256,192,9083,1,0,0:0:0:0:
256,192,9274,1,8,0:0:0:0:
256,192,9465,1,0,0:0:0:0:
256,192,9657,1,8,0:0:0:0:
256,192,9752,1,0,0:0:0:0:
256,192,9848,1,0,0:0:0:0:
256,192,10039,1,8,0:0:0:0:
256,192,10230,1,8,0:0:0:0:
256,192,10325,1,0,0:0:0:0:
256,192,10421,1,8,0:0:0:0:
256,192,10516,1,8,0:0:0:0:
256,192,10612,1,4,0:0:0:0:
256,192,11950,1,8,0:0:0:0:
256,192,12142,1,8,0:0:0:0:
256,192,12332,1,0,0:0:0:0:
256,192,12523,1,8,0:0:0:0:
256,192,12714,1,8,0:0:0:0:
256,192,12905,1,8,0:0:0:0:
256,192,13096,1,0,0:0:0:0:
256,192,13287,1,4,0:0:0:0:
256,192,13478,1,8,0:0:0:0:
256,192,13574,1,8,0:0:0:0:
256,192,13669,1,4,0:0:0:0:
256,192,13860,1,8,0:0:0:0:
256,192,13956,1,8,0:0:0:0:
256,192,14051,1,4,0:0:0:0:
256,192,14243,1,0,0:0:0:0:
256,192,14338,1,0,0:0:0:0:
256,192,14434,1,0,0:0:0:0:
256,192,14625,1,8,0:0:0:0:
256,192,14720,1,0,0:0:0:0:
256,192,14816,1,8,0:0:0:0:
256,192,15007,1,8,0:0:0:0:
256,192,15102,1,0,0:0:0:0:
256,192,15198,1,0,0:0:0:0:
256,192,15389,1,8,0:0:0:0:
256,192,15485,1,8,0:0:0:0:
256,192,15580,1,8,0:0:0:0:
256,192,15771,1,0,0:0:0:0:
256,192,15867,1,8,0:0:0:0:
256,192,15962,1,0,0:0:0:0:
256,192,16153,1,8,0:0:0:0:
256,192,16249,1,8,0:0:0:0:
256,192,16344,1,0,0:0:0:0:
256,192,16440,1,8,0:0:0:0:
256,192,16631,1,8,0:0:0:0:
256,192,16727,1,0,0:0:0:0:
256,192,16918,1,8,0:0:0:0:
256,192,17013,1,8,0:0:0:0:
256,192,17109,1,0,0:0:0:0:
256,192,17300,1,0,0:0:0:0:
256,192,17395,1,0,0:0:0:0:
256,192,17491,1,0,0:0:0:0:
256,192,17682,1,8,0:0:0:0:
256,192,17778,1,8,0:0:0:0:
256,192,17873,1,8,0:0:0:0:
256,192,18064,1,0,0:0:0:0:
256,192,18160,1,8,0:0:0:0:
256,192,18255,1,0,0:0:0:0:
256,192,18446,1,8,0:0:0:0:
256,192,18637,1,0,0:0:0:0:
256,192,18733,1,0,0:0:0:0:
256,192,18829,1,8,0:0:0:0:
256,192,18924,1,8,0:0:0:0:
256,192,19020,1,0,0:0:0:0:
256,192,19211,1,8,0:0:0:0:
256,192,19402,1,4,0:0:0:0:
256,192,19593,1,8,0:0:0:0:
256,192,19688,1,8,0:0:0:0:
256,192,19784,1,4,0:0:0:0:
256,192,20166,1,12,0:0:0:0:
256,192,20357,1,0,0:0:0:0:
256,192,20548,1,0,0:0:0:0:
256,192,20739,1,8,0:0:0:0:
256,192,20835,1,8,0:0:0:0:
256,192,20930,1,0,0:0:0:0:
256,192,21122,1,0,0:0:0:0:
256,192,21313,1,0,0:0:0:0:
256,192,21504,1,8,0:0:0:0:
256,192,21599,1,8,0:0:0:0:
256,192,21695,1,8,0:0:0:0:
256,192,21886,1,0,0:0:0:0:
256,192,22077,1,0,0:0:0:0:
256,192,22268,1,8,0:0:0:0:
256,192,22332,1,8,0:0:0:0:
256,192,22395,1,8,0:0:0:0:
256,192,22459,1,8,0:0:0:0:
256,192,22650,1,0,0:0:0:0:
256,192,22841,1,12,0:0:0:0:
256,192,23223,1,0,0:0:0:0:
256,192,23415,1,8,0:0:0:0:
256,192,23606,1,0,0:0:0:0:
256,192,23797,1,8,0:0:0:0:
256,192,23892,1,8,0:0:0:0:
256,192,23988,1,0,0:0:0:0:
256,192,24179,1,8,0:0:0:0:
256,192,24370,1,0,0:0:0:0:
256,192,24561,1,8,0:0:0:0:
256,192,24625,1,0,0:0:0:0:
256,192,24688,1,0,0:0:0:0:
256,192,24752,1,8,0:0:0:0:
256,192,24943,1,0,0:0:0:0:
256,192,25134,1,8,0:0:0:0:
256,192,25325,1,8,0:0:0:0:
256,192,25421,1,8,0:0:0:0:
256,192,25516,1,8,0:0:0:0:
256,192,25708,1,0,0:0:0:0:
256,192,25899,1,8,0:0:0:0:
256,192,26090,1,0,0:0:0:0:
256,192,26281,1,12,0:0:0:0:
256,192,26567,1,8,0:0:0:0:
256,192,26663,1,8,0:0:0:0:
256,192,26854,1,8,0:0:0:0:
256,192,27045,1,0,0:0:0:0:
256,192,27141,1,8,0:0:0:0:
256,192,27236,1,8,0:0:0:0:
256,192,27427,1,0,0:0:0:0:
256,192,27618,1,0,0:0:0:0:
256,192,27714,1,0,0:0:0:0:
256,192,27809,1,8,0:0:0:0:
256,192,28001,1,0,0:0:0:0:
256,192,28096,1,8,0:0:0:0:
256,192,28192,1,8,0:0:0:0:
256,192,28383,1,8,0:0:0:0:
256,192,28478,1,0,0:0:0:0:
256,192,28669,1,8,0:0:0:0:
256,192,28765,1,8,0:0:0:0:
256,192,28956,1,0,0:0:0:0:
256,192,29051,1,0,0:0:0:0:
256,192,29147,1,0,0:0:0:0:
256,192,29243,1,0,0:0:0:0:
256,192,29338,1,8,0:0:0:0:
256,192,29529,1,0,0:0:0:0:
256,192,29625,1,8,0:0:0:0:
256,192,29720,1,8,0:0:0:0:
256,192,29911,1,8,0:0:0:0:
256,192,30007,1,0,0:0:0:0:
256,192,30102,1,0,0:0:0:0:
256,192,30198,1,8,0:0:0:0:
256,192,30293,1,8,0:0:0:0:
256,192,30485,1,0,0:0:0:0:
256,192,30676,1,8,0:0:0:0:
256,192,30771,1,8,0:0:0:0:
256,192,30867,1,0,0:0:0:0:
256,192,30962,1,8,0:0:0:0:
256,192,31058,1,0,0:0:0:0:
256,192,31153,1,8,0:0:0:0:
256,192,31249,1,0,0:0:0:0:
256,192,31344,1,0,0:0:0:0:
256,192,31440,1,12,0:0:0:0:
256,192,31727,1,0,0:0:0:0:
256,192,31822,1,0,0:0:0:0:
256,192,32013,1,8,0:0:0:0:
256,192,32204,1,0,0:0:0:0:
256,192,32395,1,12,0:0:0:0:
256,192,32586,1,0,0:0:0:0:
256,192,32682,1,8,0:0:0:0:
256,192,32778,1,8,0:0:0:0:
256,192,32969,1,8,0:0:0:0:
256,192,33064,1,0,0:0:0:0:
256,192,33160,1,0,0:0:0:0:
256,192,33255,1,8,0:0:0:0:
256,192,33351,1,8,0:0:0:0:
256,192,33542,1,8,0:0:0:0:
256,192,33733,1,0,0:0:0:0:
256,192,33829,1,0,0:0:0:0:
256,192,33924,1,8,0:0:0:0:
256,192,34020,1,0,0:0:0:0:
256,192,34211,1,8,0:0:0:0:
256,192,34306,1,8,0:0:0:0:
256,192,34497,1,8,0:0:0:0:
256,192,34593,1,0,0:0:0:0:
256,192,34688,1,0,0:0:0:0:
256,192,34784,1,8,0:0:0:0:
256,192,34879,1,8,0:0:0:0:
256,192,35071,1,0,0:0:0:0:
256,192,35262,1,8,0:0:0:0:
256,192,35358,1,8,0:0:0:0:
256,192,35453,1,8,0:0:0:0:
256,192,35644,1,0,0:0:0:0:
256,192,35739,1,8,0:0:0:0:
256,192,35835,1,0,0:0:0:0:
256,192,36026,1,0,0:0:0:0:
256,192,36122,1,8,0:0:0:0:
256,192,36217,1,0,0:0:0:0:
256,192,36313,1,0,0:0:0:0:
256,192,36408,1,8,0:0:0:0:
256,192,36504,1,8,0:0:0:0:
256,192,36599,1,0,0:0:0:0:
256,192,36695,1,0,0:0:0:0:
256,192,36790,1,8,0:0:0:0:
256,192,36886,1,0,0:0:0:0:
256,192,36981,1,8,0:0:0:0:
256,192,37077,1,0,0:0:0:0:
256,192,37172,1,0,0:0:0:0:
256,192,37268,1,8,0:0:0:0:
256,192,37364,1,8,0:0:0:0:
256,192,37459,1,0,0:0:0:0:
256,192,37555,1,12,0:0:0:0:
256,192,38510,2,0,L|64:192,2,175
256,192,39657,1,8,0:0:0:0:
256,192,39752,1,0,0:0:0:0:
256,192,39848,1,8,0:0:0:0:
256,192,40039,1,4,0:0:0:0:
256,192,40230,1,8,0:0:0:0:
256,192,40325,1,0,0:0:0:0:
256,192,40421,1,8,0:0:0:0:
256,192,40612,1,0,0:0:0:0:
256,192,40803,1,8,0:0:0:0:
256,192,40899,1,8,0:0:0:0:
256,192,40994,1,0,0:0:0:0:
256,192,41090,1,0,0:0:0:0:
256,192,41185,1,8,0:0:0:0:
256,192,41376,1,0,0:0:0:0:
256,192,41567,1,0,0:0:0:0:
256,192,41615,1,8,0:0:0:0:
256,192,41758,1,0,0:0:0:0:
256,192,41854,1,0,0:0:0:0:
256,192,41950,1,8,0:0:0:0:
256,192,42141,1,8,0:0:0:0:
256,192,42204,1,0,0:0:0:0:
256,192,42268,1,0,0:0:0:0:
256,192,42332,1,8,0:0:0:0:
256,192,42523,1,8,0:0:0:0:
256,192,42618,1,8,0:0:0:0:
256,192,42714,1,0,0:0:0:0:
256,192,42809,1,0,0:0:0:0:
256,192,42905,1,8,0:0:0:0:
256,192,43001,1,8,0:0:0:0:
256,192,43096,1,0,0:0:0:0:
256,192,43287,1,8,0:0:0:0:
256,192,43383,1,0,0:0:0:0:
256,192,43478,1,8,0:0:0:0:
256,192,43669,1,8,0:0:0:0:
256,192,43733,1,0,0:0:0:0:
256,192,43797,1,0,0:0:0:0:
256,192,43860,1,8,0:0:0:0:
256,192,44051,1,0,0:0:0:0:
256,192,44147,1,0,0:0:0:0:
256,192,44243,1,8,0:0:0:0:
256,192,44338,1,0,0:0:0:0:
256,192,44434,1,8,0:0:0:0:
256,192,44625,1,0,0:0:0:0:
256,192,44816,1,8,0:0:0:0:
256,192,44911,1,8,0:0:0:0:
256,192,45007,1,8,0:0:0:0:
256,192,45198,1,0,0:0:0:0:
256,192,45389,1,8,0:0:0:0:
256,192,45485,1,8,0:0:0:0:
256,192,45580,1,8,0:0:0:0:
256,192,45676,1,0,0:0:0:0:
256,192,45771,1,8,0:0:0:0:
256,192,45867,1,8,0:0:0:0:
256,192,45962,1,0,0:0:0:0:
256,192,46153,1,4,0:0:0:0:
256,192,46344,1,8,0:0:0:0:
256,192,46440,1,0,0:0:0:0:
256,192,46536,1,8,0:0:0:0:
256,192,46727,1,0,0:0:0:0:
256,192,46918,1,8,0:0:0:0:
256,192,46981,1,8,0:0:0:0:
256,192,47045,1,8,0:0:0:0:
256,192,47109,1,0,0:0:0:0:
256,192,47300,1,8,0:0:0:0:
256,192,47395,1,0,0:0:0:0:
256,192,47491,1,8,0:0:0:0:
256,192,47682,1,0,0:0:0:0:
256,192,47809,1,0,0:0:0:0:
256,192,47873,1,8,0:0:0:0:
256,192,48064,1,0,0:0:0:0:
256,192,48192,1,0,0:0:0:0:
256,192,48255,1,8,0:0:0:0:
256,192,48446,1,0,0:0:0:0:
256,192,48637,1,0,0:0:0:0:
256,192,48829,1,8,0:0:0:0:
256,192,48924,1,0,0:0:0:0:
256,192,49020,1,8,0:0:0:0:
256,192,49115,1,8,0:0:0:0:
256,192,49211,1,0,0:0:0:0:
256,192,49402,1,0,0:0:0:0:
256,192,49497,1,8,0:0:0:0:
256,192,49593,1,8,0:0:0:0:
256,192,49784,1,0,0:0:0:0:
256,192,49975,5,8,0:0:0:0:
256,192,50023,1,8,0:0:0:0:
256,192,50071,1,8,0:0:0:0:
256,192,50166,1,0,0:0:0:0:
256,192,50262,1,8,0:0:0:0:
256,192,50357,1,8,0:0:0:0:
256,192,50548,1,0,0:0:0:0:
256,192,50739,1,8,0:0:0:0:
256,192,50835,1,0,0:0:0:0:
256,192,50930,1,8,0:0:0:0:
256,192,51026,1,0,0:0:0:0:
256,192,51122,1,8,0:0:0:0:
256,192,51185,1,8,0:0:0:0:
256,192,51249,1,0,0:0:0:0:
256,192,51313,1,8,0:0:0:0:
256,192,51408,1,0,0:0:0:0:
256,192,51504,1,8,0:0:0:0:
256,192,51551,1,8,0:0:0:0:
256,192,51599,1,8,0:0:0:0:
256,192,51695,1,0,0:0:0:0:
256,192,51790,1,8,0:0:0:0:
256,192,51886,1,8,0:0:0:0:
256,192,51950,1,0,0:0:0:0:
256,192,52013,1,0,0:0:0:0:
256,192,52077,1,8,0:0:0:0:
256,192,52172,1,8,0:0:0:0:
256,192,52268,1,4,0:0:0:0:
256,192,52459,1,8,0:0:0:0:
256,192,52555,1,0,0:0:0:0:
256,192,52650,1,8,0:0:0:0:
256,192,52842,1,0,0:0:0:0:
256,192,52937,1,8,0:0:0:0:
256,192,53032,1,0,0:0:0:0:
256,192,53096,1,8,0:0:0:0:
256,192,53160,1,8,0:0:0:0:
256,192,53223,1,0,0:0:0:0:
256,192,53319,1,0,0:0:0:0:
256,192,53415,1,8,0:0:0:0:
256,192,53606,1,8,0:0:0:0:
256,192,53701,1,0,0:0:0:0:
256,192,53797,1,8,0:0:0:0:
256,192,53844,1,8,0:0:0:0:
256,192,53892,1,8,0:0:0:0:
256,192,53988,1,0,0:0:0:0:
256,192,54083,1,8,0:0:0:0:
256,192,54179,1,0,0:0:0:0:
256,192,54370,1,8,0:0:0:0:
256,192,54434,1,0,0:0:0:0:
256,192,54497,1,0,0:0:0:0:
256,192,54561,1,8,0:0:0:0:
256,192,54657,1,0,0:0:0:0:
256,192,54752,1,0,0:0:0:0:
256,192,54848,1,8,0:0:0:0:
256,192,54943,1,8,0:0:0:0:
256,192,55039,1,0,0:0:0:0:
256,192,55134,1,8,0:0:0:0:
256,192,55325,1,0,0:0:0:0:
256,192,55516,1,8,0:0:0:0:
256,192,55612,1,0,0:0:0:0:
256,192,55708,1,8,0:0:0:0:
256,192,55803,1,0,0:0:0:0:
256,192,55899,1,8,0:0:0:0:
256,192,55962,1,8,0:0:0:0:
256,192,56026,1,8,0:0:0:0:
256,192,56090,1,0,0:0:0:0:
256,192,56185,1,8,0:0:0:0:
256,192,56376,1,8,0:0:0:0:
256,192,56472,1,8,0:0:0:0:
256,192,56567,1,0,0:0:0:0:
256,192,56663,1,8,0:0:0:0:
256,192,56854,1,0,0:0:0:0:
256,192,56950,1,0,0:0:0:0:
256,192,57045,1,8,0:0:0:0:
256,192,57141,1,0,0:0:0:0:
256,192,57236,1,8,0:0:0:0:
256,192,57332,1,0,0:0:0:0:
256,192,57427,1,8,0:0:0:0:
256,192,57618,1,8,0:0:0:0:
256,192,57714,1,0,0:0:0:0:
256,192,57809,1,0,0:0:0:0:
256,192,57905,1,8,0:0:0:0:
256,192,58001,1,8,0:0:0:0:
256,192,58096,1,0,0:0:0:0:
256,192,58192,1,8,0:0:0:0:
256,192,58383,1,12,0:0:0:0:
256,192,58574,1,8,0:0:0:0:
256,192,58669,1,8,0:0:0:0:
256,192,58765,1,0,0:0:0:0:
256,192,58956,1,8,0:0:0:0:
256,192,59147,1,0,0:0:0:0:
256,192,59211,1,8,0:0:0:0:
256,192,59274,1,8,0:0:0:0:
256,192,59338,1,0,0:0:0:0:
256,192,59529,1,8,0:0:0:0:
256,192,59720,1,0,0:0:0:0:
256,192,59816,1,0,0:0:0:0:
256,192,59911,1,8,0:0:0:0:
256,192,60007,1,0,0:0:0:0:
256,192,60102,1,8,0:0:0:0:
256,192,60198,1,0,0:0:0:0:
256,192,60293,1,8,0:0:0:0:
256,192,60357,1,8,0:0:0:0:
256,192,60421,1,0,0:0:0:0:
256,192,60485,1,8,0:0:0:0:
256,192,60580,1,0,0:0:0:0:
256,192,60676,1,8,0:0:0:0:
256,192,60771,1,0,0:0:0:0:
256,192,60962,1,0,0:0:0:0:
256,192,61058,1,8,0:0:0:0:
256,192,61153,1,8,0:0:0:0:
256,192,61249,1,0,0:0:0:0:
256,192,61440,1,8,0:0:0:0:
256,192,61631,1,0,0:0:0:0:
256,192,61727,1,0,0:0:0:0:
256,192,61822,1,8,0:0:0:0:
256,192,62013,1,8,0:0:0:0:
256,192,62109,1,0,0:0:0:0:
256,192,62204,1,8,0:0:0:0:
256,192,62268,1,8,0:0:0:0:
256,192,62332,1,8,0:0:0:0:
256,192,62395,1,0,0:0:0:0:
256,192,62586,1,8,0:0:0:0:
256,192,62682,1,0,0:0:0:0:
256,192,62778,1,8,0:0:0:0:
256,192,62873,1,8,0:0:0:0:
256,192,62969,1,0,0:0:0:0:
256,192,63064,1,8,0:0:0:0:
256,192,63160,1,0,0:0:0:0:
256,192,63255,1,0,0:0:0:0:
256,192,63351,1,8,0:0:0:0:
256,192,63415,1,0,0:0:0:0:
256,192,63478,1,0,0:0:0:0:
256,192,63542,1,8,0:0:0:0:
256,192,63733,1,8,0:0:0:0:
256,192,63781,1,8,0:0:0:0:
256,192,63829,1,8,0:0:0:0:
256,192,63924,1,0,0:0:0:0:
256,192,64020,1,8,0:0:0:0:
256,192,64115,1,8,0:0:0:0:
256,192,64163,1,8,0:0:0:0:
256,192,64211,1,8,0:0:0:0:
256,192,64306,1,0,0:0:0:0:
256,192,64402,1,0,0:0:0:0:
256,192,64497,1,12,0:0:0:0:
256,192,65071,1,0,0:0:0:0:
256,192,65166,1,0,0:0:0:0:
256,192,65262,1,8,0:0:0:0:
256,192,65453,1,0,0:0:0:0:
256,192,65644,1,8,0:0:0:0:
256,192,65835,1,8,0:0:0:0:
256,192,65899,1,8,0:0:0:0:
256,192,65962,1,8,0:0:0:0:
256,192,66026,1,0,0:0:0:0:
256,192,66217,1,0,0:0:0:0:
256,192,66408,1,8,0:0:0:0:
256,192,66599,1,8,0:0:0:0:
256,192,66790,1,0,0:0:0:0:
256,192,67077,1,0,0:0:0:0:
256,192,67172,1,8,0:0:0:0:
256,192,67364,1,0,0:0:0:0:
256,192,67459,1,8,0:0:0:0:
256,192,67555,1,0,0:0:0:0:
256,192,67602,1,8,0:0:0:0:
256,192,68128,1,0,0:0:0:0:
256,192,68223,1,0,0:0:0:0:
256,192,68319,1,8,0:0:0:0:
256,192,68510,1,0,0:0:0:0:
256,192,68701,1,8,0:0:0:0:
256,192,68892,1,8,0:0:0:0:
256,192,68956,1,8,0:0:0:0:
256,192,69020,1,0,0:0:0:0:
256,192,69083,1,8,0:0:0:0:
256,192,69274,1,0,0:0:0:0:
256,192,69370,1,8,0:0:0:0:
256,192,69465,1,0,0:0:0:0:
256,192,69657,1,8,0:0:0:0:
256,192,69848,1,12,0:0:0:0:
256,192,70230,1,0,0:0:0:0:
256,192,70421,1,8,0:0:0:0:
256,192,70612,1,12,0:0:0:0:
256,192,70899,1,8,0:0:0:0:
256,192,70994,1,0,0:0:0:0:
256,192,71185,1,8,0:0:0:0:
256,192,71281,1,8,0:0:0:0:
256,192,71376,1,0,0:0:0:0:
256,192,71567,1,0,0:0:0:0:
256,192,71663,1,8,0:0:0:0:
256,192,71758,1,0,0:0:0:0:
256,192,71950,1,0,0:0:0:0:
256,192,72045,1,8,0:0:0:0:
256,192,72093,1,8,0:0:0:0:
256,192,72141,1,0,0:0:0:0:
256,192,72332,1,8,0:0:0:0:
256,192,72523,1,0,0:0:0:0:
256,192,72714,1,0,0:0:0:0:
256,192,72809,1,8,0:0:0:0:
256,192,72905,1,0,0:0:0:0:
256,192,73096,1,8,0:0:0:0:
256,192,73287,1,0,0:0:0:0:
256,192,73383,1,0,0:0:0:0:
256,192,73478,1,8,0:0:0:0:
256,192,73574,1,8,0:0:0:0:
256,192,73669,1,0,0:0:0:0:
256,192,73860,1,8,0:0:0:0:
256,192,73956,1,8,0:0:0:0:
256,192,74051,1,8,0:0:0:0:
256,192,74243,1,8,0:0:0:0:
256,192,74338,1,8,0:0:0:0:
256,192,74434,1,0,0:0:0:0:
256,192,74625,1,8,0:0:0:0:
256,192,74720,1,8,0:0:0:0:
256,192,74816,1,0,0:0:0:0:
256,192,74911,1,8,0:0:0:0:
256,192,75102,1,0,0:0:0:0:
256,192,75150,1,0,0:0:0:0:
256,192,75198,1,8,0:0:0:0:
256,192,75389,1,8,0:0:0:0:
256,192,75485,1,8,0:0:0:0:
256,192,75580,1,0,0:0:0:0:
256,192,75771,1,8,0:0:0:0:
256,192,75867,1,8,0:0:0:0:
256,192,75962,1,0,0:0:0:0:
256,192,76153,1,0,0:0:0:0:
256,192,76249,1,0,0:0:0:0:
256,192,76344,1,8,0:0:0:0:
256,192,76440,1,8,0:0:0:0:
256,192,76536,1,0,0:0:0:0:
256,192,76631,1,8,0:0:0:0:
256,192,77491,1,0,0:0:0:0:
256,192,77586,1,8,0:0:0:0:
256,192,77778,1,8,0:0:0:0:
256,192,77873,1,0,0:0:0:0:
256,192,78064,1,8,0:0:0:0:
256,192,78255,1,4,0:0:0:0:
256,192,78446,1,0,0:0:0:0:
256,192,78510,1,8,0:0:0:0:
256,192,78574,1,8,0:0:0:0:
256,192,78637,1,0,0:0:0:0:
256,192,78733,1,0,0:0:0:0:
256,192,78829,1,8,0:0:0:0:
256,192,78924,1,0,0:0:0:0:
256,192,79020,1,8,0:0:0:0:
256,192,79083,1,8,0:0:0:0:
256,192,79147,1,8,0:0:0:0:
256,192,79211,1,8,0:0:0:0:
256,192,79274,1,8,0:0:0:0:
256,192,79338,1,8,0:0:0:0:
256,192,79402,1,0,0:0:0:0:
256,192,79593,1,8,0:0:0:0:
256,192,79784,1,0,0:0:0:0:
256,192,79879,1,8,0:0:0:0:
256,192,79975,1,0,0:0:0:0:
256,192,80039,1,8,0:0:0:0:
256,192,80102,1,8,0:0:0:0:
256,192,80166,1,0,0:0:0:0:
256,192,80262,1,0,0:0:0:0:
256,192,80357,1,8,0:0:0:0:
256,192,80453,1,0,0:0:0:0:
256,192,80548,1,8,0:0:0:0:
256,192,80612,1,8,0:0:0:0:
256,192,80676,1,8,0:0:0:0:
256,192,80739,1,8,0:0:0:0:
256,192,80803,1,8,0:0:0:0:
256,192,80867,1,8,0:0:0:0:
256,192,80930,1,0,0:0:0:0:
256,192,81122,1,8,0:0:0:0:
256,192,81217,1,8,0:0:0:0:
256,192,81313,1,0,0:0:0:0:
256,192,81504,1,0,0:0:0:0:
256,192,81567,1,8,0:0:0:0:
256,192,81631,1,8,0:0:0:0:
256,192,81695,1,0,0:0:0:0:
256,192,81790,1,0,0:0:0:0:
256,192,81886,1,8,0:0:0:0:
256,192,81981,1,0,0:0:0:0:
256,192,82077,1,8,0:0:0:0:
256,192,82141,1,8,0:0:0:0:
256,192,82204,1,8,0:0:0:0:
256,192,82268,1,8,0:0:0:0:
256,192,82332,1,8,0:0:0:0:
256,192,82395,1,8,0:0:0:0:
256,192,82459,1,0,0:0:0:0:
256,192,82650,1,0,0:0:0:0:
256,192,82746,1,8,0:0:0:0:
256,192,82841,1,0,0:0:0:0:
256,192,83032,1,8,0:0:0:0:
256,192,83128,1,8,0:0:0:0:
256,192,83223,1,0,0:0:0:0:
256,192,83415,1,8,0:0:0:0:
256,192,83510,1,0,0:0:0:0:
256,192,83606,1,8,0:0:0:0:
256,192,83669,1,8,0:0:0:0:
256,192,83733,1,8,0:0:0:0:
256,192,83797,1,0,0:0:0:0:
256,192,83860,1,0,0:0:0:0:
256,192,83924,1,0,0:0:0:0:
256,192,83988,1,8,0:0:0:0:
256,192,84083,1,0,0:0:0:0:
256,192,84179,1,8,0:0:0:0:
256,192,84274,1,8,0:0:0:0:
256,192,84370,1,4,0:0:0:0:
256,192,84561,1,0,0:0:0:0:
256,192,84625,1,8,0:0:0:0:
256,192,84689,1,8,0:0:0:0:
256,192,84752,1,0,0:0:0:0:
256,192,84848,1,0,0:0:0:0:
256,192,84944,1,8,0:0:0:0:
256,192,85039,1,0,0:0:0:0:
256,192,85135,1,8,0:0:0:0:
256,192,85198,1,8,0:0:0:0:
256,192,85262,1,8,0:0:0:0:
256,192,85326,1,8,0:0:0:0:
256,192,85389,1,8,0:0:0:0:
256,192,85453,1,8,0:0:0:0:
256,192,85517,1,0,0:0:0:0:
256,192,85708,1,8,0:0:0:0:
256,192,85899,1,0,0:0:0:0:
256,192,85994,1,8,0:0:0:0:
256,192,86090,1,0,0:0:0:0:
256,192,86154,1,8,0:0:0:0:
256,192,86217,1,8,0:0:0:0:
256,192,86281,1,0,0:0:0:0:
256,192,86377,1,0,0:0:0:0:
256,192,86472,1,8,0:0:0:0:
256,192,86568,1,0,0:0:0:0:
256,192,86663,1,8,0:0:0:0:
256,192,86727,1,8,0:0:0:0:
256,192,86791,1,8,0:0:0:0:
256,192,86854,1,8,0:0:0:0:
256,192,86918,1,8,0:0:0:0:
256,192,86982,1,8,0:0:0:0:
256,192,87045,1,0,0:0:0:0:
256,192,87236,1,8,0:0:0:0:
256,192,87427,1,0,0:0:0:0:
256,192,87523,1,8,0:0:0:0:
256,192,87714,1,8,0:0:0:0:
256,192,87809,1,0,0:0:0:0:
256,192,87905,1,8,0:0:0:0:
256,192,88001,1,8,0:0:0:0:
256,192,88192,1,0,0:0:0:0:
256,192,88287,1,8,0:0:0:0:
256,192,88383,1,8,0:0:0:0:
256,192,88478,1,0,0:0:0:0:
256,192,88574,1,8,0:0:0:0:
256,192,88637,1,8,0:0:0:0:
256,192,88701,1,8,0:0:0:0:
256,192,88765,1,0,0:0:0:0:
256,192,88956,1,4,0:0:0:0:
256,192,89147,1,0,0:0:0:0:
256,192,89211,1,8,0:0:0:0:
256,192,89274,1,8,0:0:0:0:
256,192,89338,1,0,0:0:0:0:
256,192,89529,1,4,0:0:0:0:
256,192,89720,1,0,0:0:0:0:
256,192,89784,1,8,0:0:0:0:
256,192,89847,1,8,0:0:0:0:
256,192,89911,1,0,0:0:0:0:
256,192,90102,1,0,0:0:0:0:
256,192,90198,1,0,0:0:0:0:
256,192,90293,1,8,0:0:0:0:
256,192,90389,1,8,0:0:0:0:
256,192,90485,1,4,0:0:0:0:
256,192,90676,1,0,0:0:0:0:
256,192,90740,1,8,0:0:0:0:
256,192,90804,1,8,0:0:0:0:
256,192,90867,1,0,0:0:0:0:
256,192,90963,1,0,0:0:0:0:
256,192,91059,1,8,0:0:0:0:
256,192,91154,1,0,0:0:0:0:
256,192,91250,1,8,0:0:0:0:
256,192,91313,1,8,0:0:0:0:
256,192,91377,1,8,0:0:0:0:
256,192,91441,1,8,0:0:0:0:
256,192,91504,1,8,0:0:0:0:
256,192,91568,1,8,0:0:0:0:
256,192,91632,1,0,0:0:0:0:
256,192,91823,1,8,0:0:0:0:
256,192,92014,1,0,0:0:0:0:
256,192,92109,1,8,0:0:0:0:
256,192,92205,1,0,0:0:0:0:
256,192,92269,1,8,0:0:0:0:
256,192,92332,1,8,0:0:0:0:
256,192,92396,1,0,0:0:0:0:
256,192,92492,1,0,0:0:0:0:
256,192,92587,1,8,0:0:0:0:
256,192,92683,1,0,0:0:0:0:
256,192,92778,1,8,0:0:0:0:
256,192,92842,1,8,0:0:0:0:
256,192,92906,1,8,0:0:0:0:
256,192,92969,1,8,0:0:0:0:
256,192,93033,1,8,0:0:0:0:
256,192,93097,1,8,0:0:0:0:
256,192,93160,1,0,0:0:0:0:
256,192,93352,1,8,0:0:0:0:
256,192,93447,1,8,0:0:0:0:
256,192,93543,1,0,0:0:0:0:
256,192,93637,1,8,0:0:0:0:
256,192,93733,1,0,0:0:0:0:
256,192,93829,1,8,0:0:0:0:
256,192,93924,1,0,0:0:0:0:
256,192,93988,1,0,0:0:0:0:
256,192,94051,1,0,0:0:0:0:
256,192,94115,1,8,0:0:0:0:
256,192,94211,1,8,0:0:0:0:
256,192,94306,1,0,0:0:0:0:
256,192,94497,1,8,0:0:0:0:
256,192,94593,1,8,0:0:0:0:
256,192,94688,1,8,0:0:0:0:
256,192,94784,1,0,0:0:0:0:
256,192,94879,1,8,0:0:0:0:
256,192,95071,1,0,0:0:0:0:
256,192,95166,1,0,0:0:0:0:
256,192,95262,1,8,0:0:0:0:
256,192,95357,1,8,0:0:0:0:
256,192,95453,1,0,0:0:0:0:
256,192,95644,1,8,0:0:0:0:
256,192,95835,1,8,0:0:0:0:
256,192,95899,1,8,0:0:0:0:
256,192,95962,1,8,0:0:0:0:
256,192,96026,1,0,0:0:0:0:
256,192,96090,1,0,0:0:0:0:
256,192,96153,1,0,0:0:0:0:
256,192,96217,1,8,0:0:0:0:
256,192,96313,1,0,0:0:0:0:
256,192,96408,1,8,0:0:0:0:
256,192,96504,1,8,0:0:0:0:
256,192,96599,1,4,0:0:0:0:
256,192,96790,1,0,0:0:0:0:
256,192,96854,1,8,0:0:0:0:
256,192,96918,1,8,0:0:0:0:
256,192,96981,1,0,0:0:0:0:
256,192,97077,1,0,0:0:0:0:
256,192,97173,1,8,0:0:0:0:
256,192,97268,1,0,0:0:0:0:
256,192,97364,1,8,0:0:0:0:
256,192,97427,1,8,0:0:0:0:
256,192,97491,1,8,0:0:0:0:
256,192,97555,1,8,0:0:0:0:
256,192,97618,1,8,0:0:0:0:
256,192,97682,1,8,0:0:0:0:
256,192,97746,1,0,0:0:0:0:
256,192,97937,1,8,0:0:0:0:
256,192,98128,1,8,0:0:0:0:
256,192,98223,1,0,0:0:0:0:
256,192,98319,1,8,0:0:0:0:
256,192,98383,1,8,0:0:0:0:
256,192,98446,1,8,0:0:0:0:
256,192,98510,1,0,0:0:0:0:
256,192,98606,1,0,0:0:0:0:
256,192,98701,1,8,0:0:0:0:
256,192,98797,1,0,0:0:0:0:
256,192,98892,1,8,0:0:0:0:
256,192,98956,1,8,0:0:0:0:
256,192,99020,1,8,0:0:0:0:
256,192,99083,1,8,0:0:0:0:
256,192,99147,1,8,0:0:0:0:
256,192,99211,1,8,0:0:0:0:
256,192,99274,1,0,0:0:0:0:
256,192,99466,1,0,0:0:0:0:
256,192,99561,1,0,0:0:0:0:
256,192,99657,1,0,0:0:0:0:
256,192,99848,1,8,0:0:0:0:
256,192,100039,1,8,0:0:0:0:
256,192,100134,1,0,0:0:0:0:
256,192,100230,1,8,0:0:0:0:
256,192,100421,1,8,0:0:0:0:
256,192,100516,1,0,0:0:0:0:
256,192,100612,1,8,0:0:0:0:
256,192,100708,1,8,0:0:0:0:
256,192,100755,1,8,0:0:0:0:
256,192,100803,1,0,0:0:0:0:
256,192,100994,1,8,0:0:0:0:
256,192,101185,1,0,0:0:0:0:
256,192,101376,1,0,0:0:0:0:
256,192,101567,1,8,0:0:0:0:
256,192,101758,1,8,0:0:0:0:
256,192,101950,1,0,0:0:0:0:
256,192,102141,1,0,0:0:0:0:
256,192,102332,1,8,0:0:0:0:
256,192,102427,1,8,0:0:0:0:
256,192,102523,1,8,0:0:0:0:
256,192,102618,1,8,0:0:0:0:
256,192,102714,1,4,0:0:0:0:
