osu file format v14

[General]
AudioFilename: audio.mp3
AudioLeadIn: 0
PreviewTime: 13855
Countdown: 0
SampleSet: None
StackLeniency: 0.7
Mode: 0
LetterboxInBreaks: 0
WidescreenStoryboard: 0

[Editor]
Bookmarks: 26276,40034,64492,78250,102709
DistanceSpacing: 0.4
BeatDivisor: 6
GridSize: 16
TimelineZoom: 2.799999

[Metadata]
Title:AsiaN distractive
TitleUnicode:AsiaN distractive
Artist:Nekomata Gekidan
ArtistUnicode:猫叉劇団
Creator:Wing My Way
Version:Extra
Source:beatmania IIDX 24 SINOBUZ
Tags:Pending cup #5
BeatmapID:1414883
BeatmapSetID:668861

[Difficulty]
HPDrainRate:6
CircleSize:4.5
OverallDifficulty:8
ApproachRate:9.2
SliderMultiplier:2
SliderTickRate:1

[Events]
//Background and Video events
//Break Periods
//Storyboard Layer 0 (Background)
//Storyboard Layer 1 (Fail)
//Storyboard Layer 2 (Pass)
//Storyboard Layer 3 (Foreground)
//Storyboard Sound Samples

[TimingPoints]
289,382.165605095541,4,3,2,40,1,0
2390,-100,4,3,1,40,0,0
4110,-100,4,3,2,40,0,0
5448,-100,4,3,1,40,0,0
7167,-66.6666666666667,4,2,1,40,0,0
7550,-200,4,3,1,40,0,0
10607,-300,4,2,1,40,0,0
11945,-100,4,3,1,40,0,0
14046,-125,4,3,1,60,0,0
16626,-125,4,2,0,60,0,0
16722,-125,4,3,1,60,0,0
19397,-200,4,3,1,60,0,0
19779,-83.3333333333333,4,3,1,60,0,0
19970,-125,4,3,1,60,0,0
22454,-200,4,3,1,60,0,0
22645,-83.3333333333333,4,3,1,60,0,0
23218,-71.4285714285714,4,3,1,60,0,0
23601,-62.5,4,3,1,60,0,0
23792,-83.3333333333333,4,3,1,60,0,0
24556,-83.3333333333333,4,3,2,60,0,0
25511,-58.8235294117647,4,2,1,60,0,0
25607,-83.3333333333333,4,2,1,60,0,0
25894,-83.3333333333333,4,3,1,30,0,0
26276,-100,4,3,1,65,0,1
27422,-71.4285714285714,4,3,1,65,0,1
27518,-83.3333333333333,4,3,1,65,0,1
28951,-71.4285714285714,4,3,1,65,0,1
29335,-55.5555555555556,4,3,1,65,0,1
29906,-100,4,3,1,65,0,1
31435,-400,4,3,1,65,0,1
32008,-55.5555555555556,4,3,1,65,0,1
32199,-71.4285714285714,4,3,1,65,0,1
33919,-83.3333333333333,4,3,1,65,0,1
34110,-71.4285714285714,4,3,1,65,0,1
35448,-55.5555555555556,4,3,1,65,0,1
35830,-71.4285714285714,4,3,1,65,0,1
37550,-1050,4,3,1,65,0,1
37613,-1050,4,3,1,5,0,1
38505,-100,4,2,3,50,0,0
39652,-100,4,3,1,50,0,0
42709,-71.4285714285714,4,3,1,50,0,0
43091,-83.3333333333333,4,3,1,50,0,0
47677,-71.4285714285714,4,3,1,50,0,0
48632,-83.3333333333333,4,3,1,50,0,0
54938,-71.4285714285714,4,3,1,50,0,0
55320,-83.3333333333333,4,3,1,50,0,0
59906,-71.4285714285714,4,3,1,50,0,0
60671,-83.3333333333333,4,3,1,50,0,0
64492,-83.3333333333333,4,2,1,40,0,0
70607,-83.3333333333333,4,3,1,40,0,0
73664,-83.3333333333333,4,3,1,50,0,0
75193,-83.3333333333333,4,3,1,58,0,0
78250,-83.3333333333333,4,3,1,65,0,1
78505,-83.3333333333333,4,2,0,65,0,1
78632,-83.3333333333333,4,3,1,65,0,1
80034,-83.3333333333333,4,2,0,65,0,1
80161,-83.3333333333333,4,3,1,65,0,1
81562,-83.3333333333333,4,2,0,65,0,1
81690,-83.3333333333333,4,3,1,65,0,1
84620,-83.3333333333333,4,2,0,65,0,1
84747,-83.3333333333333,4,3,1,65,0,1
86148,-83.3333333333333,4,2,0,65,0,1
86276,-83.3333333333333,4,3,1,65,0,1
89779,-83.3333333333333,4,2,0,65,0,1
89906,-83.3333333333333,4,3,1,65,0,1
90734,-83.3333333333333,4,2,0,65,0,1
90862,-83.3333333333333,4,3,1,65,0,1
92263,-83.3333333333333,4,2,0,65,0,1
92390,-83.3333333333333,4,3,1,65,0,1
93792,-83.3333333333333,4,2,0,65,0,1
93919,-55.5555555555556,4,3,1,65,0,1
94046,-83.3333333333333,4,3,1,65,0,1
96849,-83.3333333333333,4,2,0,65,0,1
96976,-83.3333333333333,4,3,1,65,0,1
98378,-83.3333333333333,4,2,0,65,0,1
98505,-83.3333333333333,4,3,1,65,0,1
102709,-83.3333333333333,4,3,1,40,0,0
107295,400,4,2,1,60,1,0
108095,428.571428571429,4,2,1,60,1,0
108095,-133.333333333333,4,2,1,60,0,0
108523,413.793103448276,4,2,1,60,1,0
108523,-400,4,2,1,60,0,0
110178,428.571428571429,4,2,1,60,1,0
110606,444.444444444444,4,2,1,60,1,0
111050,461.538461538462,4,2,1,60,1,0
111511,480,4,2,1,60,1,0
111991,500,4,2,1,60,1,0
111991,-131.578947368421,4,2,1,60,0,0
112116,-131.578947368421,4,2,1,5,0,0

[HitObjects]
488,110,1053,5,8,1:0:0:0:
463,149,1148,1,4,0:0:0:0:
421,155,1244,5,4,0:0:0:0:
412,178,1339,1,0,0:0:0:0:
416,214,1435,5,0,0:0:0:0:
402,223,1531,1,0,0:0:0:0:
352,227,1626,5,8,0:0:0:0:
323,196,1722,1,8,0:0:0:0:
324,141,1817,1,14,1:0:0:0:
91,78,2390,5,0,0:0:0:0:
129,98,2486,1,0,0:0:0:0:
92,119,2581,1,2,2:0:0:0:
123,133,3155,5,0,0:0:0:0:
64,97,3251,1,0,0:0:0:0:
127,55,3346,1,2,2:1:0:0:
243,285,3728,5,0,0:0:0:0:
293,234,3855,1,0,0:0:0:0:
226,215,3983,1,0,0:0:0:0:
243,285,4110,5,8,0:0:0:0:
293,234,4238,1,8,0:0:0:0:
288,163,4365,1,8,0:0:0:0:
213,142,4492,5,4,0:0:0:0:
163,188,4620,1,4,0:0:0:0:
173,258,4747,1,4,0:0:0:0:
243,285,4874,5,12,1:0:0:0:
457,21,5448,5,2,0:0:0:0:
446,66,5543,1,2,0:0:0:0:
429,80,5639,5,2,0:0:0:0:
355,114,5830,1,0,0:0:0:0:
276,95,6021,1,0,0:0:0:0:
228,39,6212,1,2,0:0:0:0:
278,86,6403,5,0,0:0:0:0:
290,167,6594,1,2,0:0:0:0:
81,269,6785,1,2,0:0:0:0:
96,128,6976,1,2,0:0:0:0:
136,191,7167,6,0,P|215:167|178:268,1,225.000008583069,10|0,3:0|0:0,0:0:0:0:
170,282,7550,2,0,B|297:263|244:372|394:317,1,225,10|0,2:0|2:0,0:0:0:0:
380,323,8505,5,0,0:0:0:0:
396,246,8696,1,2,0:0:0:0:
84,64,9078,5,4,0:0:0:0:
99,174,9269,1,2,0:0:0:0:
147,121,9460,5,0,0:0:0:0:
162,188,9652,5,2,0:1:0:0:
119,239,9747,1,2,0:1:0:0:
56,230,9843,1,2,0:1:0:0:
30,170,10034,5,2,0:0:0:0:
283,163,10225,5,0,0:0:0:0:
215,140,10320,1,0,0:0:0:0:
162,188,10416,1,2,0:0:0:0:
182,257,10511,1,2,0:0:0:0:
249,273,10607,6,0,B|279:232|254:177|254:177|226:120|258:68,1,216.666666666667,2|0,0:0|0:0,0:0:0:0:
272,52,11945,1,0,0:0:0:0:
152,119,12136,5,0,0:0:0:0:
81,100,12327,1,0,0:0:0:0:
151,306,12518,1,0,0:0:0:0:
249,273,12709,1,4,0:0:0:0:
58,223,12900,5,2,0:0:0:0:
45,335,13091,1,4,0:0:0:0:
308,384,13282,5,2,0:0:0:0:
341,155,13664,5,6,0:2:0:0:
141,247,14046,5,6,2:0:0:0:
463,219,14238,2,0,P|488:232|521:237,2,40
420,121,14620,5,2,0:0:0:0:
424,49,14715,1,2,0:0:0:0:
355,54,14811,2,0,B|339:73|339:73|282:78,1,80,4|0,2:0|0:0,0:0:0:0:
212,69,15097,5,0,0:0:0:0:
227,8,15193,1,0,0:0:0:0:
146,256,15384,5,2,0:1:0:0:
90,284,15479,1,2,0:1:0:0:
141,317,15575,1,4,2:0:0:0:
19,341,15766,5,0,0:0:0:0:
26,265,15862,1,0,0:0:0:0:
34,187,15957,1,0,0:0:0:0:
98,322,16148,5,2,0:0:0:0:
177,295,16243,1,6,0:0:0:0:
110,239,16339,1,4,2:0:0:0:
150,47,16531,6,0,L|146:69,2,20,0|0|2,0:0|2:0|0:0,0:0:0:0:
83,14,16722,1,6,2:0:0:0:
285,227,16913,5,2,0:1:0:0:
252,178,17008,1,2,0:1:0:0:
271,122,17104,1,2,0:1:0:0:
337,107,17295,5,2,0:1:0:0:
266,109,17391,1,2,0:1:0:0:
237,174,17486,1,2,0:1:0:0:
186,328,17677,5,0,0:0:0:0:
119,347,17772,5,0,0:0:0:0:
59,320,17868,5,0,0:0:0:0:
42,251,18059,1,0,0:0:0:0:
117,67,18250,5,8,3:0:0:0:
98,149,18441,1,2,3:0:0:0:
264,248,18632,5,2,1:0:0:0:
360,232,18823,1,4,0:0:0:0:
115,252,19015,5,8,1:0:0:0:
149,79,19206,1,4,0:0:0:0:
0,177,19397,2,0,L|53:169,1,50,4|0,0:0|0:0,0:0:0:0:
284,164,19779,6,0,B|250:151|250:151|160:188,1,119.999996337891,6|0,0:2|0:0,0:0:0:0:
109,203,20066,1,4,0:0:0:0:
118,139,20161,1,2,0:0:0:0:
160,10,20352,5,4,0:0:0:0:
167,62,20448,1,4,0:0:0:0:
192,82,20543,1,2,0:0:0:0:
280,272,20734,5,8,0:0:0:0:
223,233,20830,1,8,0:0:0:0:
160,248,20925,1,10,2:1:0:0:
336,103,21117,6,0,P|332:125|322:148,2,40
464,260,21499,5,2,0:0:0:0:
440,333,21594,1,4,0:0:0:0:
365,364,21690,1,6,2:1:0:0:
67,140,21881,5,0,0:0:0:0:
97,148,21976,1,0,0:0:0:0:
159,118,22072,1,0,0:0:0:0:
305,0,22263,5,8,0:0:0:0:
236,0,22359,1,8,0:0:0:0:
214,61,22454,2,0,P|230:80|262:95,1,50,10|0,2:1|0:0,0:0:0:0:
342,102,22836,6,0,B|356:23|430:91|328:114,1,119.999996337891,8|0,1:0|0:0,0:0:0:0:
293,147,23123,1,0,0:0:0:0:
334,214,23218,6,0,B|373:243|353:253|342:269|342:269|323:257|296:263|328:191,1,139.999995727539,2|0,1:0|0:0,0:0:0:0:
293,147,23505,1,0,0:0:0:0:
221,142,23601,6,0,B|177:146|177:113|157:100|157:100|178:98|204:72|233:103,1,160,4|0,1:0|0:0,0:0:0:0:
293,147,23887,1,0,0:0:0:0:
273,1,23983,6,0,L|289:86,1,59.9999981689454,2|0,1:0|0:0,0:0:0:0:
202,252,24174,2,0,L|262:188,1,59.9999981689454,4|0,1:0|0:0,0:0:0:0:
438,188,24365,2,0,L|360:164,1,59.9999981689454,2|0,1:0|0:0,0:0:0:0:
293,147,24556,6,2,B|301:170|301:170|291:192,2,39.9999987792969,2|2|2,2:0|2:0|2:0,2:0:0:0:
256,88,24747,1,4,0:0:0:0:
195,79,24843,5,0,0:0:0:0:
127,94,24938,2,0,P|96:112|76:134,1,59.9999981689454,8|0,0:0|0:0,0:0:0:0:
121,217,25129,6,0,P|151:218|179:211,1,59.9999981689454,8|0,0:0|0:0,0:0:0:0:
335,155,25320,2,0,P|340:185|352:212,1,59.9999981689454,8|0,0:0|0:0,0:0:0:0:
322,0,25511,6,0,P|312:43|322:105,1,85.0000016212464,8|0,1:0|0:0,0:0:0:0:
410,266,25703,1,2,1:0:0:0:
121,317,25894,5,2,1:0:0:0:
180,284,25990,1,2,1:0:0:0:
239,315,26085,1,2,1:0:0:0:
296,281,26181,1,2,1:0:0:0:
355,309,26276,5,2,0:2:0:0:
161,76,26467,5,2,0:0:0:0:
119,124,26563,1,2,0:0:0:0:
55,120,26658,1,2,1:0:0:0:
329,175,26849,1,0,0:0:0:0:
192,187,27040,5,0,0:0:0:0:
156,167,27135,1,0,0:0:0:0:
145,136,27231,1,2,1:0:0:0:
290,74,27422,6,0,P|290:39|300:4,1,69.9999978637696,2|0,0:0|0:0,0:0:0:0:
371,9,27613,1,10,1:0:0:0:
405,76,27709,1,4,0:0:0:0:
347,134,27804,6,0,P|300:143|210:112,1,119.999996337891,2|0,1:0|0:0,0:0:0:0:
179,73,28091,1,2,0:0:0:0:
194,5,28187,1,4,0:0:0:0:
341,66,28378,1,2,1:0:0:0:
252,215,28569,5,0,0:0:0:0:
228,203,28664,1,0,0:0:0:0:
192,197,28760,1,0,0:0:0:0:
33,210,28951,6,0,P|63:226|117:234,1,69.9999978637696,2|0,1:0|0:0,0:0:0:0:
263,227,29142,2,0,P|299:215|326:196,1,69.9999978637696,14|0,0:0|0:0,0:0:0:0:
473,40,29333,6,0,B|387:54|431:102|331:104,1,139.999995727539,6|8,1:0|0:0,0:0:0:0:
274,102,29620,1,4,0:0:0:0:
239,45,29715,1,6,0:0:0:0:
390,283,29906,5,2,1:0:0:0:
114,308,30097,5,4,0:0:0:0:
197,295,30192,1,0,0:0:0:0:
225,290,30288,1,2,0:0:0:0:
60,285,30480,6,0,P|85:292|123:297,1,50,4|0,1:0|0:0,0:0:0:0:
196,309,30671,2,0,P|230:310|256:303,1,50,14|0,0:0|0:0,0:0:0:0:
403,237,30862,5,10,0:0:0:0:
399,175,30957,1,2,0:0:0:0:
348,137,31053,5,4,0:0:0:0:
286,155,31148,1,8,0:0:0:0:
266,201,31244,5,0,0:0:0:0:
278,241,31339,1,0,0:0:0:0:
292,257,31435,6,0,P|311:265|333:263,1,37.5,6|0,1:0|0:0,0:0:0:0:
463,195,31817,1,4,1:0:0:0:
68,271,32008,6,0,B|59:122|59:122|83:141,1,179.999994506836,8|0,0:0|0:0,0:0:0:0:
220,271,32390,5,2,0:2:0:0:
244,18,32581,5,2,0:0:0:0:
176,25,32677,1,2,0:0:0:0:
144,82,32772,1,2,1:0:0:0:
482,157,32963,1,0,0:0:0:0:
198,126,33154,5,0,0:0:0:0:
218,95,33249,1,0,0:0:0:0:
258,88,33345,1,2,1:0:0:0:
319,116,33441,5,0,0:0:0:0:
394,90,33536,2,0,B|400:111|400:111|378:159,1,69.9999978637696,2|0,0:0|0:0,0:0:0:0:
289,367,33727,5,10,1:0:0:0:
292,322,33823,1,4,0:0:0:0:
359,257,33919,6,0,P|289:272|227:239,1,119.999996337891,2|0,1:0|0:0,0:0:0:0:
184,221,34205,1,4,0:0:0:0:
161,160,34301,1,2,0:0:0:0:
445,183,34492,1,2,1:0:0:0:
202,97,34683,5,0,0:0:0:0:
227,164,34778,1,0,0:0:0:0:
278,113,34874,1,0,0:0:0:0:
120,204,35065,6,0,B|104:214|104:214|102:267,1,69.9999978637696,2|0,1:0|0:0,0:0:0:0:
352,338,35256,2,0,B|369:326|369:326|370:248,1,69.9999978637696,14|0,0:0|0:0,0:0:0:0:
332,90,35448,6,0,B|304:69|304:69|299:223,1,179.999994506836,6|8,1:0|0:0,0:0:0:0:
222,140,35735,1,4,0:0:0:0:
217,104,35830,1,6,0:0:0:0:
363,26,36021,5,2,1:0:0:0:
212,298,36212,5,4,0:0:0:0:
200,234,36307,1,0,0:0:0:0:
197,215,36403,1,2,0:0:0:0:
345,169,36595,6,0,L|349:238,1,69.9999978637696,4|0,1:0|0:0,0:0:0:0:
430,279,36786,2,0,L|416:353,1,69.9999978637696,14|0,0:0|0:0,0:0:0:0:
326,333,36977,5,10,0:0:0:0:
275,316,37072,1,2,0:0:0:0:
218,363,37168,5,4,0:0:0:0:
173,368,37263,1,8,0:0:0:0:
110,340,37359,5,0,0:0:0:0:
102,332,37454,1,0,0:0:0:0:
77,327,37550,6,0,L|82:296,1,30,6|0,1:0|2:0,0:0:0:0:
126,204,38505,6,0,P|128:192|144:206,17,33.3333333333333
60,141,39652,5,6,1:0:0:0:
87,54,39843,1,0,0:0:0:0:
265,74,40034,5,6,1:0:0:0:
113,321,40225,5,0,0:0:0:0:
166,351,40320,1,8,0:0:0:0:
227,345,40416,2,0,P|276:327|327:283,1,100,2|0,0:0|0:0,0:0:0:0:
401,191,40798,5,4,0:0:0:0:
361,201,40893,1,2,0:0:0:0:
323,187,40989,1,8,0:0:0:0:
154,165,41180,5,4,0:0:0:0:
401,98,41371,1,0,0:0:0:0:
330,95,41467,1,4,0:0:0:0:
271,138,41562,6,0,P|251:189|282:247,1,100,2|0,0:0|0:0,0:0:0:0:
308,284,41849,1,4,0:0:0:0:
371,284,41945,1,6,0:0:0:0:
148,161,42136,1,2,1:0:0:0:
384,5,42327,5,2,0:0:0:0:
384,5,42422,1,2,0:0:0:0:
384,5,42518,1,2,0:0:0:0:
343,183,42709,6,0,P|359:153|367:103,1,69.9999978637696,2|0,1:0|0:0,0:0:0:0:
241,53,42900,2,0,P|261:84|289:106,1,69.9999978637696,14|0,0:0|0:0,0:0:0:0:
311,266,43091,6,0,P|214:288|129:220,1,179.999994506836,6|8,1:0|0:0,0:0:0:0:
66,260,43473,2,0,L|62:139,1,119.999996337891,6|2,0:0|1:0,0:0:0:0:
132,71,43855,5,4,0:0:0:0:
132,71,43919,2,0,L|130:9,2,39.9999987792969,0|8|2,0:0|0:0|0:0,0:0:0:0:
149,309,44238,6,0,L|148:245,1,59.9999981689454,4|0,1:0|0:0,0:0:0:0:
220,213,44429,2,0,L|219:154,1,59.9999981689454,14|0,0:0|0:0,0:0:0:0:
127,114,44620,6,0,L|127:159,1,29.9999990844727,0|0,0:0|2:0,0:0:0:0:
187,52,44811,2,0,L|187:102,1,29.9999990844727,0|0,0:0|2:0,0:0:0:0:
292,120,45002,6,0,L|292:166,1,29.9999990844727,0|0,0:0|2:0,0:0:0:0:
288,221,45193,2,0,L|288:270,1,29.9999990844727,6|0,1:0|2:0,0:0:0:0:
35,162,45384,5,4,2:0:0:0:
29,186,45480,1,0,0:0:0:0:
33,234,45575,5,6,1:0:0:0:
60,296,45671,1,4,0:0:0:0:
121,332,45766,2,0,P|171:351|262:339,1,119.999996337891,8|0,0:0|0:0,0:0:0:0:
306,266,46053,1,0,0:0:0:0:
310,349,46148,6,0,P|254:328|218:264,1,119.999996337891,6|2,1:0|0:0,0:0:0:0:
220,212,46435,1,2,0:0:0:0:
253,156,46530,1,2,1:0:0:0:
472,252,46721,5,0,0:0:0:0:
446,123,46913,5,4,0:0:0:0:
383,99,47008,1,8,0:0:0:0:
431,58,47104,1,2,1:0:0:0:
394,163,47294,6,0,B|404:235,1,59.9999981689454,2|0,0:0|0:0,0:0:0:0:
318,76,47485,1,10,1:0:0:0:
325,147,47677,6,0,P|293:162|267:194,1,69.9999978637696,2|0,1:0|0:0,0:0:0:0:
205,193,47868,6,0,P|240:211|265:244,1,69.9999978637696,4|0,0:0|0:0,0:0:0:0:
322,266,48059,6,0,P|296:294|283:324,1,69.9999978637696,2|0,0:0|0:0,0:0:0:0:
213,360,48250,5,2,1:0:0:0:
82,336,48441,5,6,1:0:0:0:
35,284,48536,1,0,0:0:0:0:
40,219,48632,1,2,0:0:0:0:
107,119,48823,6,0,L|172:102,1,59.9999981689454,2|0,1:0|0:0,0:0:0:0:
143,27,49015,1,14,0:0:0:0:
79,68,49206,6,0,P|104:111|98:187,1,119.999996337891,6|8,1:0|0:0,0:0:0:0:
164,139,49493,1,4,0:0:0:0:
234,152,49588,1,6,0:0:0:0:
218,16,49779,5,2,1:0:0:0:
191,210,49970,5,2,0:0:0:0:
194,187,50065,1,2,0:0:0:0:
205,107,50161,1,2,0:0:0:0:
129,314,50353,6,0,L|90:242,1,59.9999981689454,6|0,1:0|0:0,0:0:0:0:
217,331,50544,2,0,L|268:289,1,59.9999981689454,14|0,0:0|0:0,0:0:0:0:
287,159,50735,5,10,0:0:0:0:
407,310,50926,5,4,0:0:0:0:
377,283,51021,1,8,0:0:0:0:
335,287,51117,5,2,1:0:0:0:
386,235,51244,5,0,0:0:0:0:
335,287,51308,1,2,0:0:0:0:
473,253,51499,5,6,1:0:0:0:
408,122,51690,1,0,0:0:0:0:
296,196,51881,1,0,0:0:0:0:
465,155,52072,5,0,0:0:0:0:
411,111,52167,1,0,0:0:0:0:
339,110,52263,6,0,P|283:122|215:180,1,119.999996337891,6|0,1:0|0:0,0:0:0:0:
167,139,52549,1,8,0:0:0:0:
169,206,52645,2,0,L|188:354,1,119.999996337891,2|0,0:0|0:0,0:0:0:0:
103,315,53027,6,0,L|92:231,1,59.9999981689454,2|2,1:0|0:0,0:0:0:0:
254,262,53218,1,4,0:0:0:0:
90,175,53409,5,4,0:0:0:0:
210,0,53600,1,0,0:0:0:0:
207,71,53696,1,4,0:0:0:0:
250,130,53791,6,0,P|301:150|361:127,1,119.999996337891,2|0,1:0|0:0,0:0:0:0:
413,73,54078,1,4,0:0:0:0:
413,73,54174,1,6,0:0:0:0:
315,244,54365,1,2,1:0:0:0:
82,201,54556,5,2,0:0:0:0:
82,201,54651,1,2,0:0:0:0:
82,201,54747,1,2,0:0:0:0:
238,230,54938,6,0,P|208:214|158:206,1,69.9999978637696,2|0,1:0|0:0,0:0:0:0:
134,124,55129,2,0,P|165:104|187:76,1,69.9999978637696,14|0,0:0|0:0,0:0:0:0:
308,45,55320,6,0,P|294:109|325:172,1,119.999996337891,6|0,1:0|0:0,0:0:0:0:
360,220,55607,1,8,0:0:0:0:
360,220,55702,2,0,L|494:202,1,119.999996337891,6|2,0:0|1:0,0:0:0:0:
141,127,56085,6,0,P|145:155|147:190,1,59.9999981689454,2|0,0:0|0:0,0:0:0:0:
141,211,56212,1,8,0:0:0:0:
141,211,56275,1,4,0:0:0:0:
298,166,56467,6,0,P|291:202|291:250,1,59.9999981689454,4|0,1:0|0:0,0:0:0:0:
335,66,56658,1,6,0:0:0:0:
408,98,56849,6,0,L|453:98,1,29.9999990844727,0|0,0:0|2:0,0:0:0:0:
236,143,57040,2,0,L|206:143,1,29.9999990844727,0|0,0:0|2:0,0:0:0:0:
204,54,57231,6,0,L|250:54,1,29.9999990844727,0|0,0:0|2:0,0:0:0:0:
367,169,57422,2,0,L|416:169,1,29.9999990844727,6|0,1:0|2:0,0:0:0:0:
264,225,57613,6,0,L|307:212,2,39.9999987792969,4|0|0,2:0|2:0|0:0,0:0:0:0:
22,328,57804,5,6,1:0:0:0:
84,301,57900,1,4,0:0:0:0:
120,240,57995,2,0,P|139:190|127:99,1,119.999996337891,8|0,0:0|0:0,0:0:0:0:
98,61,58282,1,0,0:0:0:0:
167,64,58377,6,0,L|305:75,1,119.999996337891,6|2,1:0|0:0,0:0:0:0:
349,45,58664,1,2,0:0:0:0:
405,12,58759,1,2,1:0:0:0:
265,221,58950,5,0,0:0:0:0:
136,124,59142,5,4,0:0:0:0:
98,61,59237,1,8,0:0:0:0:
32,41,59333,1,2,1:0:0:0:
161,352,59524,6,0,B|170:283,1,59.9999981689454,2|0,0:0|0:0,0:0:0:0:
164,226,59714,1,10,1:0:0:0:
165,69,59906,6,0,P|180:37|212:11,1,69.9999978637696,2|0,1:0|0:0,0:0:0:0:
278,0,60097,5,4,0:0:0:0:
329,51,60193,1,0,0:0:0:0:
329,129,60288,6,0,P|313:163|290:187,1,69.9999978637696,2|0,0:0|0:0,0:0:0:0:
217,178,60479,5,2,1:0:0:0:
394,68,60671,6,0,L|413:-8,1,59.9999981689454,2|0,1:0|0:0,0:0:0:0:
329,129,60863,1,2,0:0:0:0:
360,274,61052,6,0,L|343:209,1,59.9999981689454,6|0,1:0|0:0,0:0:0:0:
411,344,61244,1,14,0:0:0:0:
394,166,61435,6,0,P|341:198|277:186,1,119.999996337891,6|8,1:0|0:0,0:0:0:0:
234,153,61722,1,4,0:0:0:0:
227,92,61817,1,6,0:0:0:0:
78,190,62008,5,2,1:0:0:0:
159,16,62199,5,2,0:0:0:0:
154,43,62294,1,2,0:0:0:0:
144,112,62390,1,2,0:0:0:0:
191,318,62582,6,0,L|150:254,1,59.9999981689454,6|0,1:0|0:0,0:0:0:0:
101,281,62773,2,0,L|170:266,1,59.9999981689454,14|0,0:0|0:0,0:0:0:0:
187,203,62964,5,10,0:0:0:0:
474,179,63155,5,4,0:0:0:0:
243,259,63346,5,2,1:0:0:0:
187,203,63442,1,2,0:0:0:0:
259,178,63537,1,2,0:0:0:0:
446,76,63728,5,4,1:0:0:0:
311,59,63919,1,0,0:0:0:0:
126,138,64110,5,0,0:0:0:0:
288,131,64301,5,0,0:0:0:0:
288,131,64397,1,0,0:0:0:0:
288,131,64492,1,2,0:0:0:0:
75,175,65830,5,0,2:0:0:0:
73,246,65926,1,0,2:0:0:0:
139,247,66021,1,4,0:0:0:0:
201,135,67455,5,0,2:0:0:0:
229,127,67550,1,2,0:0:0:0:
242,271,68887,5,0,2:0:0:0:
315,279,68983,1,0,2:0:0:0:
242,271,69078,1,4,0:0:0:0:
449,172,69843,5,2,1:0:0:0:
457,169,70225,5,8,3:0:0:0:
472,67,70416,1,4,3:0:0:0:
289,39,70607,6,0,L|335:33,2,29.9999990844727,2|0|0,2:0|2:0|2:0,2:0:0:0:
225,21,70798,1,0,0:0:0:0:
153,92,70989,1,8,0:0:0:0:
71,45,71180,5,2,0:0:0:0:
71,45,71276,1,0,0:0:0:0:
71,45,71371,1,4,0:0:0:0:
229,90,71562,1,0,0:0:0:0:
141,0,71753,1,4,0:0:0:0:
105,149,71945,5,0,0:0:0:0:
153,92,72040,1,0,0:0:0:0:
229,90,72136,5,2,1:0:0:0:
160,209,72327,1,0,0:0:0:0:
45,205,72518,6,0,B|7:188|7:188|21:252|21:252|41:261,1,119.999996337891,6|0,0:0|0:0,0:0:0:0:
129,280,72900,1,4,2:0:0:0:
328,354,73091,5,0,0:0:0:0:
304,325,73187,1,0,0:0:0:0:
265,312,73282,1,6,0:0:0:0:
369,245,73473,5,0,0:0:0:0:
405,215,73569,1,0,0:0:0:0:
425,166,73664,1,6,0:2:0:0:
251,101,73855,5,0,0:0:0:0:
329,99,73951,1,0,0:0:0:0:
393,64,74046,1,4,0:0:0:0:
322,108,74238,5,0,0:0:0:0:
324,174,74429,6,0,P|304:240|266:274,1,119.999996337891,6|0,0:0|0:0,0:0:0:0:
199,274,74715,1,0,0:0:0:0:
154,223,74811,1,8,0:0:0:0:
335,35,75002,1,0,0:0:0:0:
366,165,75193,5,6,0:0:0:0:
394,209,75288,1,2,0:0:0:0:
404,261,75384,1,2,1:0:0:0:
392,307,75480,1,2,1:0:0:0:
357,292,75575,5,8,0:0:0:0:
358,245,75671,1,8,0:0:0:0:
338,199,75766,1,8,0:0:0:0:
307,235,75862,5,2,0:1:0:0:
310,287,75957,1,2,0:1:0:0:
261,252,76053,5,4,0:0:0:0:
237,307,76148,1,4,0:0:0:0:
214,276,76244,5,4,0:0:0:0:
193,302,76339,1,6,1:0:0:0:
161,286,76435,5,2,1:0:0:0:
131,304,76531,1,2,1:0:0:0:
167,107,77486,5,0,0:0:0:0:
168,115,77581,1,0,0:0:0:0:
173,112,77677,1,0,0:0:0:0:
225,197,77868,6,0,P|238:172|247:127,1,59.9999981689454
217,0,78059,6,0,P|233:29|266:53,1,59.9999981689454
341,114,78250,5,6,1:0:0:0:
59,182,78441,5,2,0:0:0:0:
76,240,78505,1,2,2:0:0:0:
87,255,78569,1,2,2:0:0:0:
123,279,78632,2,0,P|170:301|247:307,1,119.999996337891,2|0,0:0|0:0,0:0:0:0:
161,56,79014,5,4,1:0:0:0:
133,114,79109,1,2,0:0:0:0:
149,173,79205,1,2,0:0:0:0:
248,3,79397,6,0,P|240:35|223:82,1,59.9999981689454,4|0,0:0|0:0,0:0:0:0:
33,90,79588,2,0,P|44:122|69:158,1,59.9999981689454
243,157,79779,1,2,1:0:0:0:
489,264,79970,5,2,0:0:0:0:
472,205,80034,1,2,2:0:0:0:
461,191,80098,1,2,2:0:0:0:
425,166,80161,2,0,L|339:143,1,79.9999975585938,2|0,0:0|0:0,0:0:0:0:
206,97,80352,1,2,1:0:0:0:
439,76,80543,5,2,0:0:0:0:
439,76,80638,1,2,0:0:0:0:
439,76,80734,1,2,0:0:0:0:
122,190,80925,6,0,P|154:180|183:156,1,59.9999981689454,2|0,1:0|0:0,0:0:0:0:
141,26,81116,2,0,P|133:62|139:91,1,59.9999981689454,14|0,0:0|0:0,0:0:0:0:
273,173,81308,5,6,1:0:0:0:
370,322,81499,5,2,0:0:0:0:
402,341,81563,1,2,2:0:0:0:
372,345,81627,1,2,2:0:0:0:
388,322,81690,6,0,B|391:290|373:267|373:267|378:269|378:269|354:248|351:203,1,119.999996337891,6|0,0:0|0:0,0:0:0:0:
472,61,82071,5,2,1:0:0:0:
430,112,82166,1,8,0:0:0:0:
369,118,82262,1,2,0:0:0:0:
254,193,82454,6,0,L|244:128,1,59.9999981689454,2|0,1:0|0:0,0:0:0:0:
309,85,82645,2,0,L|321:5,1,59.9999981689454,14|0,0:0|0:0,0:0:0:0:
216,262,82836,6,0,P|186:271|130:253,1,59.9999981689454,2|0,1:0|0:0,0:0:0:0:
94,241,83027,1,0,0:0:0:0:
65,186,83123,1,0,0:0:0:0:
83,122,83218,1,2,0:0:0:0:
76,316,83409,2,0,L|41:350,1,29.9999990844727,6|0,1:0|2:0,0:0:0:0:
99,25,83601,6,0,P|116:7|142:-7,4,39.9999987792969
53,120,83982,5,0,0:0:0:0:
65,186,84077,1,0,0:0:0:0:
113,237,84173,1,0,0:0:0:0:
178,245,84269,1,0,0:0:0:0:
253,280,84364,6,0,P|228:225|248:154,1,119.999996337891,6|2,1:0|0:0,0:0:0:0:
286,119,84620,1,2,0:0:0:0:
308,115,84683,1,2,0:0:0:0:
377,132,84746,1,2,1:0:0:0:
184,157,84937,1,0,0:0:0:0:
412,311,85129,6,0,P|407:335|390:363,4,39.9999987792969
453,123,85511,6,0,P|453:154|469:199,1,59.9999981689454,2|0,0:0|0:0,0:0:0:0:
489,57,85703,1,10,1:0:0:0:
295,37,85894,6,0,P|309:34|334:34,2,39.9999987792969,2|0|0,1:0|0:0|0:0,0:0:0:0:
185,67,86084,5,0,0:0:0:0:
200,138,86147,1,2,0:0:0:0:
213,155,86212,1,2,0:0:0:0:
262,167,86275,6,0,P|302:165|351:135,1,79.9999975585938,2|0,0:0|0:0,0:0:0:0:
399,70,86466,5,2,1:0:0:0:
478,274,86657,5,6,1:0:0:0:
438,217,86752,1,0,0:0:0:0:
372,208,86848,1,2,0:0:0:0:
86,124,87040,6,0,P|107:142|144:155,1,59.9999981689454,2|0,1:0|0:0,0:0:0:0:
201,110,87231,1,14,0:0:0:0:
250,330,87422,6,0,B|233:303|232:280|232:280|228:275|228:275|232:235|200:195,1,119.999996337891,6|8,1:0|0:0,0:0:0:0:
96,221,87709,1,4,0:0:0:0:
86,225,87804,1,6,0:0:0:0:
357,30,87995,5,2,1:0:0:0:
193,158,88186,5,2,0:0:0:0:
211,144,88281,1,2,0:0:0:0:
276,95,88377,1,2,0:0:0:0:
449,166,88569,6,0,L|449:229,2,39.9999987792969,6|0|0,1:0|0:0|0:0,0:0:0:0:
374,252,88760,2,0,L|374:323,1,59.9999981689454,14|0,0:0|0:0,0:0:0:0:
297,215,88951,5,10,0:0:0:0:
119,318,89142,5,4,0:0:0:0:
121,250,89237,1,8,0:0:0:0:
119,318,89333,1,2,1:0:0:0:
84,284,89524,5,2,0:0:0:0:
157,284,89620,1,0,0:0:0:0:
84,284,89715,2,0,L|85:241,2,39.9999987792969,14|2|2,2:1|0:0|0:0,0:0:0:0:
42,314,89906,5,4,0:0:0:0:
156,188,90097,1,2,1:0:0:0:
78,367,90288,5,6,1:0:0:0:
360,221,90480,5,6,1:0:0:0:
99,71,90671,5,2,0:0:0:0:
99,145,90735,1,2,2:0:0:0:
113,168,90799,1,2,2:0:0:0:
156,188,90862,2,0,P|199:194|249:178,1,79.9999975585938,2|0,0:0|0:0,0:0:0:0:
438,74,91053,1,2,1:0:0:0:
159,337,91244,5,4,1:0:0:0:
207,320,91339,1,2,0:0:0:0:
263,231,91435,1,2,0:0:0:0:
349,75,91627,6,0,P|364:108|367:147,1,59.9999981689454,4|0,0:0|0:0,0:0:0:0:
441,161,91818,2,0,P|435:192|419:221,1,59.9999981689454
290,247,92009,1,2,1:0:0:0:
3,186,92200,5,2,0:0:0:0:
51,202,92264,1,2,2:0:0:0:
69,188,92328,1,2,2:0:0:0:
114,210,92391,2,0,B|157:223|147:195|210:203,1,79.9999975585938,2|0,0:0|0:0,0:0:0:0:
440,81,92581,1,2,1:0:0:0:
99,125,92773,5,2,0:0:0:0:
187,126,92868,1,2,0:0:0:0:
287,130,92964,1,2,0:0:0:0:
45,321,93155,6,0,P|53:289|72:256,1,59.9999981689454,2|0,1:0|0:0,0:0:0:0:
226,40,93346,2,0,L|133:39,1,59.9999981689454,14|0,0:0|0:0,0:0:0:0:
1,48,93538,5,6,1:0:0:0:
100,240,93728,5,2,0:0:0:0:
176,294,93792,1,2,2:0:0:0:
167,285,93855,1,2,2:0:0:0:
255,308,93920,6,0,B|287:308|308:289|308:289|307:294|307:294|326:268|366:262,1,119.999996337891,6|0,0:0|0:0,0:0:0:0:
484,146,94110,1,0,0:0:0:0:
196,129,94301,5,2,1:0:0:0:
409,41,94492,1,2,0:0:0:0:
338,43,94588,1,0,0:0:0:0:
313,107,94684,6,0,P|326:139|352:160,1,59.9999981689454,2|0,1:0|0:0,0:0:0:0:
500,323,94875,2,0,P|475:307|424:296,1,59.9999981689454,14|0,0:0|0:0,0:0:0:0:
167,237,95066,5,2,1:0:0:0:
172,44,95257,1,0,0:0:0:0:
114,77,95353,1,0,0:0:0:0:
94,139,95448,1,6,0:0:0:0:
30,19,95639,2,0,L|-18:19,1,29.9999990844727,6|0,1:0|2:0,0:0:0:0:
245,109,95830,5,4,2:0:0:0:
260,117,95894,1,0,0:0:0:0:
284,121,95957,1,0,0:0:0:0:
320,118,96021,5,6,1:0:0:0:
352,94,96085,1,0,0:0:0:0:
363,63,96148,1,0,0:0:0:0:
336,76,96212,5,0,0:0:0:0:
320,143,96307,1,0,0:0:0:0:
365,181,96403,1,0,0:0:0:0:
425,164,96499,1,0,0:0:0:0:
440,103,96594,6,0,P|443:164|485:230,1,119.999996337891,6|2,1:0|0:0,0:0:0:0:
452,261,96850,1,2,0:0:0:0:
471,274,96913,1,2,0:0:0:0:
508,334,96976,1,2,1:0:0:0:
233,244,97167,5,4,1:0:0:0:
36,218,97359,5,2,0:0:0:0:
57,221,97422,1,0,0:0:0:0:
96,229,97486,1,2,0:0:0:0:
155,239,97550,5,2,1:0:0:0:
221,246,97613,1,0,0:0:0:0:
446,333,97740,6,0,B|374:342,1,59.9999981689454,2|0,0:0|0:0,0:0:0:0:
491,270,97931,1,10,1:0:0:0:
180,149,98123,6,0,P|224:145|275:127,1,79.9999975585938,6|0,1:0|0:0,0:0:0:0:
310,94,98314,5,0,0:0:0:0:
254,68,98377,1,2,0:0:0:0:
226,82,98442,1,2,0:0:0:0:
217,147,98505,6,0,P|234:193|223:252,1,79.9999975585938,2|0,0:0|0:0,0:0:0:0:
143,82,98696,5,2,1:0:0:0:
4,266,98887,6,0,P|11:243|16:214,5,39.9999987792969,6|0|0|0|0|0,1:0|0:0|0:0|0:0|0:0|0:0,0:0:0:0:
5,75,99269,6,0,P|7:102|24:138,1,59.9999981689454,2|0,1:0|0:0,0:0:0:0:
141,161,99461,1,14,0:0:0:0:
321,320,99652,6,0,B|334:231|334:231|297:218,1,119.999996337891,6|8,1:0|0:0,0:0:0:0:
256,286,99939,1,4,0:0:0:0:
248,348,100034,1,6,0:0:0:0:
463,253,100225,5,2,1:0:0:0:
336,154,100416,5,4,1:0:0:0:
271,141,100511,1,2,0:0:0:0:
209,129,100607,1,2,0:0:0:0:
108,69,100799,6,0,L|192:59,1,59.9999981689454,6|0,1:0|0:0,0:0:0:0:
305,40,100990,2,0,L|243:-16,1,59.9999981689454,14|0,0:0|0:0,0:0:0:0:
409,91,101181,5,10,0:0:0:0:
505,112,101276,1,0,0:0:0:0:
462,114,101372,5,4,0:0:0:0:
490,121,101467,1,8,0:0:0:0:
456,153,101563,5,2,1:0:0:0:
473,185,101658,1,0,0:0:0:0:
440,183,101753,5,2,0:0:0:0:
435,214,101850,1,0,0:0:0:0:
387,203,101945,5,0,0:0:0:0:
366,213,102040,1,0,0:0:0:0:
350,207,102136,5,4,0:0:0:0:
275,174,102327,5,2,1:0:0:0:
253,120,102422,5,0,0:0:0:0:
274,47,102518,5,6,1:0:0:0:
363,16,102613,5,0,0:0:0:0:
441,79,102709,5,6,1:0:0:0:
154,145,103282,5,0,0:0:0:0:
134,183,103378,1,0,0:0:0:0:
113,146,103473,1,2,2:0:0:0:
154,145,104047,5,0,0:0:0:0:
70,206,104143,1,0,0:0:0:0:
57,105,104238,1,2,2:1:0:0:
301,265,104620,5,0,0:0:0:0:
230,284,104747,1,0,0:0:0:0:
294,269,104875,1,0,0:0:0:0:
230,284,105002,5,8,0:0:0:0:
281,334,105130,1,8,0:0:0:0:
295,336,105257,5,8,0:0:0:0:
231,276,105384,5,4,0:0:0:0:
163,315,105512,1,4,0:0:0:0:
101,346,105639,1,4,0:0:0:0:
43,263,105766,5,12,1:0:0:0:
128,130,106339,5,2,0:0:0:0:
201,139,106434,1,2,0:0:0:0:
274,145,106530,1,2,0:0:0:0:
83,68,106721,1,0,0:0:0:0:
66,199,106912,5,0,0:0:0:0:
48,129,107103,1,2,0:0:0:0:
69,344,107294,5,0,0:0:0:0:
117,266,107495,1,2,0:0:0:0:
200,213,107695,1,2,0:0:0:0:
310,205,107895,1,0,0:0:0:0:
413,216,108095,6,0,B|380:126|451:143|405:200,1,112.500004291535,10|0,3:0|0:0,0:0:0:0:
394,77,108523,6,0,P|347:95|278:92,1,112.5,10|0,2:0|2:0,0:0:0:0:
219,62,109557,5,0,0:0:0:0:
239,170,109764,1,2,0:0:0:0:
329,20,109971,5,4,0:0:0:0:
206,60,110178,1,2,0:0:0:0:
259,108,110392,5,0,0:0:0:0:
192,123,110606,5,2,0:1:0:0:
141,80,110828,1,2,0:1:0:0:
150,17,111050,1,2,0:1:0:0:
216,0,111280,5,2,0:0:0:0:
276,249,111511,5,0,0:0:0:0:
319,185,111631,5,0,0:0:0:0:
271,132,111751,5,2,0:0:0:0:
202,154,111871,5,2,0:0:0:0:
202,225,111991,6,0,B|196:218|196:218|142:236|90:214|90:214|91:178|62:135|62:135|107:121|129:95|129:95|177:105|221:137|221:137|192:100|195:33|195:33|226:28|258:-9|258:-9|288:22|316:35|316:35|333:81|308:135|308:135|340:91|399:75|399:75|423:103|468:113|468:113|436:152|438:193|438:193|388:219|336:212|336:212|383:229|422:282|422:282|397:308|401:358|401:358|354:346|320:358|320:358|280:319|273:265|273:265|266:322|234:366|234:366|193:357|153:363|153:363|151:328|134:296|134:296|174:270|197:227,1,1861.99997727051,2|0,0:0|0:0,0:0:0:0:
