osu file format v14

[General]
AudioFilename: audio.mp3
AudioLeadIn: 0
PreviewTime: 77868
Countdown: 0
SampleSet: Soft
StackLeniency: 0.2
Mode: 3
LetterboxInBreaks: 0
SpecialStyle: 0
WidescreenStoryboard: 1

[Editor]
DistanceSpacing: 1.1
BeatDivisor: 4
GridSize: 8
TimelineZoom: 1.6

[Metadata]
Title:AsiaN distractive
TitleUnicode:AsiaN distractive
Artist:Nekomata Gekidan
ArtistUnicode:猫叉劇団
Creator:Tofu1222
Version:mint's Another
Source:beatmania IIDX 24 SINOBUZ
Tags:BEMANI KONAMI Spy -mint- qqqant FAMoss レコード Master Record World Video Game Instrumental
BeatmapID:2234034
BeatmapSetID:1013400

[Difficulty]
HPDrainRate:8
CircleSize:4
OverallDifficulty:8
ApproachRate:9.2
SliderMultiplier:1.6
SliderTickRate:1

[Events]
//Background and Video events
0,0,"bg.jpg",0,0
//Break Periods
//Storyboard Layer 0 (Background)
//Storyboard Layer 1 (Fail)
//Storyboard Layer 2 (Pass)
//Storyboard Layer 3 (Foreground)
//Storyboard Layer 4 (Overlay)
//Storyboard Sound Samples
Sample,20161,0,"ride02.wav",100
Sample,23983,0,"ride02.wav",100
Sample,24365,0,"ride02.wav",100
Sample,24747,0,"ride02.wav",100
Sample,25129,0,"ride02.wav",100
Sample,27422,0,"ride01.wav",100
Sample,28951,0,"ride02.wav",100
Sample,30480,0,"ride01.wav",100
Sample,33537,0,"ride01.wav",100
Sample,35066,0,"ride02.wav",100
Sample,40416,0,"clap.wav",50
Sample,41180,0,"clap.wav",50
Sample,41945,0,"clap.wav",50
Sample,42709,0,"clap.wav",50
Sample,43473,0,"clap.wav",50
Sample,44238,0,"clap.wav",50
Sample,45002,0,"clap.wav",50
Sample,45766,0,"clap.wav",50
Sample,46531,0,"clap.wav",50
Sample,47295,0,"clap.wav",50
Sample,48059,0,"clap.wav",50
Sample,48824,0,"clap.wav",50
Sample,49588,0,"clap.wav",50
Sample,50352,0,"clap.wav",50
Sample,52645,0,"clap.wav",50
Sample,53410,0,"clap.wav",50
Sample,54174,0,"clap.wav",50
Sample,54938,0,"clap.wav",50
Sample,55703,0,"clap.wav",50
Sample,56467,0,"clap.wav",50
Sample,57231,0,"clap.wav",50
Sample,57996,0,"clap.wav",50
Sample,58760,0,"clap.wav",50
Sample,59524,0,"clap.wav",50
Sample,60288,0,"clap.wav",50
Sample,61053,0,"clap.wav",50
Sample,61817,0,"clap.wav",50
Sample,62581,0,"clap.wav",50

[TimingPoints]
289,382.165605095541,4,2,1,70,1,0
78250,-100,4,2,1,70,0,1
107295,402.684563758389,4,2,1,70,1,0
107295,-95.2380952380952,4,2,1,70,0,0
108905,425.531914893617,4,2,1,70,1,0
108905,-90.0900900900901,4,2,1,70,0,0
110607,454.545454545455,4,2,1,70,1,0
110607,-84.0336134453781,4,2,1,70,0,0
111970,394.736842105263,4,2,1,70,1,0
111970,-97.0873786407767,4,2,1,70,0,0

[HitObjects]
448,192,1053,5,0,0:0:0:70:tom01.wav
64,192,1148,1,0,0:0:0:70:tom01.wav
320,192,1244,1,0,0:0:0:70:tom02.wav
64,192,1339,1,0,0:0:0:70:tom02.wav
192,192,1435,1,0,0:0:0:70:tom03.wav
64,192,1531,1,0,0:0:0:70:tom03.wav
320,192,1626,1,0,0:0:0:70:tom04.wav
192,192,1722,1,0,0:0:0:70:tom04.wav
64,192,1817,128,2,2581:0:0:0:0:
320,192,1817,1,4,0:0:0:0:
448,192,1817,1,0,0:0:0:0:
192,192,2390,1,0,0:0:0:0:
448,192,2486,1,0,0:0:0:0:
320,192,2581,1,0,0:0:0:0:
64,192,3155,1,0,0:0:0:0:
192,192,3250,1,0,0:0:0:0:
320,192,3346,1,0,0:0:0:0:
192,192,3728,1,0,0:0:0:70:tom01.wav
320,192,3855,1,0,0:0:0:70:tom01.wav
64,192,3919,1,0,0:0:0:0:
192,192,3983,1,0,0:0:0:70:tom02.wav
448,192,4015,1,0,0:0:0:0:
320,192,4110,1,0,0:0:0:70:tom03.wav
64,192,4238,1,0,0:0:0:70:tom03.wav
320,192,4365,1,0,0:0:0:70:tom03.wav
192,192,4492,1,0,0:0:0:70:tom04.wav
448,192,4620,1,0,0:0:0:70:tom04.wav
192,192,4747,1,0,0:0:0:70:tom04.wav
64,192,4874,1,2,0:0:0:0:
320,192,4874,1,0,0:0:0:50:LR_CymbalQST.wav
448,192,4874,1,0,0:0:0:0:
192,192,5448,1,0,0:0:0:0:
64,192,5543,1,0,0:0:0:0:
320,192,5639,1,0,0:0:0:0:
448,192,5830,1,0,0:0:0:0:
192,192,6021,1,0,0:0:0:0:
320,192,6212,1,0,0:0:0:0:
192,192,6403,1,0,0:0:0:0:
64,192,6594,1,0,0:0:0:0:
448,192,6785,1,0,0:0:0:0:
192,192,6976,1,0,0:0:0:0:
64,192,7167,1,2,0:0:0:0:
320,192,7167,1,0,0:0:0:50:cymbal.wav
448,192,7167,1,0,0:0:0:0:
320,192,7359,1,0,0:0:0:70:tom03.wav
64,192,7550,1,2,0:0:0:0:
192,192,7550,1,0,0:0:0:50:LR_CymbalQST.wav
448,192,7550,1,0,0:0:0:0:
192,192,8505,1,0,0:0:0:0:
320,192,8696,1,0,0:0:0:0:
64,192,9078,1,0,0:0:0:0:
192,192,9269,1,0,0:0:0:0:
320,192,9460,1,0,0:0:0:0:
64,192,9652,1,0,0:0:0:0:
448,192,9843,1,0,0:0:0:0:
192,192,10034,1,0,0:0:0:0:
64,192,10225,1,2,0:0:0:0:
320,192,10225,1,0,0:0:0:50:cymbal.wav
448,192,10225,1,0,0:0:0:0:
192,192,10416,1,0,0:0:0:70:tom03.wav
448,192,10511,1,0,0:0:0:70:tom04.wav
64,192,10607,1,2,0:0:0:0:
192,192,10607,1,0,0:0:0:50:LR_CymbalQST.wav
320,192,10607,1,0,0:0:0:0:
320,192,11945,1,0,0:0:0:0:
64,192,12136,1,0,0:0:0:0:
192,192,12327,1,0,0:0:0:0:
320,192,12518,1,0,0:0:0:0:
448,192,12709,1,0,0:0:0:0:
320,192,12900,1,0,0:0:0:0:
192,192,13091,1,0,0:0:0:0:
64,192,13282,1,2,0:0:0:0:
320,192,13282,1,0,0:0:0:50:cymbal.wav
448,192,13282,1,0,0:0:0:0:
448,192,13473,1,0,0:0:0:70:tom03.wav
64,192,13664,1,2,0:0:0:0:
192,192,13664,1,0,0:0:0:50:LR_CymbalQST.wav
320,192,13664,1,0,0:0:0:0:
64,192,13855,1,0,0:0:0:70:tom04.wav
192,192,14046,1,2,0:0:0:0:
320,192,14046,1,4,0:0:0:0:
448,192,14046,128,0,14429:0:0:0:0:
64,192,14238,1,2,0:0:0:0:
192,192,14333,1,2,0:0:0:0:
320,192,14429,1,2,0:0:0:0:
192,192,14620,1,2,0:0:0:0:
448,192,14715,1,2,0:0:0:0:
320,192,14811,1,2,0:0:0:0:
64,192,15002,1,2,0:0:0:0:
448,192,15097,1,2,0:0:0:0:
192,192,15193,1,2,0:0:0:0:
64,192,15384,1,2,0:0:0:0:
192,192,15480,1,2,0:0:0:0:
64,192,15575,1,2,0:0:0:0:
320,192,15575,1,0,0:0:0:50:LR_CymbalQST.wav
448,192,15575,1,0,0:0:0:0:
192,192,15766,1,2,0:0:0:0:
320,192,15862,1,2,0:0:0:0:
448,192,15957,1,2,0:0:0:0:
64,192,16148,1,2,0:0:0:0:
448,192,16244,1,2,0:0:0:0:
320,192,16339,1,2,0:0:0:0:
192,192,16531,1,2,0:0:0:0:
448,192,16626,1,2,0:0:0:0:
64,192,16722,1,2,0:0:0:0:
320,192,16722,1,0,0:0:0:50:cymbal.wav
192,192,16913,1,2,0:0:0:0:
448,192,17008,1,2,0:0:0:0:
64,192,17104,1,2,0:0:0:0:
192,192,17295,1,2,0:0:0:0:
448,192,17390,1,2,0:0:0:0:
64,192,17486,1,2,0:0:0:0:
320,192,17677,1,2,0:0:0:0:
192,192,17773,1,2,0:0:0:0:
448,192,17868,1,2,0:0:0:0:
64,192,18059,1,2,0:0:0:0:
320,192,18155,1,2,0:0:0:0:
192,192,18250,1,2,0:0:0:0:
448,192,18441,1,2,0:0:0:0:
64,192,18537,1,2,0:0:0:0:
320,192,18632,1,2,0:0:0:0:
64,192,18728,1,0,0:0:0:0:
448,192,18824,1,2,0:0:0:0:
64,192,18919,1,2,0:0:0:0:
320,192,19015,1,2,0:0:0:0:
192,192,19206,1,2,0:0:0:0:
64,192,19397,1,2,0:0:0:0:
320,192,19397,1,0,0:0:0:50:cymbal.wav
448,192,19397,1,0,0:0:0:0:
320,192,19588,1,2,0:0:0:0:
64,192,19683,1,2,0:0:0:0:
192,192,19779,1,2,0:0:0:0:
448,192,19779,1,0,0:0:0:50:cymbal.wav
64,192,19970,1,2,0:0:0:0:
320,192,20066,1,2,0:0:0:0:
448,192,20161,1,2,0:0:0:0:
192,192,20352,1,2,0:0:0:0:
64,192,20543,1,2,0:0:0:0:
448,192,20639,1,0,0:0:0:0:
64,192,20734,1,2,0:0:0:0:
192,192,20830,1,2,0:0:0:0:
320,192,20925,1,2,0:0:0:0:
64,192,21117,1,2,0:0:0:0:
448,192,21212,1,2,0:0:0:0:
192,192,21308,1,2,0:0:0:0:
320,192,21499,1,2,0:0:0:0:
64,192,21594,1,2,0:0:0:0:
448,192,21690,1,2,0:0:0:0:
192,192,21881,1,2,0:0:0:0:
320,192,21976,1,2,0:0:0:0:
64,192,22072,1,2,0:0:0:0:
192,192,22263,1,2,0:0:0:0:
448,192,22359,1,2,0:0:0:0:
64,192,22454,1,2,0:0:0:0:
320,192,22454,1,0,0:0:0:50:cymbal.wav
192,192,22645,1,2,0:0:0:0:
320,192,22741,1,2,0:0:0:0:
64,192,22836,1,2,0:0:0:0:
192,192,22836,1,0,0:0:0:50:LR_CymbalQST.wav
448,192,22836,1,0,0:0:0:0:
320,192,23027,1,2,0:0:0:0:
64,192,23123,1,2,0:0:0:0:
192,192,23218,1,2,0:0:0:0:
320,192,23410,1,2,0:0:0:0:
64,192,23505,1,2,0:0:0:0:
192,192,23601,1,2,0:0:0:0:
448,192,23792,1,2,0:0:0:0:
64,192,23887,1,2,0:0:0:0:
320,192,23983,1,2,0:0:0:0:
192,192,24174,1,2,0:0:0:0:
448,192,24269,1,2,0:0:0:0:
64,192,24365,1,2,0:0:0:0:
320,192,24556,1,2,0:0:0:0:
192,192,24620,1,0,0:0:0:0:
64,192,24683,1,0,0:0:0:0:
448,192,24747,1,2,0:0:0:0:
192,192,24938,1,2,0:0:0:0:
320,192,25034,1,2,0:0:0:0:
448,192,25129,1,2,0:0:0:0:
64,192,25320,1,2,0:0:0:0:
320,192,25416,1,2,0:0:0:0:
64,192,25511,1,8,0:0:0:0:
192,192,25511,1,0,0:0:0:50:LR_CymbalQST.wav
448,192,25511,1,0,0:0:0:0:
320,192,25703,1,2,0:0:0:0:
448,192,25703,1,0,0:0:0:0:
64,192,25894,1,8,0:0:0:0:
320,192,25894,1,0,0:0:0:50:LR_CymbalQST.wav
448,192,25894,1,0,0:0:0:0:
64,192,26085,1,2,0:0:0:0:
192,192,26085,1,0,0:0:0:0:
64,192,26276,1,2,0:0:0:0:
192,192,26276,128,4,26658:0:0:0:0:
448,192,26276,1,0,0:0:0:0:
320,192,26467,1,0,0:0:0:0:
64,192,26562,1,0,0:0:0:0:
448,192,26658,1,2,0:0:0:0:
192,192,26849,1,0,0:0:0:0:
448,192,27040,1,2,0:0:0:0:
192,192,27136,1,0,0:0:0:0:
320,192,27231,1,0,0:0:0:0:
448,192,27327,1,0,0:0:0:0:
64,192,27422,1,2,0:0:0:0:
320,192,27613,1,0,0:0:0:0:
192,192,27709,1,0,0:0:0:0:
448,192,27804,1,2,0:0:0:0:
320,192,27996,1,0,0:0:0:0:
64,192,28091,1,0,0:0:0:0:
448,192,28187,1,2,0:0:0:0:
192,192,28378,1,0,0:0:0:0:
448,192,28569,1,2,0:0:0:0:
192,192,28664,1,2,0:0:0:0:
320,192,28760,1,0,0:0:0:0:
448,192,28855,1,0,0:0:0:0:
64,192,28951,1,2,0:0:0:0:
192,192,29142,1,0,0:0:0:0:
64,192,29238,1,0,0:0:0:0:
448,192,29333,1,2,0:0:0:0:
320,192,29524,1,0,0:0:0:0:
64,192,29620,1,0,0:0:0:0:
448,192,29715,1,2,0:0:0:0:
192,192,29906,1,0,0:0:0:0:
448,192,30097,1,2,0:0:0:0:
192,192,30193,1,0,0:0:0:0:
320,192,30288,1,0,0:0:0:0:
448,192,30384,1,0,0:0:0:0:
64,192,30480,1,2,0:0:0:0:
320,192,30671,1,0,0:0:0:0:
192,192,30766,1,0,0:0:0:0:
448,192,30862,1,2,0:0:0:0:
64,192,30957,1,0,0:0:0:0:
192,192,31053,1,0,0:0:0:0:
320,192,31148,1,2,0:0:0:0:
64,192,31244,1,0,0:0:0:0:
448,192,31339,1,0,0:0:0:0:
64,192,31435,1,8,0:0:0:0:
192,192,31435,1,0,0:0:0:50:LR_CymbalQST.wav
320,192,31435,1,0,0:0:0:0:
448,192,31626,1,0,0:0:0:0:
192,192,31722,1,2,0:0:0:0:
320,192,31817,1,0,0:0:0:0:
64,192,31913,1,0,0:0:0:0:
192,192,32008,1,8,0:0:0:0:
320,192,32008,1,0,0:0:0:50:LR_CymbalQST.wav
448,192,32008,1,0,0:0:0:0:
320,192,32199,1,2,0:0:0:0:
64,192,32390,1,2,0:0:0:0:
192,192,32390,1,0,0:0:0:50:cymbal.wav
448,192,32390,1,0,0:0:0:0:
320,192,32581,1,0,0:0:0:0:
64,192,32677,1,0,0:0:0:0:
448,192,32773,1,2,0:0:0:0:
192,192,32964,1,0,0:0:0:0:
448,192,33155,1,2,0:0:0:0:
192,192,33250,1,0,0:0:0:0:
320,192,33346,1,0,0:0:0:0:
448,192,33441,1,0,0:0:0:0:
64,192,33537,1,2,0:0:0:0:
320,192,33728,1,0,0:0:0:0:
192,192,33824,1,0,0:0:0:0:
448,192,33919,1,2,0:0:0:0:
320,192,34110,1,0,0:0:0:0:
64,192,34206,1,0,0:0:0:0:
448,192,34301,1,2,0:0:0:0:
192,192,34492,1,0,0:0:0:0:
448,192,34683,1,2,0:0:0:0:
192,192,34779,1,2,0:0:0:0:
320,192,34874,1,0,0:0:0:0:
448,192,34970,1,0,0:0:0:0:
64,192,35066,1,2,0:0:0:0:
192,192,35257,1,0,0:0:0:0:
64,192,35352,1,0,0:0:0:0:
192,192,35448,1,2,0:0:0:0:
448,192,35448,1,0,0:0:0:0:
320,192,35639,1,2,0:0:0:0:
64,192,35734,1,0,0:0:0:0:
192,192,35830,1,2,0:0:0:0:
448,192,35830,1,0,0:0:0:0:
192,192,36021,1,2,0:0:0:0:
64,192,36212,1,2,0:0:0:0:
448,192,36212,1,0,0:0:0:0:
192,192,36308,1,0,0:0:0:0:
320,192,36403,1,2,0:0:0:0:
448,192,36499,1,0,0:0:0:0:
64,192,36594,1,2,0:0:0:0:
320,192,36594,1,0,0:0:0:100:ride01.wav
320,192,36785,1,2,0:0:0:0:
192,192,36881,1,0,0:0:0:0:
64,192,36976,1,2,0:0:0:0:
448,192,36976,1,0,0:0:0:0:
320,192,37072,1,0,0:0:0:0:
192,192,37167,1,2,0:0:0:0:
448,192,37263,1,8,0:0:0:0:
192,192,37359,1,0,0:0:0:0:
320,192,37454,1,0,0:0:0:0:
64,192,37550,1,8,0:0:0:0:
192,192,37550,1,0,0:0:0:50:LR_CymbalQST.wav
448,192,37550,1,0,0:0:0:0:
320,192,38123,1,0,0:0:0:100:ride02.wav
64,192,38505,1,0,0:0:0:100:ride01.wav
448,192,38632,1,0,0:0:0:0:
64,192,38760,1,0,0:0:0:0:
192,192,38887,1,0,0:0:0:100:ride02.wav
448,192,38887,1,0,0:0:0:0:
320,192,39015,1,0,0:0:0:0:
192,192,39142,1,0,0:0:0:0:
64,192,39269,1,0,0:0:0:100:ride02.wav
448,192,39269,1,0,0:0:0:0:
320,192,39397,1,0,0:0:0:0:
192,192,39524,1,0,0:0:0:0:
320,192,39652,1,8,0:0:0:0:
448,192,39652,1,0,0:0:0:100:ride02.wav
192,192,39843,1,2,0:0:0:0:
320,192,39843,1,0,0:0:0:100:ride01.wav
64,192,40034,128,2,40225:0:0:0:0:
192,192,40034,1,4,0:0:0:0:
448,192,40034,128,0,40416:0:0:0:0:
320,192,40225,128,0,40416:0:0:0:0:
64,192,40416,128,2,40607:0:0:0:0:
192,192,40607,128,0,40798:0:0:0:0:
320,192,40798,128,2,41180:0:0:0:0:
448,192,40798,1,0,0:0:0:0:
64,192,40989,1,0,0:0:0:0:
448,192,41085,1,0,0:0:0:0:
192,192,41180,128,2,41371:0:0:0:0:
320,192,41371,128,0,41562:0:0:0:0:
64,192,41562,128,2,41658:0:0:0:0:
192,192,41562,1,0,0:0:0:0:
448,192,41658,128,0,41753:0:0:0:0:
64,192,41753,128,0,42136:0:0:0:0:
320,192,41849,1,0,0:0:0:0:
192,192,41945,1,2,0:0:0:0:
320,192,42136,128,0,42327:0:0:0:0:
64,192,42327,1,2,0:0:0:0:
192,192,42327,128,0,43091:0:0:0:0:
320,192,42518,1,0,0:0:0:0:
448,192,42709,1,2,0:0:0:0:
64,192,42900,1,0,0:0:0:0:
320,192,43091,1,2,0:0:0:0:
448,192,43091,1,0,0:0:0:0:
64,192,43282,128,0,43473:0:0:0:0:
192,192,43473,128,2,43664:0:0:0:0:
448,192,43664,128,0,43855:0:0:0:0:
64,192,43855,1,2,0:0:0:0:
192,192,43855,128,0,43951:0:0:0:0:
320,192,43951,128,0,44046:0:0:0:0:
192,192,44046,128,0,44238:0:0:0:0:
448,192,44142,1,0,0:0:0:0:
64,192,44238,128,2,44429:0:0:0:0:
320,192,44429,128,0,44620:0:0:0:0:
64,192,44620,1,2,0:0:0:0:
192,192,44620,128,0,44811:0:0:0:0:
320,192,44811,128,0,45002:0:0:0:0:
64,192,45002,128,2,45193:0:0:0:0:
448,192,45193,128,0,45384:0:0:0:0:
64,192,45384,1,2,0:0:0:0:
192,192,45384,128,0,45480:0:0:0:0:
320,192,45480,128,0,45575:0:0:0:0:
192,192,45575,128,0,45766:0:0:0:0:
64,192,45671,1,8,0:0:0:0:
448,192,45766,128,2,45957:0:0:0:0:
192,192,45862,1,0,0:0:0:0:
320,192,45957,128,8,46148:0:0:0:0:
64,192,46148,128,2,46339:0:0:0:0:
192,192,46148,1,4,0:0:0:0:
448,192,46148,1,0,0:0:0:0:
320,192,46339,128,0,46531:0:0:0:0:
64,192,46531,128,2,46722:0:0:0:0:
192,192,46722,128,0,46913:0:0:0:0:
320,192,46913,128,2,47008:0:0:0:0:
448,192,46913,1,0,0:0:0:0:
64,192,47008,128,0,47104:0:0:0:0:
320,192,47104,128,0,47295:0:0:0:0:
448,192,47199,1,0,0:0:0:0:
64,192,47295,128,2,47486:0:0:0:0:
192,192,47486,128,0,47677:0:0:0:0:
320,192,47677,1,2,0:0:0:0:
448,192,47677,128,0,47868:0:0:0:0:
64,192,47868,128,0,48059:0:0:0:0:
320,192,48059,128,2,48250:0:0:0:0:
192,192,48250,128,0,48441:0:0:0:0:
320,192,48441,1,2,0:0:0:0:
448,192,48441,128,0,48824:0:0:0:0:
64,192,48632,1,0,0:0:0:0:
320,192,48824,128,2,49015:0:0:0:0:
192,192,49015,128,0,49206:0:0:0:0:
320,192,49206,128,2,49397:0:0:0:0:
448,192,49206,1,0,0:0:0:0:
64,192,49397,128,0,49588:0:0:0:0:
448,192,49492,1,0,0:0:0:0:
192,192,49588,128,2,49779:0:0:0:0:
448,192,49779,128,0,49970:0:0:0:0:
64,192,49970,1,2,0:0:0:0:
192,192,49970,128,0,50066:0:0:0:0:
320,192,50066,128,0,50161:0:0:0:0:
192,192,50161,128,0,50352:0:0:0:0:
448,192,50257,1,0,0:0:0:0:
64,192,50352,128,2,50543:0:0:0:0:
320,192,50543,128,0,50734:0:0:0:0:
64,192,50734,128,2,50925:0:0:0:0:
192,192,50734,1,0,0:0:0:0:
448,192,50925,128,8,51117:0:0:0:0:
320,192,51021,1,8,0:0:0:0:
64,192,51117,1,2,0:0:0:0:
192,192,51117,128,0,51212:0:0:0:50:clap.wav
320,192,51212,128,0,51308:0:0:0:0:
192,192,51308,128,8,51403:0:0:0:0:
448,192,51403,1,8,0:0:0:0:
64,192,51499,1,2,0:0:0:0:
192,192,51499,1,0,0:0:0:50:cymbal.wav
320,192,51499,1,0,0:0:0:0:
448,192,51690,1,2,0:0:0:0:
64,192,51785,1,0,0:0:0:0:
192,192,51881,1,8,0:0:0:0:
320,192,51881,1,0,0:0:0:50:LR_CymbalQST.wav
448,192,51881,1,0,0:0:0:0:
64,192,52072,1,8,0:0:0:0:
320,192,52167,1,0,0:0:0:0:
64,192,52263,128,2,52454:0:0:0:0:
192,192,52263,1,4,0:0:0:0:
448,192,52263,128,0,52645:0:0:0:0:
320,192,52454,128,0,52645:0:0:0:0:
64,192,52645,128,2,52836:0:0:0:0:
192,192,52836,128,0,53027:0:0:0:0:
320,192,53027,128,2,53410:0:0:0:0:
448,192,53027,1,0,0:0:0:0:
64,192,53218,1,0,0:0:0:0:
448,192,53314,1,0,0:0:0:0:
192,192,53410,128,2,53601:0:0:0:0:
320,192,53601,128,0,53792:0:0:0:0:
64,192,53792,128,2,53887:0:0:0:0:
192,192,53792,1,0,0:0:0:0:
448,192,53887,128,0,53983:0:0:0:0:
64,192,53983,128,0,54365:0:0:0:0:
320,192,54078,1,0,0:0:0:0:
192,192,54174,1,2,0:0:0:0:
320,192,54365,128,0,54556:0:0:0:0:
64,192,54556,1,2,0:0:0:0:
192,192,54556,128,0,55320:0:0:0:0:
320,192,54747,1,0,0:0:0:0:
448,192,54938,1,2,0:0:0:0:
64,192,55129,1,0,0:0:0:0:
320,192,55320,1,2,0:0:0:0:
448,192,55320,1,0,0:0:0:0:
64,192,55511,128,0,55703:0:0:0:0:
192,192,55703,128,2,55894:0:0:0:0:
448,192,55894,128,0,56085:0:0:0:0:
64,192,56085,1,2,0:0:0:0:
192,192,56085,128,0,56180:0:0:0:0:
320,192,56180,128,0,56276:0:0:0:0:
192,192,56276,128,0,56467:0:0:0:0:
448,192,56371,1,0,0:0:0:0:
64,192,56467,128,2,56658:0:0:0:0:
320,192,56658,128,0,56849:0:0:0:0:
64,192,56849,1,2,0:0:0:0:
192,192,56849,128,0,57040:0:0:0:0:
320,192,57040,128,0,57231:0:0:0:0:
64,192,57231,128,2,57422:0:0:0:0:
448,192,57422,128,0,57613:0:0:0:0:
64,192,57613,1,2,0:0:0:0:
192,192,57613,128,0,57709:0:0:0:0:
320,192,57709,128,0,57804:0:0:0:0:
192,192,57804,128,0,57996:0:0:0:0:
64,192,57900,1,8,0:0:0:0:
448,192,57996,128,2,58187:0:0:0:0:
192,192,58091,1,0,0:0:0:0:
320,192,58187,128,8,58378:0:0:0:0:
64,192,58378,128,2,58569:0:0:0:0:
192,192,58378,1,4,0:0:0:0:
448,192,58378,1,0,0:0:0:0:
320,192,58569,128,0,58760:0:0:0:0:
64,192,58760,128,2,58951:0:0:0:0:
192,192,58951,128,0,59142:0:0:0:0:
320,192,59142,128,2,59238:0:0:0:0:
448,192,59142,1,0,0:0:0:0:
64,192,59238,128,0,59333:0:0:0:0:
320,192,59333,128,0,59524:0:0:0:0:
448,192,59429,1,0,0:0:0:0:
64,192,59524,128,2,59715:0:0:0:0:
192,192,59715,128,0,59906:0:0:0:0:
320,192,59906,1,2,0:0:0:0:
448,192,59906,128,0,60097:0:0:0:0:
64,192,60097,128,0,60288:0:0:0:0:
320,192,60288,128,2,60480:0:0:0:0:
192,192,60480,128,0,60671:0:0:0:0:
320,192,60671,1,2,0:0:0:0:
448,192,60671,128,0,61053:0:0:0:0:
64,192,60862,1,0,0:0:0:0:
320,192,61053,128,2,61244:0:0:0:0:
192,192,61244,128,0,61435:0:0:0:0:
320,192,61435,128,2,61626:0:0:0:0:
448,192,61435,1,0,0:0:0:0:
64,192,61626,128,0,61817:0:0:0:0:
448,192,61722,1,0,0:0:0:0:
192,192,61817,128,2,62008:0:0:0:0:
448,192,62008,128,0,62199:0:0:0:0:
64,192,62199,1,2,0:0:0:0:
192,192,62199,128,0,62295:0:0:0:0:
320,192,62295,128,0,62390:0:0:0:0:
192,192,62390,128,0,62581:0:0:0:0:
448,192,62486,1,0,0:0:0:0:
64,192,62581,128,2,62773:0:0:0:0:
320,192,62773,128,0,62964:0:0:0:0:
64,192,62964,128,8,63155:0:0:0:0:
192,192,62964,1,0,0:0:0:0:
448,192,63155,128,2,63346:0:0:0:0:
320,192,63250,1,0,0:0:0:0:
64,192,63346,1,8,0:0:0:0:
192,192,63346,128,0,63441:0:0:0:50:clap.wav
320,192,63441,128,0,63537:0:0:0:0:
192,192,63537,128,2,63632:0:0:0:0:
448,192,63632,1,0,0:0:0:0:
64,192,63728,1,2,0:0:0:0:
192,192,63728,1,0,0:0:0:50:cymbal.wav
320,192,63728,1,0,0:0:0:0:
64,192,63919,1,2,0:0:0:0:
448,192,63919,1,0,0:0:0:0:
192,192,64110,1,8,0:0:0:0:
320,192,64110,1,0,0:0:0:50:LR_CymbalQST.wav
448,192,64110,1,0,0:0:0:0:
64,192,64301,1,8,0:0:0:0:
192,192,64397,1,8,0:0:0:0:
64,192,64492,1,2,0:0:0:0:
448,192,64492,128,4,65257:0:0:0:0:
320,192,64540,1,0,0:0:0:0:
192,192,64588,1,0,0:0:0:0:
192,192,65066,1,0,0:0:0:0:
320,192,65161,1,0,0:0:0:0:
64,192,65257,1,0,0:0:0:0:
192,192,65448,1,0,0:0:0:0:
320,192,65639,1,0,0:0:0:0:
448,192,65830,1,0,0:0:0:0:
64,192,65925,1,0,0:0:0:0:
320,192,65973,1,0,0:0:0:0:
192,192,66021,1,2,0:0:0:0:
448,192,66021,1,4,0:0:0:0:
64,192,66212,1,0,0:0:0:0:
320,192,66403,1,0,0:0:0:0:
192,192,66594,1,0,0:0:0:0:
64,192,66785,1,0,0:0:0:0:
320,192,67167,1,0,0:0:0:0:
448,192,67263,1,0,0:0:0:0:
64,192,67454,1,0,0:0:0:0:
192,192,67550,1,4,0:0:0:0:
448,192,67550,1,2,0:0:0:0:
320,192,67597,1,0,0:0:0:0:
64,192,67645,1,0,0:0:0:0:
192,192,68123,1,0,0:0:0:0:
320,192,68218,1,0,0:0:0:0:
64,192,68314,1,0,0:0:0:0:
192,192,68505,1,0,0:0:0:0:
320,192,68696,1,0,0:0:0:0:
448,192,68887,1,0,0:0:0:0:
64,192,68983,1,0,0:0:0:0:
320,192,69031,1,0,0:0:0:0:
192,192,69078,1,2,0:0:0:0:
448,192,69078,1,4,0:0:0:0:
64,192,69269,1,0,0:0:0:0:
320,192,69460,1,0,0:0:0:0:
192,192,69652,1,0,0:0:0:0:
320,192,69843,1,2,0:0:0:0:
448,192,69843,1,0,0:0:0:0:
64,192,70225,1,8,0:0:0:0:
320,192,70225,1,0,0:0:0:0:
64,192,70416,1,2,0:0:0:0:
192,192,70416,1,0,0:0:0:0:
64,192,70607,1,4,0:0:0:0:
448,192,70607,1,2,0:0:0:0:
320,192,70655,1,0,0:0:0:0:
192,192,70703,1,0,0:0:0:0:
320,192,70989,1,2,0:0:0:0:
448,192,70989,1,0,0:0:0:0:
192,192,71180,1,2,0:0:0:0:
448,192,71276,1,0,0:0:0:0:
64,192,71371,1,2,0:0:0:0:
192,192,71371,1,0,0:0:0:0:
320,192,71562,1,2,0:0:0:0:
64,192,71658,1,0,0:0:0:0:
192,192,71753,1,8,0:0:0:0:
448,192,71753,1,0,0:0:0:0:
320,192,71945,1,2,0:0:0:0:
64,192,72040,1,0,0:0:0:0:
192,192,72088,1,0,0:0:0:0:
320,192,72136,1,2,0:0:0:0:
448,192,72136,1,0,0:0:0:0:
64,192,72327,1,0,0:0:0:0:
448,192,72422,1,2,0:0:0:0:
64,192,72518,1,2,0:0:0:0:
192,192,72518,1,0,0:0:0:0:
320,192,72709,1,2,0:0:0:0:
64,192,72804,1,0,0:0:0:0:
320,192,72900,1,2,0:0:0:0:
448,192,72900,1,0,0:0:0:0:
192,192,73091,1,2,0:0:0:0:
64,192,73282,1,8,0:0:0:0:
448,192,73282,1,0,0:0:0:0:
320,192,73473,1,2,0:0:0:0:
64,192,73664,1,2,0:0:0:0:
192,192,73664,1,0,0:0:0:100:ride02.wav
448,192,73855,1,2,0:0:0:0:
320,192,73951,1,2,0:0:0:0:
64,192,74046,1,2,0:0:0:0:
192,192,74046,1,0,0:0:0:0:
320,192,74238,1,2,0:0:0:0:
192,192,74301,1,0,0:0:0:0:
64,192,74365,1,0,0:0:0:0:
320,192,74429,1,2,0:0:0:0:
448,192,74429,1,0,0:0:0:0:
192,192,74620,1,2,0:0:0:0:
448,192,74715,1,2,0:0:0:0:
64,192,74811,1,8,0:0:0:0:
320,192,74811,1,0,0:0:0:0:
192,192,75002,1,2,0:0:0:0:
320,192,75066,1,0,0:0:0:0:
448,192,75129,1,0,0:0:0:0:
64,192,75193,1,2,0:0:0:0:
192,192,75193,1,0,0:0:0:100:ride02.wav
320,192,75384,1,2,0:0:0:0:
448,192,75480,1,0,0:0:0:0:
64,192,75575,1,2,0:0:0:0:
192,192,75575,1,0,0:0:0:0:
320,192,75766,1,2,0:0:0:0:
192,192,75862,1,0,0:0:0:0:
64,192,75957,1,8,0:0:0:0:
448,192,75957,1,0,0:0:0:0:
320,192,76053,1,0,0:0:0:0:
192,192,76148,1,2,0:0:0:0:
320,192,76244,1,0,0:0:0:0:
64,192,76339,1,8,0:0:0:0:
448,192,76339,1,0,0:0:0:0:
192,192,76435,1,0,0:0:0:0:
320,192,76531,1,2,0:0:0:0:
448,192,76626,1,0,0:0:0:0:
64,192,77486,1,0,0:0:0:0:
448,192,77581,1,0,0:0:0:0:
320,192,77773,1,0,0:0:0:0:
192,192,77868,128,8,78059:0:0:0:0:
448,192,77868,1,0,0:0:0:0:
320,192,78059,128,2,78250:0:0:0:0:
64,192,78250,1,2,0:0:0:0:
192,192,78250,1,4,0:0:0:0:
448,192,78250,128,0,78441:0:0:0:0:
64,192,78441,1,0,0:0:0:0:
320,192,78505,1,0,0:0:0:0:
192,192,78569,1,0,0:0:0:0:
64,192,78632,128,8,78824:0:0:0:0:
448,192,78632,1,0,0:0:0:0:
320,192,78824,128,0,79015:0:0:0:0:
64,192,79015,128,2,79397:0:0:0:0:
192,192,79015,1,0,0:0:0:0:
320,192,79206,1,0,0:0:0:0:
192,192,79397,128,8,79588:0:0:0:0:
448,192,79397,1,0,0:0:0:0:
320,192,79588,128,0,79779:0:0:0:0:
64,192,79779,128,2,79970:0:0:0:0:
192,192,79779,1,0,0:0:0:0:
448,192,79970,1,0,0:0:0:0:
192,192,80034,1,0,0:0:0:0:
320,192,80097,1,0,0:0:0:0:
64,192,80161,1,8,0:0:0:0:
448,192,80161,128,0,80352:0:0:0:0:
192,192,80352,128,0,80543:0:0:0:0:
320,192,80543,1,2,0:0:0:0:
448,192,80543,128,0,80925:0:0:0:0:
192,192,80734,1,0,0:0:0:0:
64,192,80925,1,8,0:0:0:0:
320,192,80925,128,0,81117:0:0:0:0:
192,192,81117,128,0,81308:0:0:0:0:
320,192,81308,1,2,0:0:0:0:
448,192,81308,128,0,81499:0:0:0:0:
64,192,81499,1,0,0:0:0:0:
320,192,81562,1,0,0:0:0:0:
192,192,81626,1,0,0:0:0:0:
64,192,81690,128,8,81881:0:0:0:0:
448,192,81690,1,0,0:0:0:0:
320,192,81881,128,0,82072:0:0:0:0:
64,192,82072,128,2,82454:0:0:0:0:
192,192,82072,1,0,0:0:0:0:
320,192,82263,1,0,0:0:0:0:
192,192,82454,128,8,82645:0:0:0:0:
448,192,82454,1,0,0:0:0:0:
320,192,82645,128,0,82836:0:0:0:0:
64,192,82836,1,2,0:0:0:0:
192,192,82836,128,0,83027:0:0:0:0:
64,192,83027,1,8,0:0:0:0:
448,192,83027,128,0,83123:0:0:0:0:
192,192,83123,128,0,83218:0:0:0:0:
320,192,83218,128,2,83410:0:0:0:0:
448,192,83218,1,0,0:0:0:0:
192,192,83410,1,8,0:0:0:0:
448,192,83410,128,0,83601:0:0:0:0:
64,192,83601,128,2,83983:0:0:0:0:
192,192,83601,1,0,0:0:0:0:
320,192,83696,1,0,0:0:0:0:
448,192,83792,1,2,0:0:0:0:
320,192,83887,1,2,0:0:0:0:
192,192,83983,128,8,84078:0:0:0:0:
448,192,84078,128,0,84174:0:0:0:0:
64,192,84174,128,8,84269:0:0:0:0:
320,192,84269,128,0,84365:0:0:0:0:
64,192,84365,1,4,0:0:0:0:
192,192,84365,1,2,0:0:0:0:
448,192,84365,128,0,84556:0:0:0:0:
64,192,84556,1,0,0:0:0:0:
320,192,84620,1,0,0:0:0:0:
192,192,84683,1,0,0:0:0:0:
64,192,84747,128,8,84938:0:0:0:0:
448,192,84747,1,0,0:0:0:0:
320,192,84938,128,0,85129:0:0:0:0:
64,192,85129,128,2,85511:0:0:0:0:
192,192,85129,1,0,0:0:0:0:
320,192,85320,1,0,0:0:0:0:
192,192,85511,128,8,85703:0:0:0:0:
448,192,85511,1,0,0:0:0:0:
320,192,85703,128,0,85894:0:0:0:0:
64,192,85894,128,2,86085:0:0:0:0:
192,192,85894,1,0,0:0:0:0:
448,192,86085,1,0,0:0:0:0:
192,192,86148,1,0,0:0:0:0:
320,192,86212,1,0,0:0:0:0:
64,192,86276,1,8,0:0:0:0:
448,192,86276,128,0,86467:0:0:0:0:
192,192,86467,128,0,86658:0:0:0:0:
320,192,86658,1,2,0:0:0:0:
448,192,86658,128,0,87040:0:0:0:0:
192,192,86849,1,0,0:0:0:0:
64,192,87040,1,8,0:0:0:0:
320,192,87040,128,0,87422:0:0:0:0:
448,192,87231,1,0,0:0:0:0:
64,192,87422,1,2,0:0:0:0:
192,192,87422,1,0,0:0:0:0:
192,192,87613,128,0,87804:0:0:0:0:
64,192,87804,1,8,0:0:0:0:
320,192,87804,128,0,87996:0:0:0:0:
448,192,87996,128,0,88187:0:0:0:0:
64,192,88187,1,2,0:0:0:0:
192,192,88187,128,0,88378:0:0:0:0:
320,192,88378,128,0,88569:0:0:0:0:
64,192,88569,1,8,0:0:0:0:
448,192,88569,1,0,0:0:0:0:
192,192,88632,1,0,0:0:0:0:
320,192,88696,1,0,0:0:0:0:
64,192,88760,128,0,88951:0:0:0:0:
320,192,88951,128,2,89142:0:0:0:0:
448,192,88951,1,0,0:0:0:0:
192,192,89142,1,2,0:0:0:0:
64,192,89206,1,0,0:0:0:0:
320,192,89269,1,0,0:0:0:0:
192,192,89333,128,8,89524:0:0:0:0:
448,192,89333,1,0,0:0:0:0:
64,192,89524,128,2,89715:0:0:0:0:
320,192,89715,1,2,0:0:0:0:
448,192,89715,1,0,0:0:0:0:
192,192,89779,1,0,0:0:0:0:
448,192,89843,1,0,0:0:0:0:
64,192,89906,1,8,0:0:0:0:
320,192,89906,128,0,90097:0:0:0:0:
64,192,90097,1,2,0:0:0:0:
192,192,90097,128,0,90288:0:0:0:0:
448,192,90193,1,0,0:0:0:0:
320,192,90288,128,2,90480:0:0:0:0:
64,192,90480,1,2,0:0:0:0:
192,192,90480,1,4,0:0:0:0:
448,192,90480,128,0,90671:0:0:0:0:
64,192,90671,1,0,0:0:0:0:
320,192,90734,1,0,0:0:0:0:
192,192,90798,1,0,0:0:0:0:
64,192,90862,128,8,91053:0:0:0:0:
448,192,90862,1,0,0:0:0:0:
320,192,91053,128,0,91244:0:0:0:0:
64,192,91244,128,2,91626:0:0:0:0:
192,192,91244,1,0,0:0:0:0:
320,192,91435,1,0,0:0:0:0:
192,192,91626,128,8,91817:0:0:0:0:
448,192,91626,1,0,0:0:0:0:
320,192,91817,128,0,92008:0:0:0:0:
64,192,92008,128,2,92199:0:0:0:0:
192,192,92008,1,0,0:0:0:0:
448,192,92199,1,0,0:0:0:0:
192,192,92263,1,0,0:0:0:0:
320,192,92327,1,0,0:0:0:0:
64,192,92390,1,8,0:0:0:0:
448,192,92390,128,0,92581:0:0:0:0:
192,192,92581,128,0,92773:0:0:0:0:
320,192,92773,1,2,0:0:0:0:
448,192,92773,128,0,93155:0:0:0:0:
192,192,92964,1,0,0:0:0:0:
64,192,93155,1,8,0:0:0:0:
320,192,93155,128,0,93346:0:0:0:0:
192,192,93346,128,0,93537:0:0:0:0:
320,192,93537,1,2,0:0:0:0:
448,192,93537,128,0,93728:0:0:0:0:
192,192,93728,128,0,93919:0:0:0:0:
64,192,93919,1,8,0:0:0:0:
320,192,93919,1,0,0:0:0:0:
448,192,93983,1,0,0:0:0:0:
192,192,94046,1,0,0:0:0:0:
320,192,94110,128,0,94301:0:0:0:0:
64,192,94301,128,2,94492:0:0:0:0:
192,192,94301,1,0,0:0:0:0:
320,192,94492,128,0,94588:0:0:0:0:
64,192,94588,128,0,94683:0:0:0:0:
192,192,94683,128,8,94874:0:0:0:0:
448,192,94683,1,0,0:0:0:0:
320,192,94874,128,0,95066:0:0:0:0:
64,192,95066,1,2,0:0:0:0:
192,192,95066,128,0,95257:0:0:0:0:
64,192,95257,1,8,0:0:0:0:
448,192,95257,128,0,95352:0:0:0:0:
192,192,95352,128,0,95448:0:0:0:0:
320,192,95448,128,2,95639:0:0:0:0:
448,192,95448,1,0,0:0:0:0:
192,192,95639,1,8,0:0:0:0:
448,192,95639,128,0,95830:0:0:0:0:
64,192,95830,128,2,96212:0:0:0:0:
192,192,95830,1,0,0:0:0:0:
320,192,95925,1,0,0:0:0:0:
448,192,96021,1,8,0:0:0:0:
320,192,96117,1,2,0:0:0:0:
192,192,96212,128,8,96308:0:0:0:0:
448,192,96308,128,0,96403:0:0:0:0:
64,192,96403,128,8,96499:0:0:0:0:
320,192,96499,128,0,96594:0:0:0:0:
64,192,96594,1,4,0:0:0:0:
192,192,96594,1,2,0:0:0:0:
448,192,96594,128,0,96785:0:0:0:0:
64,192,96785,1,0,0:0:0:0:
320,192,96849,1,0,0:0:0:0:
192,192,96913,1,0,0:0:0:0:
64,192,96976,128,8,97167:0:0:0:0:
448,192,96976,1,0,0:0:0:0:
320,192,97167,128,0,97359:0:0:0:0:
64,192,97359,128,2,97741:0:0:0:0:
192,192,97359,1,0,0:0:0:0:
320,192,97550,1,0,0:0:0:0:
192,192,97741,128,8,97932:0:0:0:0:
448,192,97741,1,0,0:0:0:0:
320,192,97932,128,0,98123:0:0:0:0:
64,192,98123,128,2,98314:0:0:0:0:
192,192,98123,1,0,0:0:0:0:
448,192,98314,1,0,0:0:0:0:
192,192,98378,1,0,0:0:0:0:
320,192,98441,1,0,0:0:0:0:
64,192,98505,1,8,0:0:0:0:
448,192,98505,128,0,98696:0:0:0:0:
192,192,98696,128,0,98887:0:0:0:0:
320,192,98887,1,2,0:0:0:0:
448,192,98887,128,0,99269:0:0:0:0:
192,192,99078,1,0,0:0:0:0:
64,192,99269,1,8,0:0:0:0:
320,192,99269,128,0,99652:0:0:0:0:
448,192,99460,1,0,0:0:0:0:
64,192,99652,1,2,0:0:0:0:
192,192,99652,1,0,0:0:0:0:
192,192,99843,128,0,100034:0:0:0:0:
64,192,100034,1,8,0:0:0:0:
320,192,100034,128,0,100225:0:0:0:0:
448,192,100225,128,0,100416:0:0:0:0:
64,192,100416,128,2,100607:0:0:0:0:
192,192,100416,1,0,0:0:0:0:
320,192,100607,128,0,100798:0:0:0:0:
192,192,100798,128,8,100989:0:0:0:0:
448,192,100798,1,0,0:0:0:0:
64,192,100989,128,0,101180:0:0:0:0:
320,192,101180,1,2,0:0:0:0:
448,192,101180,128,0,102327:0:0:0:0:
192,192,101371,1,2,0:0:0:0:
64,192,101562,1,8,0:0:0:0:
320,192,101562,1,0,0:0:0:0:
320,192,101753,1,2,0:0:0:0:
64,192,101945,1,2,0:0:0:0:
192,192,101945,1,0,0:0:0:0:
192,192,102136,1,2,0:0:0:0:
64,192,102327,1,8,0:0:0:0:
320,192,102327,1,0,0:0:0:0:
448,192,102422,1,0,0:0:0:0:
192,192,102518,1,2,0:0:0:0:
320,192,102613,1,0,0:0:0:0:
64,192,102709,128,2,103473:0:0:0:0:
192,192,102709,1,4,0:0:0:0:
448,192,102757,1,0,0:0:0:0:
320,192,102804,1,0,0:0:0:0:
320,192,103282,1,0,0:0:0:0:
448,192,103378,1,0,0:0:0:0:
192,192,103473,1,0,0:0:0:0:
320,192,104046,1,0,0:0:0:0:
192,192,104142,1,0,0:0:0:0:
448,192,104238,1,0,0:0:0:0:
64,192,104620,1,0,0:0:0:70:tom01.wav
320,192,104747,1,0,0:0:0:70:tom01.wav
448,192,104811,1,0,0:0:0:0:
192,192,104874,1,0,0:0:0:70:tom02.wav
320,192,105002,1,0,0:0:0:70:tom03.wav
64,192,105129,1,0,0:0:0:70:tom03.wav
192,192,105257,1,0,0:0:0:70:tom03.wav
448,192,105384,1,0,0:0:0:70:tom04.wav
320,192,105511,1,0,0:0:0:70:tom04.wav
192,192,105639,1,0,0:0:0:70:tom04.wav
64,192,105766,1,2,0:0:0:0:
320,192,105766,1,0,0:0:0:50:LR_CymbalQST.wav
448,192,105766,1,0,0:0:0:0:
192,192,106339,1,0,0:0:0:0:
320,192,106435,1,0,0:0:0:0:
64,192,106531,1,0,0:0:0:0:
192,192,106722,1,0,0:0:0:0:
448,192,106913,1,0,0:0:0:0:
64,192,107104,1,0,0:0:0:0:
320,192,107295,1,0,0:0:0:0:
448,192,107496,1,0,0:0:0:0:
320,192,107697,1,0,0:0:0:0:
192,192,107899,1,0,0:0:0:0:
64,192,108100,1,2,0:0:0:0:
320,192,108100,1,0,0:0:0:50:cymbal.wav
448,192,108100,1,0,0:0:0:0:
320,192,108301,1,0,0:0:0:70:tom02.wav
64,192,108503,1,0,0:0:0:50:LR_CymbalQST.wav
192,192,108503,1,2,0:0:0:0:
448,192,108503,1,0,0:0:0:0:
192,192,109543,1,0,0:0:0:0:
320,192,109756,1,0,0:0:0:0:
64,192,110181,1,0,0:0:0:0:
192,192,110394,1,0,0:0:0:0:
320,192,110607,1,0,0:0:0:0:
64,192,110834,1,0,0:0:0:0:
448,192,111061,1,0,0:0:0:0:
192,192,111288,1,0,0:0:0:0:
64,192,111516,1,2,0:0:0:0:
320,192,111516,1,0,0:0:0:50:cymbal.wav
448,192,111516,1,0,0:0:0:0:
192,192,111743,1,0,0:0:0:70:tom04.wav
448,192,111857,1,0,0:0:0:70:tom04.wav
64,192,111970,1,2,0:0:0:0:
192,192,111970,1,0,0:0:0:50:LR_CymbalQST.wav
320,192,111970,1,0,0:0:0:0:
