osu file format v14

[General]
AudioFilename: audio.mp3
AudioLeadIn: 0
PreviewTime: 77868
Countdown: 0
SampleSet: Soft
StackLeniency: 0.2
Mode: 3
LetterboxInBreaks: 0
SpecialStyle: 0
WidescreenStoryboard: 0

[Editor]
DistanceSpacing: 1.1
BeatDivisor: 4
GridSize: 8
TimelineZoom: 1.3

[Metadata]
Title:AsiaN distractive
TitleUnicode:AsiaN distractive
Artist:Nekomata Gekidan
ArtistUnicode:猫叉劇団
Creator:Tofu1222
Version:Spy's Normal
Source:beatmania IIDX 24 SINOBUZ
Tags:BEMANI KONAMI Spy -mint- qqqant FAMoss レコード Master Record World Video Game Instrumental
BeatmapID:2136909
BeatmapSetID:1013400

[Difficulty]
HPDrainRate:7
CircleSize:4
OverallDifficulty:7
ApproachRate:9.2
SliderMultiplier:1.6
SliderTickRate:1

[Events]
//Background and Video events
0,0,"bg.jpg",0,0
//Break Periods
//Storyboard Layer 0 (Background)
//Storyboard Layer 1 (Fail)
//Storyboard Layer 2 (Pass)
//Storyboard Layer 3 (Foreground)
//Storyboard Layer 4 (Overlay)
//Storyboard Sound Samples
Sample,23983,0,"ride02.wav",100
Sample,24747,0,"ride02.wav",100
Sample,25129,0,"ride02.wav",100
Sample,27422,0,"ride01.wav",100
Sample,28951,0,"ride02.wav",100
Sample,30480,0,"ride01.wav",100
Sample,33537,0,"ride01.wav",100
Sample,35066,0,"ride02.wav",100
Sample,36594,0,"ride01.wav",100
Sample,39843,0,"ride01.wav",100
Sample,41180,0,"clap.wav",50
Sample,43473,0,"clap.wav",50
Sample,44238,0,"clap.wav",50
Sample,45002,0,"clap.wav",50
Sample,45766,0,"clap.wav",50
Sample,47295,0,"clap.wav",50
Sample,48059,0,"clap.wav",50
Sample,48824,0,"clap.wav",50
Sample,50352,0,"clap.wav",50
Sample,51117,0,"clap.wav",50
Sample,53410,0,"clap.wav",50
Sample,55703,0,"clap.wav",50
Sample,56467,0,"clap.wav",50
Sample,57231,0,"clap.wav",50
Sample,57996,0,"clap.wav",50
Sample,59524,0,"clap.wav",50
Sample,60288,0,"clap.wav",50
Sample,61053,0,"clap.wav",50
Sample,62581,0,"clap.wav",50
Sample,73664,0,"ride02.wav",100
Sample,75193,0,"ride02.wav",100

[TimingPoints]
289,382.165605095541,4,2,1,70,1,0
78250,-100,4,2,1,70,0,1
107295,402.684563758389,4,2,1,70,1,0
107295,-95.2380952380952,4,2,1,70,0,0
108905,425.531914893617,4,2,1,70,1,0
108905,-90.0900900900901,4,2,1,70,0,0
110607,454.545454545455,4,2,1,70,1,0
110607,-84.0336134453781,4,2,1,70,0,0
111970,394.736842105263,4,2,1,70,1,0
111970,-97.0873786407767,4,2,1,70,0,0

[HitObjects]
64,192,1626,5,0,0:0:0:70:tom04.wav
192,192,1722,1,0,0:0:0:70:tom04.wav
448,192,1817,1,4,0:0:0:0:
320,192,1817,1,2,0:0:0:0:
320,192,2390,1,0,0:0:0:0:
448,192,2486,1,0,0:0:0:0:
192,192,2581,1,0,0:0:0:0:
448,192,3155,1,0,0:0:0:0:
320,192,3250,1,0,0:0:0:0:
64,192,3346,1,0,0:0:0:0:
192,192,3919,1,0,0:0:0:0:
64,192,4015,1,0,0:0:0:0:
320,192,4110,1,0,0:0:0:70:tom03.wav
192,192,4492,1,0,0:0:0:70:tom04.wav
64,192,4874,1,2,0:0:0:0:
448,192,4874,1,0,0:0:0:50:LR_CymbalQST.wav
320,192,5448,1,0,0:0:0:0:
192,192,5543,1,0,0:0:0:0:
64,192,5639,1,0,0:0:0:0:
320,192,5830,1,0,0:0:0:0:
192,192,6021,1,0,0:0:0:0:
448,192,6212,1,0,0:0:0:0:
320,192,6403,1,0,0:0:0:0:
448,192,6594,1,0,0:0:0:0:
320,192,6785,1,0,0:0:0:0:
192,192,6976,1,0,0:0:0:0:
64,192,7167,1,2,0:0:0:0:
448,192,7167,1,0,0:0:0:50:cymbal.wav
64,192,7550,1,2,0:0:0:0:
320,192,7550,1,0,0:0:0:50:LR_CymbalQST.wav
64,192,8505,1,0,0:0:0:0:
320,192,8696,1,0,0:0:0:0:
448,192,9078,1,0,0:0:0:0:
64,192,9269,1,0,0:0:0:0:
320,192,9460,1,0,0:0:0:0:
192,192,9652,1,0,0:0:0:0:
320,192,9843,1,0,0:0:0:0:
64,192,10034,1,0,0:0:0:0:
192,192,10225,1,2,0:0:0:0:
448,192,10225,1,0,0:0:0:50:cymbal.wav
320,192,10416,1,0,0:0:0:70:tom03.wav
448,192,10511,1,0,0:0:0:70:tom04.wav
64,192,10607,1,2,0:0:0:0:
320,192,10607,1,0,0:0:0:50:LR_CymbalQST.wav
320,192,11945,1,0,0:0:0:0:
192,192,12136,1,0,0:0:0:0:
64,192,12327,1,0,0:0:0:0:
192,192,12518,1,0,0:0:0:0:
64,192,12709,1,0,0:0:0:0:
320,192,12900,1,0,0:0:0:0:
448,192,13091,1,0,0:0:0:0:
64,192,13282,1,2,0:0:0:0:
320,192,13282,1,0,0:0:0:50:cymbal.wav
192,192,13664,1,2,0:0:0:0:
320,192,13664,1,0,0:0:0:50:LR_CymbalQST.wav
64,192,14046,1,2,0:0:0:0:
448,192,14046,128,4,14429:0:0:0:0:
192,192,14620,1,2,0:0:0:0:
448,192,14715,1,2,0:0:0:0:
64,192,14811,1,2,0:0:0:0:
448,192,15384,1,2,0:0:0:0:
320,192,15480,1,2,0:0:0:0:
64,192,15575,1,2,0:0:0:0:
192,192,15575,1,0,0:0:0:50:LR_CymbalQST.wav
448,192,16148,1,2,0:0:0:0:
320,192,16244,1,2,0:0:0:0:
64,192,16339,1,2,0:0:0:0:
192,192,16722,1,2,0:0:0:0:
448,192,16722,1,0,0:0:0:50:cymbal.wav
448,192,17677,1,2,0:0:0:0:
320,192,17773,1,2,0:0:0:0:
64,192,17868,1,2,0:0:0:0:
192,192,18059,1,2,0:0:0:0:
448,192,18250,1,2,0:0:0:0:
320,192,18441,1,2,0:0:0:0:
64,192,18632,1,2,0:0:0:0:
320,192,18824,1,2,0:0:0:0:
192,192,19015,1,2,0:0:0:0:
320,192,19206,1,2,0:0:0:0:
64,192,19397,1,2,0:0:0:0:
448,192,19397,1,0,0:0:0:50:cymbal.wav
192,192,19779,1,2,0:0:0:0:
448,192,19779,1,0,0:0:0:50:cymbal.wav
192,192,20734,1,2,0:0:0:0:
64,192,20830,1,2,0:0:0:0:
320,192,20925,1,2,0:0:0:0:
320,192,21499,1,2,0:0:0:0:
448,192,21594,1,2,0:0:0:0:
192,192,21690,1,2,0:0:0:0:
320,192,22263,1,2,0:0:0:0:
64,192,22359,1,2,0:0:0:0:
192,192,22454,1,2,0:0:0:0:
448,192,22454,1,0,0:0:0:50:cymbal.wav
64,192,22836,1,2,0:0:0:0:
320,192,22836,1,0,0:0:0:50:LR_CymbalQST.wav
320,192,23792,1,2,0:0:0:0:
192,192,23887,1,2,0:0:0:0:
64,192,23983,1,2,0:0:0:0:
448,192,24556,1,2,0:0:0:0:
64,192,24747,1,2,0:0:0:0:
192,192,24938,1,2,0:0:0:0:
320,192,25129,1,2,0:0:0:0:
192,192,25320,1,2,0:0:0:0:
64,192,25511,1,8,0:0:0:0:
448,192,25511,1,0,0:0:0:50:LR_CymbalQST.wav
192,192,25894,1,8,0:0:0:0:
448,192,25894,1,0,0:0:0:50:LR_CymbalQST.wav
64,192,26276,1,2,0:0:0:0:
320,192,26276,1,4,0:0:0:0:
320,192,26562,1,0,0:0:0:0:
192,192,26849,1,0,0:0:0:0:
192,192,27136,1,0,0:0:0:0:
64,192,27422,1,2,0:0:0:0:
320,192,27613,1,0,0:0:0:0:
448,192,27804,1,2,0:0:0:0:
448,192,28091,1,0,0:0:0:0:
192,192,28378,1,0,0:0:0:0:
192,192,28664,1,2,0:0:0:0:
448,192,28951,1,2,0:0:0:0:
64,192,29142,1,2,0:0:0:0:
320,192,29333,1,2,0:0:0:0:
320,192,29620,1,0,0:0:0:0:
64,192,29906,1,0,0:0:0:0:
64,192,30193,1,0,0:0:0:0:
192,192,30480,1,2,0:0:0:0:
320,192,30671,1,0,0:0:0:0:
448,192,30862,1,2,0:0:0:0:
64,192,31148,1,2,0:0:0:0:
192,192,31435,1,8,0:0:0:0:
448,192,31435,1,0,0:0:0:50:LR_CymbalQST.wav
320,192,31722,1,2,0:0:0:0:
64,192,32008,1,8,0:0:0:0:
448,192,32008,1,0,0:0:0:50:LR_CymbalQST.wav
192,192,32199,1,2,0:0:0:0:
64,192,32390,1,2,0:0:0:0:
448,192,32390,1,0,0:0:0:50:cymbal.wav
448,192,32677,1,0,0:0:0:0:
192,192,32964,1,0,0:0:0:0:
192,192,33250,1,0,0:0:0:0:
64,192,33537,1,2,0:0:0:0:
320,192,33728,1,0,0:0:0:0:
448,192,33919,1,2,0:0:0:0:
448,192,34206,1,0,0:0:0:0:
64,192,34492,1,0,0:0:0:0:
64,192,34779,1,2,0:0:0:0:
192,192,35066,1,2,0:0:0:0:
448,192,35257,1,2,0:0:0:0:
320,192,35448,1,2,0:0:0:0:
320,192,35639,1,2,0:0:0:0:
64,192,35830,1,2,0:0:0:0:
64,192,36021,1,2,0:0:0:0:
448,192,36212,1,2,0:0:0:0:
448,192,36403,1,2,0:0:0:0:
192,192,36594,1,2,0:0:0:0:
192,192,36785,1,2,0:0:0:0:
448,192,36976,1,2,0:0:0:0:
320,192,37167,1,2,0:0:0:0:
192,192,37359,1,0,0:0:0:0:
64,192,37550,1,8,0:0:0:0:
448,192,37550,1,0,0:0:0:50:LR_CymbalQST.wav
192,192,38123,1,0,0:0:0:100:ride02.wav
448,192,38505,1,0,0:0:0:100:ride01.wav
320,192,38632,1,0,0:0:0:0:
192,192,38760,1,0,0:0:0:0:
64,192,38887,1,0,0:0:0:100:ride02.wav
64,192,39269,1,0,0:0:0:100:ride02.wav
192,192,39397,1,0,0:0:0:0:
320,192,39524,1,0,0:0:0:0:
448,192,39652,1,8,0:0:0:0:
64,192,39652,1,0,0:0:0:100:ride02.wav
192,192,39843,1,2,0:0:0:0:
448,192,40034,1,4,0:0:0:0:
64,192,40034,1,2,0:0:0:0:
320,192,40225,128,0,40607:0:0:0:0:
64,192,40607,1,0,0:0:0:0:
192,192,40798,128,2,41180:0:0:0:0:
64,192,41180,1,2,0:0:0:0:
320,192,41371,1,0,0:0:0:0:
448,192,41562,128,2,42136:0:0:0:0:
64,192,42136,1,0,0:0:0:0:
192,192,42327,128,2,43091:0:0:0:0:
64,192,43282,1,0,0:0:0:0:
320,192,43473,1,2,0:0:0:0:
448,192,43664,1,0,0:0:0:0:
192,192,43855,128,2,44238:0:0:0:0:
448,192,44238,1,2,0:0:0:0:
320,192,44429,1,0,0:0:0:0:
64,192,44620,1,2,0:0:0:0:
192,192,44811,1,0,0:0:0:0:
320,192,45002,1,2,0:0:0:0:
192,192,45193,1,0,0:0:0:0:
448,192,45384,128,2,45766:0:0:0:0:
64,192,45766,1,2,0:0:0:0:
192,192,45957,1,8,0:0:0:0:
64,192,46148,1,2,0:0:0:0:
448,192,46148,1,4,0:0:0:0:
320,192,46339,128,0,46722:0:0:0:0:
64,192,46722,1,0,0:0:0:0:
192,192,46913,128,2,47295:0:0:0:0:
64,192,47295,1,2,0:0:0:0:
320,192,47486,1,0,0:0:0:0:
64,192,47677,1,2,0:0:0:0:
448,192,47868,1,0,0:0:0:0:
192,192,48059,1,2,0:0:0:0:
320,192,48250,1,0,0:0:0:0:
64,192,48441,128,2,48824:0:0:0:0:
448,192,48824,1,2,0:0:0:0:
320,192,49015,1,0,0:0:0:0:
64,192,49206,1,2,0:0:0:0:
192,192,49397,128,0,49779:0:0:0:0:
448,192,49779,1,0,0:0:0:0:
320,192,49970,128,2,50352:0:0:0:0:
64,192,50352,1,2,0:0:0:0:
192,192,50543,1,0,0:0:0:0:
448,192,50734,1,2,0:0:0:0:
192,192,50925,1,8,0:0:0:0:
320,192,51117,1,2,0:0:0:0:
192,192,51308,1,8,0:0:0:0:
64,192,51499,1,2,0:0:0:0:
448,192,51499,1,0,0:0:0:50:cymbal.wav
320,192,51690,1,2,0:0:0:0:
64,192,51881,1,8,0:0:0:0:
448,192,51881,1,0,0:0:0:50:LR_CymbalQST.wav
192,192,52072,1,8,0:0:0:0:
320,192,52263,1,2,0:0:0:0:
448,192,52263,1,4,0:0:0:0:
64,192,52454,128,0,52836:0:0:0:0:
448,192,52836,1,0,0:0:0:0:
320,192,53027,128,2,53410:0:0:0:0:
64,192,53410,1,2,0:0:0:0:
192,192,53601,1,0,0:0:0:0:
448,192,53792,128,2,54365:0:0:0:0:
64,192,54365,1,0,0:0:0:0:
320,192,54556,128,2,55320:0:0:0:0:
64,192,55511,1,0,0:0:0:0:
320,192,55703,1,2,0:0:0:0:
448,192,55894,1,0,0:0:0:0:
192,192,56085,128,2,56467:0:0:0:0:
448,192,56467,1,2,0:0:0:0:
320,192,56658,1,0,0:0:0:0:
64,192,56849,1,2,0:0:0:0:
192,192,57040,1,0,0:0:0:0:
320,192,57231,1,2,0:0:0:0:
192,192,57422,1,0,0:0:0:0:
448,192,57613,128,2,57996:0:0:0:0:
64,192,57996,1,2,0:0:0:0:
192,192,58187,1,8,0:0:0:0:
64,192,58378,1,2,0:0:0:0:
448,192,58378,1,4,0:0:0:0:
320,192,58569,128,0,58951:0:0:0:0:
64,192,58951,1,0,0:0:0:0:
192,192,59142,128,2,59524:0:0:0:0:
64,192,59524,1,2,0:0:0:0:
320,192,59715,1,0,0:0:0:0:
64,192,59906,1,2,0:0:0:0:
448,192,60097,1,0,0:0:0:0:
192,192,60288,1,2,0:0:0:0:
320,192,60480,1,0,0:0:0:0:
64,192,60671,128,2,61053:0:0:0:0:
448,192,61053,1,2,0:0:0:0:
320,192,61244,1,0,0:0:0:0:
64,192,61435,1,2,0:0:0:0:
192,192,61626,128,0,62008:0:0:0:0:
448,192,62008,1,0,0:0:0:0:
320,192,62199,128,2,62581:0:0:0:0:
64,192,62581,1,2,0:0:0:0:
192,192,62773,1,0,0:0:0:0:
64,192,62964,1,8,0:0:0:0:
448,192,62964,1,0,0:0:0:0:
320,192,63155,1,2,0:0:0:0:
64,192,63346,1,8,0:0:0:0:
448,192,63346,1,0,0:0:0:50:clap.wav
192,192,63537,1,2,0:0:0:0:
64,192,63728,1,2,0:0:0:0:
320,192,63728,1,0,0:0:0:50:cymbal.wav
192,192,63919,1,2,0:0:0:0:
448,192,63919,1,0,0:0:0:0:
64,192,64110,1,8,0:0:0:0:
320,192,64110,1,0,0:0:0:50:LR_CymbalQST.wav
448,192,64301,1,8,0:0:0:0:
64,192,64492,1,2,0:0:0:0:
320,192,64492,1,4,0:0:0:0:
192,192,65257,1,0,0:0:0:0:
320,192,65448,1,0,0:0:0:0:
448,192,65639,1,0,0:0:0:0:
320,192,65830,1,0,0:0:0:0:
192,192,66021,1,2,0:0:0:0:
64,192,66021,1,4,0:0:0:0:
448,192,66212,1,0,0:0:0:0:
320,192,66403,1,0,0:0:0:0:
64,192,66594,1,0,0:0:0:0:
192,192,66785,128,0,67167:0:0:0:0:
320,192,67167,1,0,0:0:0:0:
448,192,67359,128,0,67550:0:0:0:0:
64,192,67550,1,2,0:0:0:0:
320,192,67550,1,4,0:0:0:0:
192,192,68123,1,0,0:0:0:0:
320,192,68314,1,0,0:0:0:0:
448,192,68505,1,0,0:0:0:0:
320,192,68696,1,0,0:0:0:0:
192,192,68887,128,0,69078:0:0:0:0:
448,192,69078,1,2,0:0:0:0:
64,192,69078,1,4,0:0:0:0:
320,192,69269,1,0,0:0:0:0:
448,192,69460,1,0,0:0:0:0:
192,192,69652,1,0,0:0:0:0:
64,192,69843,128,2,70225:0:0:0:0:
448,192,70225,1,8,0:0:0:0:
320,192,70416,1,2,0:0:0:0:
64,192,70607,1,4,0:0:0:0:
192,192,70607,128,2,70989:0:0:0:0:
448,192,70607,1,0,0:0:0:0:
320,192,71180,1,2,0:0:0:0:
192,192,71371,1,2,0:0:0:0:
64,192,71562,1,2,0:0:0:0:
192,192,71753,1,8,0:0:0:0:
320,192,71945,1,2,0:0:0:0:
448,192,72136,1,2,0:0:0:0:
320,192,72327,1,0,0:0:0:0:
192,192,72518,1,2,0:0:0:0:
64,192,72709,1,2,0:0:0:0:
192,192,72900,128,2,73282:0:0:0:0:
448,192,73282,1,8,0:0:0:0:
320,192,73473,1,2,0:0:0:0:
64,192,73664,128,2,74238:0:0:0:0:
192,192,74238,1,2,0:0:0:0:
448,192,74429,128,2,75002:0:0:0:0:
192,192,75193,128,2,76722:0:0:0:0:
320,192,77868,1,8,0:0:0:0:
448,192,78059,1,2,0:0:0:0:
64,192,78250,1,2,0:0:0:0:
320,192,78250,1,4,0:0:0:0:
192,192,78441,1,0,0:0:0:0:
448,192,78632,1,8,0:0:0:0:
320,192,78824,1,0,0:0:0:0:
192,192,79015,1,2,0:0:0:0:
320,192,79397,1,8,0:0:0:0:
448,192,79588,1,0,0:0:0:0:
320,192,79779,1,2,0:0:0:0:
192,192,79970,1,0,0:0:0:0:
448,192,80161,1,8,0:0:0:0:
320,192,80352,1,0,0:0:0:0:
192,192,80543,1,2,0:0:0:0:
320,192,80925,1,8,0:0:0:0:
448,192,81117,1,0,0:0:0:0:
320,192,81308,1,2,0:0:0:0:
192,192,81499,1,0,0:0:0:0:
448,192,81690,1,8,0:0:0:0:
320,192,81881,1,0,0:0:0:0:
192,192,82072,1,2,0:0:0:0:
64,192,82454,1,8,0:0:0:0:
320,192,82645,1,0,0:0:0:0:
192,192,82836,1,2,0:0:0:0:
320,192,83027,1,8,0:0:0:0:
448,192,83123,1,0,0:0:0:0:
192,192,83218,1,2,0:0:0:0:
64,192,83410,1,8,0:0:0:0:
320,192,83601,128,2,83983:0:0:0:0:
192,192,83983,1,8,0:0:0:0:
64,192,84174,1,8,0:0:0:0:
192,192,84365,1,4,0:0:0:0:
448,192,84365,1,2,0:0:0:0:
320,192,84556,1,0,0:0:0:0:
64,192,84747,1,8,0:0:0:0:
192,192,84938,1,0,0:0:0:0:
320,192,85129,1,2,0:0:0:0:
192,192,85511,1,8,0:0:0:0:
64,192,85703,1,0,0:0:0:0:
192,192,85894,1,2,0:0:0:0:
320,192,86085,1,0,0:0:0:0:
64,192,86276,1,8,0:0:0:0:
192,192,86467,1,0,0:0:0:0:
320,192,86658,1,2,0:0:0:0:
448,192,87040,128,8,87422:0:0:0:0:
192,192,87613,1,0,0:0:0:0:
448,192,87804,1,8,0:0:0:0:
320,192,87996,1,0,0:0:0:0:
64,192,88187,1,2,0:0:0:0:
320,192,88378,1,0,0:0:0:0:
192,192,88569,1,8,0:0:0:0:
64,192,88760,1,0,0:0:0:0:
320,192,88951,1,2,0:0:0:0:
320,192,89142,1,2,0:0:0:0:
192,192,89333,1,8,0:0:0:0:
448,192,89524,1,2,0:0:0:0:
448,192,89715,1,2,0:0:0:0:
64,192,89906,1,8,0:0:0:0:
320,192,90097,1,2,0:0:0:0:
448,192,90288,1,2,0:0:0:0:
64,192,90480,1,2,0:0:0:0:
320,192,90480,1,4,0:0:0:0:
192,192,90671,1,0,0:0:0:0:
448,192,90862,1,8,0:0:0:0:
320,192,91053,1,0,0:0:0:0:
192,192,91244,1,2,0:0:0:0:
320,192,91626,1,8,0:0:0:0:
448,192,91817,1,0,0:0:0:0:
320,192,92008,1,2,0:0:0:0:
192,192,92199,1,0,0:0:0:0:
448,192,92390,1,8,0:0:0:0:
320,192,92581,1,0,0:0:0:0:
192,192,92773,1,2,0:0:0:0:
320,192,93155,1,8,0:0:0:0:
448,192,93346,1,0,0:0:0:0:
320,192,93537,1,2,0:0:0:0:
64,192,93728,1,0,0:0:0:0:
320,192,93919,1,8,0:0:0:0:
192,192,94110,1,0,0:0:0:0:
64,192,94301,1,2,0:0:0:0:
320,192,94492,1,0,0:0:0:0:
192,192,94683,1,8,0:0:0:0:
320,192,94874,1,0,0:0:0:0:
448,192,95066,1,2,0:0:0:0:
192,192,95257,1,8,0:0:0:0:
64,192,95352,1,0,0:0:0:0:
320,192,95448,1,2,0:0:0:0:
192,192,95639,1,8,0:0:0:0:
64,192,95830,128,2,96212:0:0:0:0:
320,192,96212,1,8,0:0:0:0:
448,192,96403,1,8,0:0:0:0:
64,192,96594,1,4,0:0:0:0:
320,192,96594,1,2,0:0:0:0:
192,192,96785,1,0,0:0:0:0:
448,192,96976,1,8,0:0:0:0:
320,192,97167,1,0,0:0:0:0:
192,192,97359,1,2,0:0:0:0:
320,192,97741,1,8,0:0:0:0:
448,192,97932,1,0,0:0:0:0:
320,192,98123,1,2,0:0:0:0:
192,192,98314,1,0,0:0:0:0:
448,192,98505,1,8,0:0:0:0:
320,192,98696,1,0,0:0:0:0:
192,192,98887,1,2,0:0:0:0:
64,192,99269,1,8,0:0:0:0:
192,192,99843,1,0,0:0:0:0:
448,192,100034,1,8,0:0:0:0:
320,192,100225,1,0,0:0:0:0:
64,192,100416,1,2,0:0:0:0:
192,192,100607,1,0,0:0:0:0:
320,192,100798,1,8,0:0:0:0:
192,192,100989,1,0,0:0:0:0:
448,192,101180,128,2,101945:0:0:0:0:
192,192,101945,128,2,102327:0:0:0:0:
320,192,102327,1,8,0:0:0:0:
448,192,102518,1,2,0:0:0:0:
64,192,102709,1,2,0:0:0:0:
320,192,102709,1,4,0:0:0:0:
448,192,103282,1,0,0:0:0:0:
192,192,103473,1,0,0:0:0:0:
320,192,104046,1,0,0:0:0:0:
64,192,104238,1,0,0:0:0:0:
192,192,104620,1,0,0:0:0:70:tom01.wav
448,192,104811,1,0,0:0:0:0:
320,192,105002,128,0,105384:0:0:0:70:tom03.wav
192,192,105384,128,0,105766:0:0:0:70:tom04.wav
64,192,105766,1,2,0:0:0:0:
448,192,105766,1,0,0:0:0:50:LR_CymbalQST.wav
64,192,106339,1,0,0:0:0:0:
320,192,106531,1,0,0:0:0:0:
192,192,106722,1,0,0:0:0:0:
320,192,106913,1,0,0:0:0:0:
448,192,107104,1,0,0:0:0:0:
320,192,107295,1,0,0:0:0:0:
64,192,107496,1,0,0:0:0:0:
192,192,107697,1,0,0:0:0:0:
448,192,107899,1,0,0:0:0:0:
64,192,108100,1,2,0:0:0:0:
320,192,108100,1,0,0:0:0:50:cymbal.wav
64,192,108503,1,2,0:0:0:0:
320,192,108503,1,0,0:0:0:50:LR_CymbalQST.wav
448,192,109543,1,0,0:0:0:0:
64,192,109756,1,0,0:0:0:0:
192,192,110181,1,0,0:0:0:0:
448,192,110394,1,0,0:0:0:0:
320,192,110607,1,0,0:0:0:0:
64,192,110834,1,0,0:0:0:0:
192,192,111061,1,0,0:0:0:0:
320,192,111288,1,0,0:0:0:0:
448,192,111516,1,0,0:0:0:50:cymbal.wav
192,192,111516,1,2,0:0:0:0:
320,192,111743,1,0,0:0:0:70:tom04.wav
64,192,111970,1,2,0:0:0:0:
448,192,111970,128,0,119864:0:0:0:50:LR_CymbalQST.wav
