osu file format v14

[General]
AudioFilename: nekomata.mp3
AudioLeadIn: 0
PreviewTime: 77808
Countdown: 0
SampleSet: Normal
StackLeniency: 0.7
Mode: 1
LetterboxInBreaks: 0
WidescreenStoryboard: 0

[Editor]
DistanceSpacing: 1.1
BeatDivisor: 4
GridSize: 32
TimelineZoom: 3.199998

[Metadata]
Title:AsiaN distractive
TitleUnicode:AsiaN distractive
Artist:Nekomata Gekidan
ArtistUnicode:猫叉劇団
Creator:TKS
Version:Oni
Source:beatmania IIDX 24 SINOBUZ
Tags:猫叉master 劇団レコード 佐藤直之 広野智章 naoyuki sato tomoaki hirono master record konami bemani 忍BUZZ
BeatmapID:1422144
BeatmapSetID:672802

[Difficulty]
HPDrainRate:6
CircleSize:2
OverallDifficulty:6
ApproachRate:5
SliderMultiplier:1.4
SliderTickRate:1

[Events]
//Background and Video events
0,0,"bg.png",0,0
//Break Periods
//Storyboard Layer 0 (Background)
//Storyboard Layer 1 (Fail)
//Storyboard Layer 2 (Pass)
//Storyboard Layer 3 (Foreground)
//Storyboard Sound Samples

[TimingPoints]
292,382.165605095541,4,1,0,80,1,8
1821,382.165605095541,4,1,0,80,1,0
38031,-111.111111111111,4,1,0,60,0,0
39559,-111.111111111111,4,1,0,80,0,0
40037,-100,4,1,0,80,0,0
65164,-125,4,1,0,60,0,0
70515,-100,4,1,0,80,0,0
76749,-111.111111111111,4,3,0,5,0,0
77776,-111.111111111111,4,1,0,60,0,0
78254,382.165605095541,4,1,0,80,1,1
87425,-100,4,1,0,80,0,0
90483,-100,4,1,0,80,0,1
102712,-100,4,1,0,80,0,0
107075,-103.092783505155,4,1,0,80,0,0
107298,402.684563758389,4,1,0,80,1,0
108908,425.531914893617,4,1,0,80,1,0
110361,-103.092783505155,4,1,0,80,0,0
110610,454.545454545455,4,1,0,80,1,0

[HitObjects]
256,192,1056,5,8,0:0:0:0:
256,192,1151,1,8,0:0:0:0:
256,192,1247,1,0,0:0:0:0:
256,192,1342,1,0,0:0:0:0:
256,192,1438,1,8,0:0:0:0:
256,192,1629,1,0,0:0:0:0:
256,192,1820,1,4,0:0:0:0:
256,192,2394,1,0,0:0:0:0:
256,192,2489,1,0,0:0:0:0:
256,192,2585,1,0,0:0:0:0:
256,192,3158,1,0,0:0:0:0:
256,192,3254,1,0,0:0:0:0:
256,192,3349,1,8,0:0:0:0:
256,192,3731,1,8,0:0:0:0:
256,192,3859,1,8,0:0:0:0:
256,192,3986,1,8,0:0:0:0:
256,192,4113,1,0,0:0:0:0:
256,192,4241,1,0,0:0:0:0:
256,192,4368,1,0,0:0:0:0:
256,192,4496,1,8,0:0:0:0:
256,192,4878,1,4,0:0:0:0:
256,192,5451,1,8,0:0:0:0:
256,192,5547,1,0,0:0:0:0:
256,192,5642,1,8,0:0:0:0:
256,192,5833,1,8,0:0:0:0:
256,192,6024,1,0,0:0:0:0:
256,192,6215,1,0,0:0:0:0:
256,192,6406,1,8,0:0:0:0:
256,192,6598,1,0,0:0:0:0:
256,192,6789,1,8,0:0:0:0:
256,192,6980,1,8,0:0:0:0:
256,192,7171,1,4,0:0:0:0:
256,192,7553,1,12,0:0:0:0:
256,192,8508,1,0,0:0:0:0:
256,192,8699,1,8,0:0:0:0:
256,192,9082,1,8,0:0:0:0:
256,192,9273,1,8,0:0:0:0:
256,192,9464,1,0,0:0:0:0:
256,192,9655,1,0,0:0:0:0:
256,192,9846,1,8,0:0:0:0:
256,192,10037,1,8,0:0:0:0:
256,192,10228,1,4,0:0:0:0:
256,192,10610,1,12,0:0:0:0:
256,192,11948,1,0,0:0:0:0:
256,192,12139,1,8,0:0:0:0:
256,192,12330,1,8,0:0:0:0:
256,192,12521,1,0,0:0:0:0:
256,192,12712,1,8,0:0:0:0:
256,192,12903,1,0,0:0:0:0:
256,192,13094,1,0,0:0:0:0:
256,192,13285,1,12,0:0:0:0:
256,192,13668,1,12,0:0:0:0:
256,192,14050,1,4,0:0:0:0:
256,192,14432,1,8,0:0:0:0:
256,192,14623,1,0,0:0:0:0:
256,192,14719,1,0,0:0:0:0:
256,192,14814,1,0,0:0:0:0:
256,192,15005,1,0,0:0:0:0:
256,192,15101,1,8,0:0:0:0:
256,192,15196,1,0,0:0:0:0:
256,192,15387,1,8,0:0:0:0:
256,192,15483,1,8,0:0:0:0:
256,192,15578,1,0,0:0:0:0:
256,192,15961,1,8,0:0:0:0:
256,192,16152,1,0,0:0:0:0:
256,192,16247,1,0,0:0:0:0:
256,192,16343,1,0,0:0:0:0:
256,192,16534,1,0,0:0:0:0:
256,192,16725,1,8,0:0:0:0:
256,192,17107,1,0,0:0:0:0:
256,192,17489,1,8,0:0:0:0:
256,192,17680,1,0,0:0:0:0:
256,192,17776,1,0,0:0:0:0:
256,192,17871,1,8,0:0:0:0:
256,192,18063,1,8,0:0:0:0:
256,192,18254,1,0,0:0:0:0:
256,192,18445,1,8,0:0:0:0:
256,192,18636,1,0,0:0:0:0:
256,192,18827,1,0,0:0:0:0:
256,192,18922,1,0,0:0:0:0:
256,192,19018,1,8,0:0:0:0:
256,192,19209,1,8,0:0:0:0:
256,192,19400,1,0,0:0:0:0:
256,192,19591,1,0,0:0:0:0:
256,192,19782,1,8,0:0:0:0:
256,192,20164,1,0,0:0:0:0:
256,192,20547,1,8,0:0:0:0:
256,192,20738,1,0,0:0:0:0:
256,192,20833,1,0,0:0:0:0:
256,192,20929,1,8,0:0:0:0:
256,192,21120,1,0,0:0:0:0:
256,192,21215,1,8,0:0:0:0:
256,192,21311,1,0,0:0:0:0:
256,192,21502,1,8,0:0:0:0:
256,192,21598,1,8,0:0:0:0:
256,192,21693,1,8,0:0:0:0:
256,192,21884,1,0,0:0:0:0:
256,192,22075,1,8,0:0:0:0:
256,192,22266,1,8,0:0:0:0:
256,192,22362,1,8,0:0:0:0:
256,192,22457,1,0,0:0:0:0:
256,192,22649,1,0,0:0:0:0:
256,192,22840,1,8,0:0:0:0:
256,192,23222,1,0,0:0:0:0:
256,192,23604,1,8,0:0:0:0:
256,192,23795,1,0,0:0:0:0:
256,192,23891,1,0,0:0:0:0:
256,192,23986,1,8,0:0:0:0:
256,192,24177,1,0,0:0:0:0:
256,192,24368,1,8,0:0:0:0:
256,192,24559,1,8,0:0:0:0:
256,192,24655,1,8,0:0:0:0:
256,192,24750,1,0,0:0:0:0:
256,192,24942,1,8,0:0:0:0:
256,192,25133,1,0,0:0:0:0:
256,192,25324,1,0,0:0:0:0:
256,192,25515,1,12,0:0:0:0:
256,192,25897,1,12,0:0:0:0:
256,192,26279,1,0,0:0:0:0:
256,192,26566,1,8,0:0:0:0:
256,192,26661,1,8,0:0:0:0:
256,192,26852,1,0,0:0:0:0:
256,192,27139,1,0,0:0:0:0:
256,192,27235,1,0,0:0:0:0:
256,192,27426,1,8,0:0:0:0:
224,192,27808,1,0,0:0:0:0:
224,192,28094,1,8,0:0:0:0:
224,192,28190,1,8,0:0:0:0:
256,192,28381,1,0,0:0:0:0:
256,192,28668,1,0,0:0:0:0:
256,192,28763,1,0,0:0:0:0:
256,192,28954,1,8,0:0:0:0:
256,192,29145,1,8,0:0:0:0:
256,192,29241,1,8,0:0:0:0:
256,192,29336,1,0,0:0:0:0:
256,192,29623,1,8,0:0:0:0:
256,192,29719,1,8,0:0:0:0:
256,192,29910,1,0,0:0:0:0:
256,192,30196,1,0,0:0:0:0:
256,192,30292,1,0,0:0:0:0:
256,192,30483,1,8,0:0:0:0:
256,192,30865,1,0,0:0:0:0:
256,192,30961,1,0,0:0:0:0:
256,192,31056,1,8,0:0:0:0:
256,192,31152,1,8,0:0:0:0:
256,192,31247,1,8,0:0:0:0:
256,192,31438,1,4,0:0:0:0:
256,192,31725,1,0,0:0:0:0:
256,192,32012,1,12,0:0:0:0:
256,192,32394,1,0,0:0:0:0:
256,192,32680,1,8,0:0:0:0:
256,192,32776,1,8,0:0:0:0:
256,192,32967,1,0,0:0:0:0:
256,192,33254,1,0,0:0:0:0:
256,192,33349,1,0,0:0:0:0:
256,192,33540,1,8,0:0:0:0:
256,192,33731,1,8,0:0:0:0:
256,192,33827,1,8,0:0:0:0:
224,192,33922,1,0,0:0:0:0:
224,192,34209,1,8,0:0:0:0:
224,192,34305,1,8,0:0:0:0:
256,192,34496,1,0,0:0:0:0:
256,192,34782,1,0,0:0:0:0:
256,192,34878,1,0,0:0:0:0:
256,192,35069,1,8,0:0:0:0:
256,192,35260,1,8,0:0:0:0:
256,192,35356,1,8,0:0:0:0:
256,192,35451,1,0,0:0:0:0:
256,192,35642,1,0,0:0:0:0:
256,192,35833,1,8,0:0:0:0:
256,192,36024,1,8,0:0:0:0:
256,192,36120,1,8,0:0:0:0:
256,192,36215,1,0,0:0:0:0:
256,192,36406,1,0,0:0:0:0:
256,192,36598,1,8,0:0:0:0:
256,192,36789,1,8,0:0:0:0:
256,192,36980,1,0,0:0:0:0:
256,192,37075,1,0,0:0:0:0:
256,192,37171,1,8,0:0:0:0:
256,192,37266,1,8,0:0:0:0:
256,192,37362,1,0,0:0:0:0:
256,192,37553,1,12,0:0:0:0:
256,192,38126,1,8,0:0:0:0:
256,192,38508,1,0,0:0:0:0:
256,192,38891,1,8,0:0:0:0:
256,192,39273,1,8,0:0:0:0:
256,192,39655,1,8,0:0:0:0:
256,192,39846,1,8,0:0:0:0:
256,192,40037,1,4,0:0:0:0:
256,192,40419,1,8,0:0:0:0:
256,192,40610,1,8,0:0:0:0:
256,192,40801,1,0,0:0:0:0:
256,192,40992,1,0,0:0:0:0:
256,192,41184,1,8,0:0:0:0:
256,192,41375,1,0,0:0:0:0:
256,192,41470,1,0,0:0:0:0:
256,192,41566,1,0,0:0:0:0:
256,192,41757,1,0,0:0:0:0:
256,192,41948,1,8,0:0:0:0:
256,192,42139,1,8,0:0:0:0:
256,192,42330,1,0,0:0:0:0:
256,192,42521,1,0,0:0:0:0:
256,192,42712,1,8,0:0:0:0:
256,192,43094,1,0,0:0:0:0:
256,192,43285,1,8,0:0:0:0:
256,192,43381,1,8,0:0:0:0:
256,192,43477,1,0,0:0:0:0:
256,192,43668,1,8,0:0:0:0:
256,192,43859,1,0,0:0:0:0:
256,192,44241,1,8,0:0:0:0:
256,192,44432,1,8,0:0:0:0:
256,192,44623,1,0,0:0:0:0:
256,192,44814,1,0,0:0:0:0:
256,192,44910,1,0,0:0:0:0:
256,192,45005,1,8,0:0:0:0:
256,192,45196,1,8,0:0:0:0:
256,192,45387,1,0,0:0:0:0:
256,192,45770,1,8,0:0:0:0:
256,192,45961,1,8,0:0:0:0:
256,192,46152,1,4,0:0:0:0:
256,192,46534,1,8,0:0:0:0:
256,192,46725,1,0,0:0:0:0:
256,192,46820,1,0,0:0:0:0:
256,192,46916,1,0,0:0:0:0:
256,192,47107,1,0,0:0:0:0:
256,192,47298,1,8,0:0:0:0:
256,192,47489,1,8,0:0:0:0:
256,192,47680,1,0,0:0:0:0:
256,192,47871,1,8,0:0:0:0:
256,192,48063,1,0,0:0:0:0:
256,192,48254,1,0,0:0:0:0:
256,192,48445,1,8,0:0:0:0:
256,192,48827,1,8,0:0:0:0:
256,192,49018,1,8,0:0:0:0:
256,192,49209,1,0,0:0:0:0:
256,192,49400,1,8,0:0:0:0:
256,192,49496,1,8,0:0:0:0:
256,192,49591,1,0,0:0:0:0:
256,192,49782,1,8,0:0:0:0:
256,192,49973,1,0,0:0:0:0:
256,192,50164,1,0,0:0:0:0:
256,192,50260,1,0,0:0:0:0:
256,192,50356,1,8,0:0:0:0:
256,192,50547,1,8,0:0:0:0:
256,192,50738,1,0,0:0:0:0:
256,192,50929,1,8,0:0:0:0:
256,192,51120,1,0,0:0:0:0:
256,192,51215,1,8,0:0:0:0:
256,192,51311,1,8,0:0:0:0:
256,192,51502,1,0,0:0:0:0:
256,192,51884,1,8,0:0:0:0:
256,192,52075,1,8,0:0:0:0:
256,192,52266,1,4,0:0:0:0:
256,192,52553,1,0,0:0:0:0:
256,192,52649,1,8,0:0:0:0:
256,192,52840,1,0,0:0:0:0:
256,192,52935,1,0,0:0:0:0:
256,192,53031,1,0,0:0:0:0:
256,192,53222,1,0,0:0:0:0:
256,192,53413,1,8,0:0:0:0:
256,192,53795,1,0,0:0:0:0:
256,192,53986,1,0,0:0:0:0:
256,192,54177,1,8,0:0:0:0:
256,192,54368,1,8,0:0:0:0:
256,192,54464,1,8,0:0:0:0:
256,192,54559,1,0,0:0:0:0:
256,192,54750,1,0,0:0:0:0:
256,192,54942,1,8,0:0:0:0:
256,192,55324,1,0,0:0:0:0:
256,192,55515,1,8,0:0:0:0:
256,192,55610,1,8,0:0:0:0:
256,192,55706,1,0,0:0:0:0:
256,192,55897,1,8,0:0:0:0:
256,192,56088,1,0,0:0:0:0:
256,192,56470,1,8,0:0:0:0:
256,192,56661,1,8,0:0:0:0:
256,192,56852,1,0,0:0:0:0:
256,192,57043,1,0,0:0:0:0:
256,192,57139,1,0,0:0:0:0:
256,192,57235,1,8,0:0:0:0:
256,192,57426,1,8,0:0:0:0:
256,192,57617,1,0,0:0:0:0:
256,192,57712,1,0,0:0:0:0:
256,192,57808,1,8,0:0:0:0:
256,192,57903,1,8,0:0:0:0:
256,192,57999,1,0,0:0:0:0:
256,192,58190,1,8,0:0:0:0:
256,192,58381,1,4,0:0:0:0:
256,192,58668,1,0,0:0:0:0:
256,192,58763,1,8,0:0:0:0:
256,192,58954,1,0,0:0:0:0:
256,192,59050,1,0,0:0:0:0:
256,192,59145,1,0,0:0:0:0:
256,192,59336,1,0,0:0:0:0:
256,192,59528,1,8,0:0:0:0:
256,192,59719,1,8,0:0:0:0:
256,192,59910,1,0,0:0:0:0:
256,192,60101,1,8,0:0:0:0:
256,192,60292,1,0,0:0:0:0:
256,192,60483,1,8,0:0:0:0:
256,192,60578,1,8,0:0:0:0:
256,192,60674,1,0,0:0:0:0:
256,192,60865,1,0,0:0:0:0:
256,192,61056,1,8,0:0:0:0:
256,192,61438,1,0,0:0:0:0:
256,192,61629,1,0,0:0:0:0:
256,192,61725,1,0,0:0:0:0:
256,192,61820,1,8,0:0:0:0:
256,192,62012,1,8,0:0:0:0:
256,192,62203,1,0,0:0:0:0:
256,192,62298,1,0,0:0:0:0:
256,192,62394,1,0,0:0:0:0:
256,192,62585,1,8,0:0:0:0:
256,192,62776,1,0,0:0:0:0:
256,192,62967,1,8,0:0:0:0:
256,192,63158,1,0,0:0:0:0:
256,192,63349,1,8,0:0:0:0:
256,192,63540,1,0,0:0:0:0:
256,192,63636,1,0,0:0:0:0:
256,192,63731,1,8,0:0:0:0:
256,192,63922,1,8,0:0:0:0:
256,192,64113,1,8,0:0:0:0:
256,192,64305,1,8,0:0:0:0:
256,192,64496,1,4,0:0:0:0:
256,192,65260,1,8,0:0:0:0:
256,192,65642,1,8,0:0:0:0:
256,192,66024,1,4,0:0:0:0:
256,192,66406,1,8,0:0:0:0:
256,192,66598,1,8,0:0:0:0:
256,192,66789,1,8,0:0:0:0:
256,192,67553,1,4,0:0:0:0:
256,192,68317,1,8,0:0:0:0:
256,192,68699,1,8,0:0:0:0:
256,160,68891,1,8,0:0:0:0:
256,192,69082,1,4,0:0:0:0:
256,192,69464,1,8,0:0:0:0:
256,192,69846,1,0,0:0:0:0:
256,192,70228,1,8,0:0:0:0:
256,192,70419,1,0,0:0:0:0:
256,192,70610,1,4,0:0:0:0:
256,192,70992,1,8,0:0:0:0:
256,192,71184,1,0,0:0:0:0:
256,192,71279,1,0,0:0:0:0:
256,192,71375,1,0,0:0:0:0:
256,192,71566,1,0,0:0:0:0:
256,192,71757,1,8,0:0:0:0:
256,192,72139,1,0,0:0:0:0:
256,192,72330,1,0,0:0:0:0:
256,192,72521,1,8,0:0:0:0:
256,192,72712,1,8,0:0:0:0:
256,192,72903,1,0,0:0:0:0:
256,192,73285,1,8,0:0:0:0:
256,192,73477,1,8,0:0:0:0:
256,192,73668,1,0,0:0:0:0:
256,192,73859,1,0,0:0:0:0:
256,192,73954,1,0,0:0:0:0:
256,192,74050,1,8,0:0:0:0:
256,192,74241,1,0,0:0:0:0:
256,192,74432,1,0,0:0:0:0:
256,192,74814,1,8,0:0:0:0:
256,192,75005,1,8,0:0:0:0:
256,192,75101,1,8,0:0:0:0:
256,192,75196,1,0,0:0:0:0:
256,192,75387,1,8,0:0:0:0:
256,192,75578,1,0,0:0:0:0:
256,192,75770,1,0,0:0:0:0:
256,192,75865,1,0,0:0:0:0:
256,192,75961,1,8,0:0:0:0:
256,192,76152,1,0,0:0:0:0:
256,192,76247,1,0,0:0:0:0:
256,192,76343,1,8,0:0:0:0:
256,192,76534,1,0,0:0:0:0:
256,192,77871,1,8,0:0:0:0:
256,192,78063,1,8,0:0:0:0:
256,192,78254,1,4,0:0:0:0:
256,192,78445,1,8,0:0:0:0:
256,192,78540,1,8,0:0:0:0:
256,192,78636,1,0,0:0:0:0:
256,192,78827,1,8,0:0:0:0:
256,192,79018,1,0,0:0:0:0:
256,192,79113,1,0,0:0:0:0:
256,192,79209,1,8,0:0:0:0:
256,192,79304,1,8,0:0:0:0:
256,192,79400,1,0,0:0:0:0:
256,192,79591,1,8,0:0:0:0:
256,192,79782,1,0,0:0:0:0:
256,192,79973,1,8,0:0:0:0:
256,192,80069,1,8,0:0:0:0:
256,192,80164,1,0,0:0:0:0:
256,192,80355,1,8,0:0:0:0:
256,192,80546,1,0,0:0:0:0:
256,192,80642,1,8,0:0:0:0:
256,192,80738,1,8,0:0:0:0:
256,192,80833,1,8,0:0:0:0:
256,192,80929,1,0,0:0:0:0:
256,192,81120,1,8,0:0:0:0:
256,192,81311,1,0,0:0:0:0:
256,192,81502,1,8,0:0:0:0:
256,192,81597,1,8,0:0:0:0:
256,192,81693,1,0,0:0:0:0:
256,192,81884,1,8,0:0:0:0:
256,192,82075,1,0,0:0:0:0:
256,192,82171,1,0,0:0:0:0:
256,192,82266,1,0,0:0:0:0:
256,192,82362,1,0,0:0:0:0:
256,192,82457,1,8,0:0:0:0:
256,192,82648,1,8,0:0:0:0:
256,192,82839,1,0,0:0:0:0:
256,192,83031,1,8,0:0:0:0:
256,192,83126,1,0,0:0:0:0:
256,192,83222,1,8,0:0:0:0:
256,192,83413,1,0,0:0:0:0:
256,192,83604,1,8,0:0:0:0:
256,192,83986,1,8,0:0:0:0:
256,192,84082,1,0,0:0:0:0:
256,192,84177,1,8,0:0:0:0:
256,192,84273,1,8,0:0:0:0:
256,192,84368,1,0,0:0:0:0:
256,192,84559,1,8,0:0:0:0:
256,192,84655,1,8,0:0:0:0:
256,192,84750,1,0,0:0:0:0:
256,192,84941,1,8,0:0:0:0:
256,192,85132,1,0,0:0:0:0:
256,192,85228,1,0,0:0:0:0:
256,192,85324,1,8,0:0:0:0:
256,192,85419,1,8,0:0:0:0:
256,192,85515,1,0,0:0:0:0:
256,192,85706,1,8,0:0:0:0:
256,192,85897,1,0,0:0:0:0:
256,192,86088,1,8,0:0:0:0:
256,192,86183,1,8,0:0:0:0:
256,192,86279,1,0,0:0:0:0:
256,192,86470,1,8,0:0:0:0:
256,192,86661,1,0,0:0:0:0:
256,192,86757,1,8,0:0:0:0:
256,192,86852,1,8,0:0:0:0:
256,192,86948,1,8,0:0:0:0:
256,192,87043,1,0,0:0:0:0:
256,192,87234,1,8,0:0:0:0:
256,192,87617,1,0,0:0:0:0:
256,192,87808,1,8,0:0:0:0:
256,192,87999,1,8,0:0:0:0:
256,192,88190,1,0,0:0:0:0:
256,192,88381,1,8,0:0:0:0:
256,192,88476,1,8,0:0:0:0:
256,192,88572,1,0,0:0:0:0:
256,192,88668,1,0,0:0:0:0:
256,192,88763,1,8,0:0:0:0:
256,192,88954,1,0,0:0:0:0:
256,192,89145,1,8,0:0:0:0:
256,192,89241,1,8,0:0:0:0:
256,192,89336,1,8,0:0:0:0:
256,192,89527,1,0,0:0:0:0:
256,192,89718,1,8,0:0:0:0:
256,192,89814,1,8,0:0:0:0:
256,192,89910,1,8,0:0:0:0:
256,192,90101,1,0,0:0:0:0:
256,192,90292,1,8,0:0:0:0:
256,192,90483,1,4,0:0:0:0:
256,192,90674,1,8,0:0:0:0:
256,192,90769,1,8,0:0:0:0:
256,192,90865,1,0,0:0:0:0:
256,192,91056,1,8,0:0:0:0:
256,192,91152,1,8,0:0:0:0:
256,192,91247,1,0,0:0:0:0:
256,192,91343,1,0,0:0:0:0:
256,192,91438,1,8,0:0:0:0:
256,192,91629,1,0,0:0:0:0:
256,192,91820,1,8,0:0:0:0:
256,192,92011,1,0,0:0:0:0:
256,192,92203,1,8,0:0:0:0:
256,192,92298,1,8,0:0:0:0:
256,192,92394,1,0,0:0:0:0:
256,192,92585,1,8,0:0:0:0:
256,192,92680,1,8,0:0:0:0:
256,192,92776,1,0,0:0:0:0:
256,192,92871,1,8,0:0:0:0:
256,192,92967,1,8,0:0:0:0:
256,192,93158,1,0,0:0:0:0:
256,192,93349,1,8,0:0:0:0:
256,192,93540,1,0,0:0:0:0:
256,192,93731,1,8,0:0:0:0:
256,192,93827,1,8,0:0:0:0:
256,192,93922,1,0,0:0:0:0:
256,192,94018,1,0,0:0:0:0:
256,192,94113,1,8,0:0:0:0:
256,192,94304,1,0,0:0:0:0:
256,192,94400,1,0,0:0:0:0:
256,192,94496,1,8,0:0:0:0:
256,192,94591,1,8,0:0:0:0:
256,192,94687,1,0,0:0:0:0:
256,192,94878,1,8,0:0:0:0:
256,192,95069,1,0,0:0:0:0:
256,192,95260,1,8,0:0:0:0:
256,192,95355,1,0,0:0:0:0:
256,192,95451,1,8,0:0:0:0:
256,192,95642,1,0,0:0:0:0:
256,192,95833,1,8,0:0:0:0:
256,192,96215,1,8,0:0:0:0:
256,192,96311,1,0,0:0:0:0:
256,192,96406,1,8,0:0:0:0:
256,192,96502,1,8,0:0:0:0:
256,192,96597,1,0,0:0:0:0:
256,192,96789,1,8,0:0:0:0:
256,192,96884,1,8,0:0:0:0:
256,192,96980,1,0,0:0:0:0:
256,192,97171,1,0,0:0:0:0:
256,192,97266,1,8,0:0:0:0:
256,192,97362,1,0,0:0:0:0:
256,192,97457,1,0,0:0:0:0:
256,192,97553,1,8,0:0:0:0:
256,192,97744,1,0,0:0:0:0:
256,192,97935,1,8,0:0:0:0:
256,192,98126,1,0,0:0:0:0:
256,192,98317,1,8,0:0:0:0:
256,192,98413,1,8,0:0:0:0:
256,192,98508,1,0,0:0:0:0:
256,192,98699,1,0,0:0:0:0:
256,192,98795,1,8,0:0:0:0:
256,192,98890,1,0,0:0:0:0:
256,192,98986,1,8,0:0:0:0:
256,192,99082,1,8,0:0:0:0:
256,192,99273,1,0,0:0:0:0:
256,192,99464,1,8,0:0:0:0:
256,192,99846,1,0,0:0:0:0:
256,192,100037,1,8,0:0:0:0:
256,192,100228,1,8,0:0:0:0:
256,192,100419,1,0,0:0:0:0:
256,192,100610,1,8,0:0:0:0:
256,192,100706,1,8,0:0:0:0:
256,192,100801,1,0,0:0:0:0:
256,192,100897,1,0,0:0:0:0:
256,192,100992,1,8,0:0:0:0:
128,160,101183,2,0,L|96:192,14,35
256,192,102712,1,4,0:0:0:0:
256,192,103476,1,8,0:0:0:0:
256,192,104241,1,8,0:0:0:0:
256,192,104623,1,0,0:0:0:0:
256,192,104750,1,0,0:0:0:0:
256,192,104878,1,0,0:0:0:0:
256,192,105005,1,8,0:0:0:0:
256,192,105132,1,8,0:0:0:0:
256,192,105260,1,8,0:0:0:0:
256,192,105387,1,0,0:0:0:0:
256,192,105769,1,4,0:0:0:0:
256,192,106343,1,8,0:0:0:0:
256,192,106438,1,0,0:0:0:0:
256,192,106534,1,8,0:0:0:0:
256,192,106725,1,8,0:0:0:0:
256,192,106916,1,0,0:0:0:0:
256,192,107107,1,0,0:0:0:0:
256,192,107298,1,8,0:0:0:0:
256,192,107499,1,0,0:0:0:0:
256,192,107700,1,8,0:0:0:0:
256,192,107902,1,8,0:0:0:0:
256,192,108103,1,4,0:0:0:0:
256,192,108506,1,12,0:0:0:0:
256,192,109546,1,0,0:0:0:0:
256,192,109759,1,8,0:0:0:0:
256,192,110184,1,8,0:0:0:0:
256,192,110397,1,8,0:0:0:0:
256,192,110610,1,0,0:0:0:0:
256,192,110837,1,0,0:0:0:0:
256,192,111064,1,8,0:0:0:0:
256,192,111291,1,8,0:0:0:0:
256,192,111519,1,4,0:0:0:0:
256,192,111973,1,12,0:0:0:0:
