osu file format v14

[General]
AudioFilename: nekomata.mp3
AudioLeadIn: 0
PreviewTime: 77808
Countdown: 0
SampleSet: Normal
StackLeniency: 0.7
Mode: 1
LetterboxInBreaks: 0
WidescreenStoryboard: 0

[Editor]
DistanceSpacing: 1.1
BeatDivisor: 1
GridSize: 32
TimelineZoom: 1.2

[Metadata]
Title:AsiaN distractive
TitleUnicode:AsiaN distractive
Artist:Nekomata Gekidan
ArtistUnicode:猫叉劇団
Creator:TKS
Version:Kantan
Source:beatmania IIDX 24 SINOBUZ
Tags:猫叉master 劇団レコード 佐藤直之 広野智章 naoyuki sato tomoaki hirono master record konami bemani 忍BUZZ
BeatmapID:1422219
BeatmapSetID:672802

[Difficulty]
HPDrainRate:7.5
CircleSize:2
OverallDifficulty:4
ApproachRate:5
SliderMultiplier:1.2
SliderTickRate:1

[Events]
//Background and Video events
0,0,"bg.png",0,0
//Break Periods
//Storyboard Layer 0 (Background)
//Storyboard Layer 1 (Fail)
//Storyboard Layer 2 (Pass)
//Storyboard Layer 3 (Foreground)
//Storyboard Sound Samples

[TimingPoints]
292,382.165605095541,4,1,0,80,1,8
1821,382.165605095541,4,1,0,80,1,0
38031,-100,4,1,0,60,0,0
39559,-100,4,1,0,80,0,0
65164,-100,4,1,0,60,0,0
70515,-100,4,1,0,80,0,0
76749,-100,4,3,0,5,0,0
77776,-100,4,1,0,60,0,0
78254,382.165605095541,4,1,0,80,1,1
87425,-100,4,1,0,80,0,0
90483,-100,4,1,0,80,0,1
102712,-100,4,1,0,80,0,0
107298,402.684563758389,4,1,0,80,1,0
108908,425.531914893617,4,1,0,80,1,0
110610,454.545454545455,4,1,0,80,1,0

[HitObjects]
256,192,1820,5,4,0:0:0:0:
256,192,4113,1,8,0:0:0:0:
256,192,4878,1,4,0:0:0:0:
256,192,7171,1,0,0:0:0:0:
256,192,7553,1,12,0:0:0:0:
256,192,10228,1,0,0:0:0:0:
256,192,10610,1,12,0:0:0:0:
256,192,13285,1,8,0:0:0:0:
256,192,13668,1,8,0:0:0:0:
256,192,14050,1,4,0:0:0:0:
256,192,14814,1,0,0:0:0:0:
256,192,15578,1,0,0:0:0:0:
256,192,16343,1,0,0:0:0:0:
256,192,16725,1,8,0:0:0:0:
256,192,17871,1,0,0:0:0:0:
256,192,18636,1,0,0:0:0:0:
256,192,19400,1,0,0:0:0:0:
256,192,19782,1,8,0:0:0:0:
256,192,20929,1,8,0:0:0:0:
256,192,21693,1,8,0:0:0:0:
256,192,22457,1,0,0:0:0:0:
256,192,22840,1,8,0:0:0:0:
256,192,23986,1,8,0:0:0:0:
256,192,24750,1,0,0:0:0:0:
256,192,25515,1,0,0:0:0:0:
256,192,25897,1,8,0:0:0:0:
256,192,26279,1,4,0:0:0:0:
256,192,27043,1,0,0:0:0:0:
224,192,27808,1,0,0:0:0:0:
224,192,28572,1,8,0:0:0:0:
256,192,28954,1,8,0:0:0:0:
256,192,29336,1,0,0:0:0:0:
256,192,30101,1,0,0:0:0:0:
256,192,30865,1,8,0:0:0:0:
256,192,31438,1,4,0:0:0:0:
256,192,32394,1,0,0:0:0:0:
256,192,33158,1,0,0:0:0:0:
224,192,33922,1,0,0:0:0:0:
224,192,34687,1,8,0:0:0:0:
256,192,35069,1,8,0:0:0:0:
256,192,35451,1,0,0:0:0:0:
256,192,36215,1,0,0:0:0:0:
256,192,36980,1,0,0:0:0:0:
256,192,37553,1,12,0:0:0:0:
256,192,40037,1,4,0:0:0:0:
256,192,40801,1,0,0:0:0:0:
256,192,41566,1,0,0:0:0:0:
256,192,41948,1,0,0:0:0:0:
256,192,42330,1,0,0:0:0:0:
256,192,43094,1,8,0:0:0:0:
256,192,43859,1,8,0:0:0:0:
256,192,44623,1,8,0:0:0:0:
256,192,45005,1,8,0:0:0:0:
256,192,45387,1,8,0:0:0:0:
256,192,46152,1,4,0:0:0:0:
256,192,46916,1,0,0:0:0:0:
256,192,47680,1,8,0:0:0:0:
256,192,48063,1,8,0:0:0:0:
256,192,48445,1,0,0:0:0:0:
256,192,49209,1,0,0:0:0:0:
256,192,49973,1,0,0:0:0:0:
256,192,50738,1,0,0:0:0:0:
256,192,51120,1,0,0:0:0:0:
256,192,51502,1,8,0:0:0:0:
256,192,52266,1,4,0:0:0:0:
256,192,53031,1,8,0:0:0:0:
256,192,53795,1,0,0:0:0:0:
256,192,54177,1,0,0:0:0:0:
256,192,54559,1,8,0:0:0:0:
256,192,55324,1,0,0:0:0:0:
256,192,56088,1,8,0:0:0:0:
256,192,56852,1,8,0:0:0:0:
256,192,57235,1,8,0:0:0:0:
256,192,57617,1,0,0:0:0:0:
256,192,58381,1,4,0:0:0:0:
256,192,59145,1,8,0:0:0:0:
256,192,59910,1,0,0:0:0:0:
256,192,60292,1,8,0:0:0:0:
256,192,60674,1,0,0:0:0:0:
256,192,61438,1,0,0:0:0:0:
256,192,62203,1,8,0:0:0:0:
256,192,62967,1,8,0:0:0:0:
256,192,63349,1,0,0:0:0:0:
256,192,63731,1,8,0:0:0:0:
256,192,64496,1,4,0:0:0:0:
256,192,66024,1,8,0:0:0:0:
256,192,67553,1,4,0:0:0:0:
256,192,69082,1,8,0:0:0:0:
256,192,69846,1,8,0:0:0:0:
256,192,70610,1,4,0:0:0:0:
256,192,71375,1,0,0:0:0:0:
256,192,72139,1,0,0:0:0:0:
256,192,72521,1,0,0:0:0:0:
256,192,72903,1,0,0:0:0:0:
256,192,73668,1,0,0:0:0:0:
256,192,74432,1,0,0:0:0:0:
256,192,74814,1,8,0:0:0:0:
256,192,75196,1,0,0:0:0:0:
256,192,75961,1,8,0:0:0:0:
256,192,76343,1,8,0:0:0:0:
256,192,78254,1,4,0:0:0:0:
256,192,79018,1,0,0:0:0:0:
256,192,79400,1,8,0:0:0:0:
256,192,79782,1,0,0:0:0:0:
256,192,80546,1,8,0:0:0:0:
256,192,81311,1,0,0:0:0:0:
256,192,82075,1,8,0:0:0:0:
256,192,82457,1,8,0:0:0:0:
256,192,82839,1,0,0:0:0:0:
256,192,83604,1,8,0:0:0:0:
256,192,84368,1,0,0:0:0:0:
256,192,85132,1,8,0:0:0:0:
256,192,85515,1,0,0:0:0:0:
256,192,85897,1,8,0:0:0:0:
256,192,86661,1,8,0:0:0:0:
256,192,87425,1,0,0:0:0:0:
256,192,88954,1,8,0:0:0:0:
256,192,90483,1,4,0:0:0:0:
256,192,91247,1,8,0:0:0:0:
256,192,92011,1,0,0:0:0:0:
256,192,92394,1,0,0:0:0:0:
256,192,92776,1,8,0:0:0:0:
256,192,93540,1,0,0:0:0:0:
256,192,93922,1,8,0:0:0:0:
256,192,94304,1,0,0:0:0:0:
256,192,94687,1,8,0:0:0:0:
256,192,95069,1,0,0:0:0:0:
256,192,95833,1,8,0:0:0:0:
256,192,96597,1,0,0:0:0:0:
256,192,97362,1,8,0:0:0:0:
256,192,98126,1,8,0:0:0:0:
256,192,98508,1,0,0:0:0:0:
256,192,98890,1,8,0:0:0:0:
256,192,99655,1,0,0:0:0:0:
256,192,100419,1,0,0:0:0:0:
256,192,101183,12,0,102330,0:0:0:0:
256,192,102712,5,4,0:0:0:0:
256,192,105005,1,8,0:0:0:0:
256,192,105769,1,4,0:0:0:0:
256,192,108103,1,0,0:0:0:0:
256,192,108506,1,12,0:0:0:0:
256,192,111519,1,0,0:0:0:0:
256,192,111973,1,12,0:0:0:0:
