osu file format v14

[General]
AudioFilename: audio.mp3
AudioLeadIn: 0
PreviewTime: 77868
Countdown: 0
SampleSet: Soft
StackLeniency: 0.7
Mode: 0
LetterboxInBreaks: 0
WidescreenStoryboard: 0

[Editor]
Bookmarks: 14046,26276,52263,64492,90480
DistanceSpacing: 1.1
BeatDivisor: 4
GridSize: 4
TimelineZoom: 1.9

[Metadata]
Title:AsiaN distractive
TitleUnicode:AsiaN distractive
Artist:Nekomata Gekidan
ArtistUnicode:猫叉劇団
Creator:Regou
Version:yf's Expert
Source:beatmania IIDX 24 SINOBUZ
Tags:Pending cup #5 yf_bmp gary00737 Chaoslitz StarrStyx 09kami Frey Suzuki_1112 Dailycare 1112deng Master
BeatmapID:1392008
BeatmapSetID:657122

[Difficulty]
HPDrainRate:6
CircleSize:4.5
OverallDifficulty:7
ApproachRate:9
SliderMultiplier:1.8
SliderTickRate:1

[Events]
//Background and Video events
0,0,"3.jpg",0,0
//Break Periods
//Storyboard Layer 0 (Background)
//Storyboard Layer 1 (Fail)
//Storyboard Layer 2 (Pass)
//Storyboard Layer 3 (Foreground)
//Storyboard Sound Samples

[TimingPoints]
289,382.165605095541,4,2,1,90,1,0
4492,-133.333333333333,4,2,1,90,0,0
4874,-133.333333333333,4,2,1,90,0,0
7167,-76.9230769230769,4,2,1,90,0,0
7550,-133.333333333333,4,2,1,90,0,0
9460,-111.111111111111,4,2,1,90,0,0
9652,-90.9090909090909,4,2,1,90,0,0
9843,-83.3333333333333,4,2,1,90,0,0
10034,-76.9230769230769,4,2,1,90,0,0
10225,-55.5555555555556,4,2,1,90,0,0
10607,-133.333333333333,4,2,1,90,0,0
11371,-133.333333333333,4,2,1,30,0,0
11945,-100,4,2,1,90,0,0
13282,-66.6666666666667,4,2,1,90,0,0
14046,-100,4,2,1,90,0,0
16722,-66.6666666666667,4,2,1,90,0,0
17104,-100,4,2,1,90,0,0
18059,-90.9090909090909,4,2,1,90,0,0
18250,-83.3333333333333,4,2,1,90,0,0
18632,-100,4,2,1,90,0,0
19779,-66.6666666666667,4,2,1,90,0,0
20161,-100,4,2,1,90,0,0
22454,-76.9230769230769,4,2,1,90,0,0
22836,-66.6666666666667,4,2,1,90,0,0
23218,-100,4,2,1,90,0,0
23983,-83.3333333333333,4,2,1,90,0,0
25511,-58.8235294117647,4,2,1,90,0,0
26276,-83.3333333333333,4,2,1,90,0,0
31435,-66.6666666666667,4,2,1,90,0,0
32008,-50,4,2,1,90,0,0
32390,-100,4,2,1,90,0,0
35448,-83.3333333333333,4,2,1,90,0,0
36785,-66.6666666666667,4,2,1,90,0,0
37550,-133.333333333333,4,2,1,90,0,0
38123,-200,4,2,1,90,0,0
38505,-200,4,2,1,90,0,0
38569,-200,4,2,1,70,0,0
38632,-200,4,2,1,50,0,0
38696,-200,4,2,1,40,0,0
38760,-200,4,2,1,30,0,0
38887,-133.333333333333,4,2,1,40,0,0
39078,-133.333333333333,4,2,1,60,0,0
39269,-100,4,2,1,90,0,0
39652,-133.333333333333,4,2,1,90,0,0
40034,-100,4,2,1,90,0,0
45384,-76.9230769230769,4,2,1,90,0,0
45957,-100,4,2,1,90,0,0
50734,-76.9230769230769,4,2,1,90,0,0
51499,-58.8235294117647,4,2,1,90,0,0
52263,-100,4,2,1,90,0,0
62964,-76.9230769230769,4,2,1,90,0,0
63728,-58.8235294117647,4,2,1,90,0,0
64492,-200,4,2,2,90,0,0
65066,-133.333333333333,4,2,2,90,0,0
65448,-100,4,2,2,90,0,0
65639,-80,4,2,2,90,0,0
66021,-76.9230769230769,4,2,2,90,0,0
66212,-76.9230769230769,4,2,2,90,0,0
66403,-90.9090909090909,4,2,2,90,0,0
66594,-156.25,4,2,2,90,0,0
66785,-100,4,2,2,90,0,0
66976,-100,4,2,2,95,0,0
67167,-66.6666666666667,4,2,2,95,0,0
67263,-100,4,2,2,100,0,0
67550,-200,4,2,2,90,0,0
68314,-133.333333333333,4,2,2,90,0,0
68505,-100,4,2,2,90,0,0
68696,-80,4,2,2,90,0,0
69460,-113.636363636364,4,2,2,90,0,0
69843,-133.333333333333,4,2,1,90,0,0
70607,-100,4,2,1,90,0,0
76531,-66.6666666666667,4,2,1,90,0,0
77486,-100,4,2,1,90,0,0
77677,-133.333333333333,4,2,1,90,0,0
77773,-133.333333333333,4,2,1,5,0,0
77868,-133.333333333333,4,2,1,90,0,0
78250,-66.6666666666667,4,2,1,90,0,1
87422,-100,4,2,1,90,0,1
88951,-50,4,2,1,90,0,1
89524,-66.6666666666667,4,2,1,90,0,1
90097,-66.6666666666667,4,2,1,90,0,1
99652,-100,4,2,1,90,0,1
101180,-66.6666666666667,4,2,1,90,0,1
102709,-133.333333333333,4,2,1,90,0,0
103473,-200,4,2,1,90,0,0
104046,-133.333333333333,4,2,1,90,0,0
105766,-166.666666666667,4,2,1,90,0,0
106531,-133.333333333333,4,2,1,90,0,0
107295,400,4,2,1,90,1,0
108095,428.571428571429,4,2,1,90,1,0
108095,-66.6666666666667,4,2,1,90,0,0
108523,413.793103448276,4,2,1,90,1,0
108523,-200,4,2,1,90,0,0
110178,428.571428571429,4,2,1,90,1,0
110178,-200,4,2,1,90,0,0
110606,444.444444444444,4,2,1,90,1,0
110606,-200,4,2,1,90,0,0
111050,461.538461538462,4,2,1,90,1,0
111050,-200,4,2,1,90,0,0
111511,480,4,2,1,90,1,0
111991,500,4,2,1,90,1,0
111991,-176.991150442478,4,2,1,90,0,0
112022,-176.991150442478,4,2,2,5,0,0

[Colours]
Combo1 : 241,139,48
Combo2 : 247,89,156
Combo3 : 64,128,247
Combo4 : 156,225,72

[HitObjects]
444,56,1626,21,2,3:2:0:0:
452,88,1722,1,2,3:2:0:0:
460,120,1817,1,4,1:0:0:0:
256,376,2390,5,2,3:2:0:0:
256,364,2486,1,2,3:2:0:0:
256,352,2581,1,0,3:0:0:0:
68,56,3155,5,2,3:2:0:0:
60,88,3251,1,2,3:2:0:0:
52,120,3346,1,0,3:0:0:0:
254,192,3728,1,8,2:3:0:0:
320,144,3919,1,2,3:2:0:0:
324,132,4015,1,2,3:2:0:0:
328,120,4110,6,0,P|355:107|385:108,2,60,8|8|8,0:3|0:3|0:3,0:0:0:0:
244,112,4492,2,0,L|236:48,2,45.0000017166138,4|4|4,0:3|0:3|0:3,0:0:0:0:
254,192,4874,6,0,B|345:268|350:181|440:248,1,202.500007724762,4|2,1:0|3:2,0:0:0:0:
444,260,5543,1,2,3:2:0:0:
448,272,5639,5,0,3:0:0:0:
440,344,5830,1,2,3:2:0:0:
280,384,6021,5,0,3:0:0:0:
269,293,6212,1,2,3:2:0:0:
140,168,6403,6,0,L|148:132,2,33.7500012874604,0|2|0,3:0|0:3|3:0,0:0:0:0:
88,220,6690,1,2,0:3:0:0:
84,216,6785,2,0,L|91:248,1,33.7500012874604,0|2,3:0|0:3,0:0:0:0:
24,132,6976,2,0,L|31:164,1,33.7500012874604,0|2,3:0|0:3,0:0:0:0:
164,240,7167,6,0,P|87:235|20:273,1,155.999992858887,4|4,1:2|0:3,0:0:0:0:
8,312,7486,1,4,0:3:0:0:
12,304,7550,6,0,B|166:252|114:376|268:323,1,270.000010299683,4|0,1:0|0:0,0:0:0:0:
480,332,8505,5,2,3:2:0:0:
344,308,8696,1,2,3:2:0:0:
348,300,9078,1,0,3:0:0:0:
444,136,9269,6,0,P|444:152|442:169,1,33.7500012874604,0|2,3:0|0:3,0:0:0:0:
488,199,9460,6,0,P|471:189|453:181,1,40.4999987640381,2|2,3:2|0:3,0:0:0:0:
464,79,9652,6,0,P|451:100|437:120,1,49.5000015106202,0|2,3:0|0:3,0:0:0:0:
512,255,9843,6,0,P|499:232|483:210,1,53.9999983520508,0|2,3:0|0:3,0:0:0:0:
480,16,10034,6,0,P|480:44|477:74,1,58.4999973220826,0|2,3:0|0:3,0:0:0:0:
480,332,10225,6,0,P|465:304|344:308,1,161.999995056153,4|8,1:2|3:0,0:0:0:0:
300,348,10511,1,2,3:2:0:0:
232,364,10607,6,0,P|173:366|28:260,1,236.250009012223,4|0,1:1|0:0,0:0:0:0:
4,208,11371,6,0,L|24:200,3,16.8750006437302
36,184,11562,2,0,L|56:192,3,16.8750006437302
76,188,11753,2,0,L|89:204,3,16.8750006437302
104,208,11945,6,0,P|145:218|216:216,1,90,2|0,3:2|3:0,0:0:0:0:
0,116,12327,2,0,P|20:112|44:104,1,45,0|2,3:0|0:3,0:0:0:0:
208,52,12518,2,0,P|186:44|164:40,1,45,2|2,3:2|0:3,0:0:0:0:
44,24,12709,6,0,P|65:31|87:35,1,45,2|2,3:2|0:3,0:0:0:0:
280,20,12900,2,0,P|302:15|323:8,1,45,2|2,3:2|0:3,0:0:0:0:
164,116,13091,2,0,L|119:118,1,45,0|2,3:0|0:3,0:0:0:0:
276,100,13282,6,0,P|336:136|484:104,1,202.500007724762,4|0,1:2|0:0,0:0:0:0:
476,104,13664,2,0,P|376:112|304:180,1,202.500007724762,4|0,1:1|0:0,0:0:0:0:
296,200,14046,6,0,P|296:284|320:352,1,135,8|0,1:2|2:0,0:0:0:0:
328,348,14429,1,8,2:1:0:0:
140,352,14620,5,0,3:0:0:0:
184,348,14715,1,0,3:0:0:0:
220,320,14811,1,8,0:1:0:0:
40,296,15002,5,2,0:3:0:0:
52,304,15097,1,2,0:3:0:0:
64,304,15193,1,8,0:1:0:0:
72,88,15384,5,0,3:3:0:0:
56,152,15480,1,0,3:3:0:0:
80,216,15575,2,0,P|126:234|224:228,1,135,6|0,1:2|0:0,0:0:0:0:
228,220,15957,1,8,0:1:0:0:
276,40,16148,5,2,3:2:0:0:
204,12,16244,1,2,3:2:0:0:
128,32,16339,2,0,B|48:8|80:72|0:49,1,135,4|0,0:1|0:0,0:0:0:0:
4,31,16722,6,0,P|102:25|182:85,1,202.500007724762,4|0,1:2|0:0,0:0:0:0:
192,104,17104,5,8,0:1:0:0:
216,248,17295,2,0,L|245:241,2,30,2|2|2,0:3|0:3|0:3,0:0:0:0:
197,215,17486,2,0,P|217:224|239:228,1,45,8|0,0:1|2:3,0:0:0:0:
108,308,17677,5,0,3:0:0:0:
124,236,17773,1,0,3:0:0:0:
64,192,17868,6,0,P|40:190|8:200,1,45,0|2,3:0|0:3,0:0:0:0:
128,124,18059,2,0,P|151:128|176:126,1,49.5000015106202,2|2,3:2|0:3,0:0:0:0:
67,83,18250,2,0,P|43:88|15:86,1,53.9999983520508,2|2,3:2|0:3,0:0:0:0:
36,12,18441,5,2,3:2:0:0:
67,83,18537,1,2,3:2:0:0:
136,56,18632,6,0,P|164:52|180:48,1,45,0|2,3:0|0:3,0:0:0:0:
380,20,18824,2,0,P|358:14|335:11,1,45,2|2,3:2|0:3,0:0:0:0:
272,136,19015,5,0,3:3:0:0:
252,16,19110,1,8,2:3:0:0:
252,96,19206,5,0,3:3:0:0:
272,56,19301,1,4,2:3:0:0:
252,176,19397,6,0,B|252:120|304:120|304:120|324:148|305:164,1,135,4|0,1:2|0:0,0:0:0:0:
299,237,19779,6,0,B|274:274|203:261|199:197|199:197|207:169|267:177,1,202.500007724762,4|0,1:1|0:0,0:0:0:0:
368,204,20161,6,0,L|472:192,1,90,10|0,0:1|0:0,0:0:0:0:
508,120,20543,1,8,0:1:0:0:
368,296,20734,1,0,3:0:0:0:
368,296,20830,1,0,3:0:0:0:
368,296,20925,6,0,P|395:332|484:336,1,135,10|0,3:1|0:0,0:0:0:0:
496,324,21308,1,8,0:1:0:0:
300,236,21499,1,0,3:0:0:0:
292,260,21594,1,0,3:0:0:0:
284,284,21690,6,0,P|246:305|200:299,1,90,10|0,3:1|0:0,0:0:0:0:
104,236,22072,1,8,0:1:0:0:
140,12,22263,1,0,3:0:0:0:
148,56,22359,1,0,3:0:0:0:
156,100,22454,6,0,B|237:55|241:127|325:87,1,175.499991966248,10|0,3:1|0:0,0:0:0:0:
396,64,22836,6,0,P|376:144|304:160,1,135.000005149842,4|0,1:2|3:0,0:0:0:0:
108,160,23218,6,0,P|66:153|22:133,2,90,8|0|8,0:1|0:0|0:1,0:0:0:0:
344,16,23792,1,0,3:0:0:0:
324,87,23887,1,0,3:0:0:0:
333,162,23983,6,0,P|384:210|472:196,1,161.999995056153,2|0,3:1|0:0,0:0:0:0:
512,136,24365,1,10,0:1:0:0:
268,224,24556,5,0,3:0:0:0:
260,252,24620,1,0,3:0:0:0:
264,280,24683,1,0,3:0:0:0:
280,304,24747,2,0,P|284:352|272:384,1,53.9999983520508,10|0,2:1|2:0,2:0:0:0:
68,272,24938,5,0,3:0:0:0:
96,336,25034,1,0,3:0:0:0:
164,352,25129,2,0,P|195:347|215:334,1,53.9999983520508,10|0,3:1|2:0,0:0:0:0:
280,144,25320,5,0,3:0:0:0:
288,172,25384,1,0,3:0:0:0:
284,200,25447,1,2,2:0:0:0:
268,223,25511,6,0,P|197:261|122:223,1,153.000002918243,4|0,1:2|1:0,2:0:0:0:
0,36,25894,2,0,P|64:-1|134:23,1,153.000002918243,4|0,1:0|1:0,2:0:0:0:
340,256,26276,6,0,P|368:260|396:244,2,53.9999983520508,8|2|0,1:2|2:0|0:0,0:0:0:0:
464,280,26562,1,2,0:0:0:0:
464,280,26658,2,0,L|472:156,1,107.999996704102,2|2,1:2|0:0,0:0:0:0:
480,28,27040,5,0,1:0:0:0:
464,64,27136,1,2,0:0:0:0:
460,24,27231,1,0,0:0:0:0:
444,60,27327,1,2,0:0:0:0:
440,20,27422,1,0,1:0:0:0:
256,45,27613,2,0,L|264:104,1,53.9999983520508,0|2,0:0|0:3,0:0:0:0:
340,176,27804,6,0,P|344:148|328:120,2,53.9999983520508,0|2|0,1:2|2:0|0:0,0:0:0:0:
364,52,28090,1,2,0:0:0:0:
364,52,28186,2,0,L|240:44,1,107.999996704102,2|2,1:2|0:0,0:0:0:0:
112,36,28568,5,0,1:0:0:0:
148,52,28664,1,2,0:0:0:0:
108,56,28759,1,0,0:0:0:0:
144,72,28855,1,2,0:0:0:0:
104,76,28950,1,0,1:0:0:0:
40,171,29142,2,0,L|93:160,1,53.9999983520508
172,256,29333,6,0,P|144:260|116:244,2,53.9999983520508,0|2|0,1:2|2:0|0:0,0:0:0:0:
48,280,29619,1,2,0:0:0:0:
48,280,29715,2,0,L|40:156,1,107.999996704102,2|2,1:2|0:0,0:0:0:0:
256,252,30097,5,0,1:0:0:0:
292,268,30193,1,2,0:0:0:0:
252,272,30288,1,0,0:0:0:0:
288,288,30384,1,2,0:0:0:0:
248,292,30479,1,0,1:0:0:0:
408,368,30671,2,0,L|468:356,1,53.9999983520508
468,240,30862,5,0,1:0:0:0:
468,170,30957,1,2,0:2:0:0:
426,226,31053,1,2,0:2:0:0:
493,205,31148,1,0,1:0:0:0:
426,183,31244,1,2,2:2:0:0:
456,204,31339,5,0,3:0:0:0:
420,108,31435,6,0,B|376:120|346:87|346:87|344:12|412:0,1,202.500007724762,4|0,1:2|1:0,0:0:0:0:
468,48,31817,1,0,1:1:0:0:
252,232,32008,6,0,B|300:272|349:227|349:227|355:188|321:165,1,180,4|0,1:1|1:0,0:0:0:0:
248,156,32295,1,0,1:0:0:0:
184,196,32390,6,0,P|161:197|140:189,1,45,4|0,2:2|2:0,0:0:0:0:
48,80,32581,1,2,0:0:0:0:
56,8,32677,1,2,0:0:0:0:
116,48,32773,2,0,P|139:49|160:41,1,45,0|0,1:2|2:0,0:0:0:0:
56,152,32964,2,0,P|33:153|12:145,1,45,2|0,0:2|2:0,0:0:0:0:
44,232,33154,5,0,1:0:0:0:
80,248,33250,1,2,0:0:0:0:
40,252,33345,1,0,0:0:0:0:
76,268,33441,1,2,0:0:0:0:
36,272,33536,1,0,1:0:0:0:
152,276,33728,2,0,B|176:276|176:276|204:299,1,45
260,340,33919,6,0,P|259:317|267:296,1,45,0|0,1:1|2:0,0:0:0:0:
376,204,34110,1,2,0:0:0:0:
448,212,34206,1,2,0:0:0:0:
408,272,34302,2,0,P|407:295|415:316,1,45,0|0,1:2|2:0,0:0:0:0:
304,212,34493,2,0,P|303:189|311:168,1,45,2|0,0:2|2:0,0:0:0:0:
224,204,34683,5,0,1:0:0:0:
208,240,34779,1,2,0:0:0:0:
204,200,34874,1,0,0:0:0:0:
188,236,34970,1,2,0:0:0:0:
184,196,35065,1,0,1:0:0:0:
28,180,35256,2,0,L|37:115,1,45
140,40,35448,6,0,P|138:67|145:93,1,53.9999983520508,0|0,1:0|0:0,0:0:0:0:
96,213,35639,2,0,P|104:187|102:160,1,53.9999983520508,2|2,1:2|0:0,0:0:0:0:
60,16,35830,6,0,L|72:96,1,53.9999983520508,0|0,1:0|0:0,0:0:0:0:
100,281,36021,2,0,L|112:205,1,53.9999983520508,2|0,1:2|0:0,0:0:0:0:
216,60,36212,5,0,1:0:0:0:
232,96,36308,1,2,0:0:0:0:
236,56,36403,1,0,1:0:0:0:
252,92,36499,1,2,0:0:0:0:
256,52,36594,1,0,1:0:0:0:
416,188,36785,2,0,P|385:175|352:179,1,67.5000025749208,0|0,1:0|0:0,0:0:0:0:
276,316,36976,5,0,1:0:0:0:
242,246,37071,1,2,0:2:0:0:
310,281,37167,1,2,0:2:0:0:
234,293,37262,1,0,1:0:0:0:
290,239,37358,1,2,3:2:0:0:
271,275,37454,5,0,3:1:0:0:
344,352,37550,6,0,P|440:354|480:284,1,168.750006437302,4|0,0:1|0:1,0:0:0:0:
480,284,38123,6,0,L|412:276,1,67.5000025749208,2|0,0:1|0:0,0:0:0:0:
400,288,38505,6,0,L|376:292,5,15,0|0|0|0|0|0,3:0|3:0|3:0|3:0|3:0|3:0,0:0:0:0:
312,284,38887,6,0,L|276:280,5,22.5000008583069,0|0|0|0|0|0,3:0|3:0|3:0|0:0|0:0|0:0,0:0:0:0:
220,260,39269,6,0,L|212:212,5,30
232,332,39652,5,0,1:0:0:0:
168,372,39843,1,0,1:0:0:0:
24,328,40034,6,0,P|9:291|15:231,1,90,8|2,1:2|0:1,0:0:0:0:
96,101,40416,2,0,P|99:146|84:188,1,90,0|2,1:0|0:1,0:0:0:0:
24,328,40798,2,0,L|0:144,1,180,8|0,0:1|1:0,0:0:0:0:
108,16,41371,1,2,0:0:0:0:
42,61,41562,5,8,0:1:0:0:
40,68,41610,2,0,P|75:97|144:96,1,112.5,2|0,2:2|0:0,0:0:0:0:
160,84,41945,1,0,1:0:0:0:
332,148,42136,1,2,0:0:0:0:
488,52,42327,1,8,0:1:0:0:
464,32,42422,1,2,0:3:0:0:
436,24,42518,1,2,0:1:0:0:
360,72,42709,1,0,1:1:0:0:
496,192,42900,1,2,0:3:0:0:
444,264,43091,6,0,P|440:320|464:364,1,90,8|2,0:1|0:1,0:0:0:0:
300,360,43473,2,0,L|204:356,1,90,0|2,1:0|0:1,0:0:0:0:
316,172,43855,5,8,0:1:0:0:
323,170,43903,2,0,P|352:205|351:274,1,112.5,2|0,2:2|0:0,0:0:0:0:
344,288,44238,1,0,1:0:0:0:
210,356,44429,1,2,0:1:0:0:
68,256,44620,6,0,P|116:276|172:264,1,90,8|2,0:1|0:0,0:0:0:0:
288,376,45002,2,0,P|281:324|242:281,1,90,0|2,1:1|0:0,0:0:0:0:
276,24,45384,2,2,P|226:95|215:181,1,175.499991966248,8|8,0:1|0:1,0:0:0:0:
224,196,45766,1,0,1:0:0:0:
152,272,45957,1,0,1:1:0:0:
328,376,46148,6,0,P|343:339|337:279,1,90,4|2,1:0|0:1,0:0:0:0:
368,124,46530,2,0,P|365:169|380:211,1,90,0|2,1:0|0:1,0:0:0:0:
432,344,46912,2,0,L|248:320,1,180,8|0,0:1|1:0,0:0:0:0:
456,260,47486,1,2,0:0:0:0:
284,84,47677,5,8,0:1:0:0:
380,212,47868,1,2,0:1:0:0:
253,320,48059,5,0,1:0:0:0:
240,232,48250,1,2,0:1:0:0:
168,288,48441,6,0,B|129:272|102:296|102:296|78:324|44:311,1,135,8|0,0:1|0:0,0:0:0:0:
28,296,48823,1,0,1:1:0:0:
12,136,49014,1,2,0:1:0:0:
159,201,49205,2,0,P|173:243|167:287,1,90,8|2,0:1|0:1,0:0:0:0:
336,352,49587,2,0,L|432:348,1,90,0|2,1:0|0:1,0:0:0:0:
252,320,49970,6,0,P|266:296|289:281,1,45,8|2,0:1|0:3,0:0:0:0:
425,348,50160,1,2,0:1:0:0:
184,376,50352,5,0,1:0:0:0:
167,287,50543,1,2,0:0:0:0:
152,144,50734,6,0,P|159:172|152:202,1,58.4999973220826,0|0,1:0|0:0,0:0:0:0:
24,224,50925,2,0,P|9:198|8:168,1,58.4999973220826,0|0,1:0|1:0,0:0:0:0:
64,64,51117,2,0,L|72:108,2,38.9999982147218,0|2|2,1:2|0:2|0:2,0:1:0:0:
140,68,51308,5,0,1:0:0:0:
70,102,51403,1,0,1:0:0:0:
84,176,51499,6,0,P|120:195|244:176,1,153.000002918243,4|0,1:1|1:0,0:0:0:0:
512,20,51881,2,0,P|438:3|367:29,1,153.000002918243,0|0,1:2|1:0,0:0:0:0:
248,268,52263,6,0,L|256:364,1,90,8|2,1:2|0:0,0:0:0:0:
304,132,52645,2,0,P|321:172|313:216,1,90,0|2,1:0|0:1,0:0:0:0:
172,324,53027,2,0,B|76:340|92:280|1:287,1,180,8|0,2:1|1:0,0:0:0:0:
160,236,53601,1,2,0:0:0:0:
256,356,53792,5,8,0:1:0:0:
254,349,53840,2,0,P|289:320|358:321,1,112.5,2|0,2:2|0:0,0:0:0:0:
372,332,54175,1,0,1:0:0:0:
496,224,54365,1,2,0:0:0:0:
512,356,54556,1,8,0:1:0:0:
480,356,54651,1,2,0:3:0:0:
456,336,54747,1,2,0:1:0:0:
420,260,54938,1,0,1:1:0:0:
512,140,55129,1,2,0:3:0:0:
435,87,55320,6,0,P|430:43|444:1,1,90,8|2,0:1|0:1,0:0:0:0:
316,40,55702,2,0,L|220:36,1,90,0|2,1:0|0:1,0:0:0:0:
340,124,56085,5,8,0:1:0:0:
347,122,56133,2,0,P|376:157|375:226,1,112.5,2|0,2:2|0:0,0:0:0:0:
368,240,56467,1,0,1:0:0:0:
124,212,56658,1,2,0:1:0:0:
172,136,56849,6,0,P|217:133|259:149,1,90,8|2,0:1|0:1,0:0:0:0:
512,176,57231,2,0,P|470:193|425:190,1,90,4|2,1:2|0:2,0:0:0:0:
360,24,57613,5,8,0:3:0:0:
355,68,57708,1,8,0:3:0:0:
351,113,57804,1,4,0:3:0:0:
347,158,57899,1,4,0:3:0:0:
343,203,57995,1,4,1:1:0:0:
240,352,58186,1,8,0:1:0:0:
240,352,58282,1,8,0:1:0:0:
240,352,58377,6,0,P|195:355|153:339,1,90,4|2,1:2|0:1,0:0:0:0:
92,264,58760,2,0,P|77:221|81:177,1,90,0|2,1:2|0:1,0:0:0:0:
176,20,59141,2,0,P|112:88|20:56,1,180,8|0,0:1|1:0,0:0:0:0:
176,20,59715,1,2,0:0:0:0:
216,214,59906,5,8,0:1:0:0:
120,86,60097,1,2,0:1:0:0:
272,140,60288,5,0,1:2:0:0:
259,52,60479,1,2,0:0:0:0:
344,84,60670,6,0,B|383:100|410:76|410:76|434:48|468:61,1,135,8|0,0:1|0:0,0:0:0:0:
484,76,61052,1,0,1:1:0:0:
360,0,61243,1,2,0:1:0:0:
352,176,61434,2,0,P|338:218|344:262,1,90,8|2,0:1|0:1,0:0:0:0:
175,327,61816,2,0,L|79:323,1,90,0|2,1:0|0:1,0:0:0:0:
259,295,62199,6,0,P|245:271|222:256,1,45,8|2,0:1|0:0,0:0:0:0:
86,323,62389,1,2,0:1:0:0:
327,351,62581,5,0,1:0:0:0:
344,262,62772,1,2,0:2:0:0:
359,119,62964,6,0,P|352:147|359:177,1,58.4999973220826,0|0,1:0|0:0,0:0:0:0:
487,199,63154,2,0,P|502:173|503:143,1,58.4999973220826,0|0,1:0|1:0,0:0:0:0:
447,39,63346,2,0,L|439:83,2,38.9999982147218,0|0|2,1:2|0:2|0:2,0:1:0:0:
372,44,63537,5,0,1:0:0:0:
440,77,63632,1,0,1:0:0:0:
427,151,63728,6,0,P|391:170|267:151,1,153.000002918243,4|0,1:2|1:0,0:0:0:0:
0,20,64110,2,0,P|74:3|145:29,1,153.000002918243,4|0,1:1|1:0,0:0:0:0:
256,240,64492,6,0,B|256:256|256:256|252:264|252:264|260:264|260:264|256:272|256:272|256:356,1,112.5,8|0,1:2|0:0,0:0:0:0:
180,340,65066,5,0,0:0:0:0:
180,340,65161,1,2,0:0:0:0:
180,340,65257,2,0,P|177:323|176:316,2,22.5000008583069
108,292,65448,2,0,P|113:276|121:260,2,30,2|0|0,0:0|0:0|0:0,0:0:0:0:
64,216,65639,2,0,P|78:204|93:193,2,37.5,2|0|0,0:2|0:0|0:0,0:0:0:0:
168,204,65830,5,4,0:3:0:0:
220,148,65925,2,0,L|220:120,1,28.125,2|2,0:0|0:0,0:0:0:0:
220,108,66021,6,0,P|249:3|285:113,1,292.499986610413,4|0,1:2|0:0,0:0:0:0:
292,120,66594,2,0,L|292:148,1,28.8
256,216,66785,6,0,L|256:272,5,30,8|0|0|0|0|0,0:3|0:0|0:0|0:0|0:0|0:0,0:0:0:0:
256,320,67167,6,0,L|256:365,5,45.0000017166138,0|0|0|4|0|0,0:3|0:0|0:0|0:3|0:0|0:0,0:0:0:0:
256,246,67550,6,0,B|256:262|256:262|260:270|260:270|252:270|252:270|256:278|256:278|256:362,1,112.5,4|0,1:2|0:0,0:0:0:0:
332,336,68123,5,0,0:0:0:0:
332,336,68218,1,2,0:0:0:0:
332,336,68314,2,0,P|335:319|336:308,2,22.5000008583069
404,292,68505,2,0,P|399:276|391:260,2,30,2|0|0,0:0|0:0|0:0,0:0:0:0:
448,216,68696,2,0,P|434:204|419:193,2,37.5,2|0|0,0:0|0:0|0:0,0:0:0:0:
348,204,68887,5,4,0:3:0:0:
296,148,68983,2,0,L|296:120,1,28.125,2|2,0:0|0:0,0:0:0:0:
284,148,69078,6,0,L|224:148,3,56.25,4|0|0|0,1:1|3:0|0:0|0:0,0:0:0:0:
236,220,69460,6,0,L|276:220,3,39.6000012084961,8|0|0|0,2:3|3:0|0:3|0:3,0:0:0:0:
280,292,69843,6,0,B|256:296|256:296|232:292,2,45.0000017166138,8|8|4,0:1|2:3|2:3,0:0:0:0:
236,364,70225,6,0,P|234:332|212:288,1,67.5000025749208,0|2,1:0|1:2,0:0:0:0:
164,248,70511,1,0,1:0:0:0:
164,248,70607,6,2,L|64:260,2,90,4|0|8,1:0|0:0|0:1,0:0:0:0:
140,18,71180,1,2,0:0:0:0:
124,50,71276,1,0,0:0:0:0:
108,82,71371,2,0,P|65:72|16:34,1,90,8|2,0:1|0:0,0:0:0:0:
188,130,71753,2,0,P|155:159|95:176,1,90,0|2,1:1|0:0,0:0:0:0:
112,174,72008,1,2,0:0:0:0:
112,174,72072,1,0,0:0:0:0:
112,174,72136,6,0,L|168:254,1,90,8|2,0:1|0:2,0:0:0:0:
96,276,72422,1,8,0:1:0:0:
168,268,72518,2,0,P|156:318|112:348,1,90,8|2,0:1|0:2,0:0:0:0:
96,276,72804,1,8,0:1:0:0:
108,348,72900,2,0,P|57:337|26:294,1,90,8|8,0:1|0:1,0:0:0:0:
96,276,73187,1,8,0:1:0:0:
168,268,73282,2,0,L|260:272,1,90,0|2,1:1|0:2,0:0:0:0:
328,284,73569,1,0,0:0:0:0:
328,284,73664,6,2,B|339:255|322:230|322:230|271:200|272:134|326:103|386:127|385:177,1,270,8|2,0:1|0:0,0:0:0:0:
385,177,74333,1,2,0:0:0:0:
385,177,74429,2,0,P|365:138|368:94,1,90,8|0,0:1|0:0,0:0:0:0:
460,0,74811,2,0,P|463:44|442:83,1,90,0|0,1:1|0:0,0:0:0:0:
368,93,75097,1,2,0:0:0:0:
368,93,75193,6,2,B|339:81|314:98|314:98|284:149|218:148|187:94|211:34|261:35,1,270,8|8,0:1|0:3,0:0:0:0:
214,91,75862,5,8,0:1:0:0:
144,91,75957,2,0,P|121:89|101:80,1,45,0|0,1:0|0:0,0:0:0:0:
28,208,76148,5,8,0:3:0:0:
74,264,76244,1,8,0:1:0:0:
144,265,76339,2,0,P|166:262|186:253,1,45,0|0,1:0|0:0,0:0:0:0:
256,371,76531,6,0,L|256:316,2,33.7500012874604,8|0|0,1:3|1:0|1:0,0:0:0:0:
44,224,77486,6,0,P|60:216|88:216,1,45,2|2,0:3|0:3,0:0:0:0:
128,208,77677,6,0,P|105:209|88:200,1,33.7500012874604
85,196,77868,5,0,1:0:0:0:
275,172,78059,1,8,3:1:0:0:
48,64,78250,5,12,3:2:0:0:
248,16,78441,1,2,3:1:0:0:
244,44,78505,1,2,0:0:0:0:
240,72,78569,1,2,0:0:0:0:
236,100,78632,2,0,P|180:128|108:112,1,135.000005149842,0|2,1:2|3:1,0:0:0:0:
275,172,79015,6,0,P|184:211|85:196,1,202.500007724762,0|0,3:0|0:0,1:1:0:0:
24,144,79397,1,0,1:0:0:0:
247,328,79588,1,2,3:1:0:0:
475,220,79779,5,8,3:1:0:0:
275,172,79970,1,2,3:1:0:0:
279,200,80034,1,2,0:0:0:0:
283,228,80098,1,2,0:0:0:0:
287,256,80161,2,0,P|343:284|415:268,1,135.000005149842,0|2,1:2|3:1,0:0:0:0:
247,328,80544,6,0,P|338:367|437:352,1,202.500007724762,0|0,3:0|0:0,1:0:0:0:
499,300,80926,1,2,1:2:0:0:
127,283,81117,1,2,3:1:0:0:
235,56,81308,5,8,3:1:0:0:
283,256,81499,1,2,3:1:0:0:
255,252,81563,1,2,0:0:0:0:
227,248,81627,1,2,0:0:0:0:
199,244,81690,2,0,P|171:188|187:116,1,135.000005149842,0|2,1:2|3:1,0:0:0:0:
127,283,82073,6,0,P|87:191|102:92,1,202.500007724762,0|0,3:0|0:0,1:0:0:0:
155,32,82455,1,0,1:0:0:0:
391,29,82645,1,2,3:1:0:0:
283,256,82836,5,8,3:1:0:0:
235,56,83027,1,2,3:1:0:0:
277,62,83123,1,2,0:0:0:0:
319,69,83218,2,0,P|347:125|331:197,1,135.000005149842,0|2,1:2|3:1,0:0:0:0:
128,282,83601,2,0,B|184:264|212:316|212:316|244:364|301:349,1,202.500007724762,10|0,3:1|0:0,0:0:0:0:
344,292,83983,5,0,1:0:0:0:
283,256,84078,1,2,0:0:0:0:
240,312,84174,1,0,0:0:0:0:
301,349,84269,1,2,0:0:0:0:
344,292,84365,6,0,P|398:280|480:336,1,135.000005149842,8|2,1:2|0:1,0:0:0:0:
492,232,84619,5,2,0:0:0:0:
488,204,84683,1,2,0:0:0:0:
484,176,84747,2,0,P|436:194|344:184,1,135.000005149842,0|2,1:0|3:1,0:0:0:0:
512,31,85129,6,0,P|449:107|350:110,1,202.500007724762,10|0,3:1|0:0,1:0:0:0:
284,76,85511,1,0,1:0:0:0:
4,0,85703,1,2,0:0:0:0:
168,92,85894,6,0,P|114:104|32:48,1,135.000005149842,10|2,0:1|3:1,0:0:0:0:
20,152,86148,5,2,0:0:0:0:
24,180,86212,1,2,0:0:0:0:
28,208,86276,2,0,P|76:190|168:200,1,135.000005149842,0|2,1:0|3:1,0:0:0:0:
0,352,86658,6,0,P|62:276|161:273,1,202.500007724762,10|0,3:1|0:0,1:0:0:0:
228,308,87040,1,0,1:0:0:0:
444,360,87231,1,0,0:0:0:0:
444,360,87327,1,0,0:0:0:0:
444,360,87422,6,0,P|399:367|356:357,1,90,8|2,3:1|3:2,0:0:0:0:
508,312,87804,5,0,1:0:0:0:
304,296,87996,1,2,3:1:0:0:
488,136,88187,5,8,3:1:0:0:
448,240,88378,1,2,0:2:0:0:
356,36,88569,5,0,1:0:0:0:
364,56,88632,1,2,0:0:0:0:
364,76,88696,1,0,0:0:0:0:
356,96,88760,5,2,1:0:0:0:
290,126,88855,1,0,1:3:0:0:
219,128,88951,6,0,P|184:176|208:248,1,120,0|0,1:0|2:0,0:0:0:0:
315,231,89142,1,2,0:0:0:0:
315,231,89206,1,0,0:0:0:0:
315,231,89269,1,2,0:0:0:0:
315,231,89333,6,0,P|325:173|290:126,1,120,0|0,1:0|2:0,0:0:0:0:
256,0,89524,2,0,L|256:68,1,67.5000025749208,2|0,1:0|0:0,0:0:0:0:
256,192,89715,1,0,1:0:0:0:
256,200,89779,1,2,0:0:0:0:
256,208,89843,1,2,0:0:0:0:
256,216,89906,5,0,0:0:0:0:
256,288,90002,1,0,1:0:0:0:
184,304,90097,6,0,P|150:308|117:303,1,67.5000025749208,0|0,1:0|1:0,0:0:0:0:
328,304,90288,2,0,P|361:308|394:303,1,67.5000025749208,0|2,1:0|1:3,0:0:0:0:
464,320,90480,5,12,3:2:0:0:
264,368,90671,1,2,3:1:0:0:
268,340,90735,1,2,0:0:0:0:
272,312,90799,1,2,0:0:0:0:
276,284,90862,2,0,P|332:256|404:272,1,135.000005149842,0|2,1:2|3:1,0:0:0:0:
237,212,91245,5,2,3:2:0:0:
280,186,91340,1,0,3:0:0:0:
328,172,91436,1,2,3:1:0:0:
379,173,91531,1,0,3:0:0:0:
427,188,91627,1,0,1:0:0:0:
265,56,91818,1,2,3:1:0:0:
37,164,92009,5,8,3:1:0:0:
237,212,92200,1,2,3:1:0:0:
233,184,92264,1,2,0:0:0:0:
229,156,92328,1,2,0:0:0:0:
225,128,92391,2,0,P|169:100|97:116,1,135.000005149842,0|2,1:2|3:1,0:0:0:0:
265,56,92774,5,2,3:2:0:0:
221,30,92869,1,0,3:0:0:0:
173,16,92965,1,2,3:1:0:0:
122,17,93060,1,0,3:0:0:0:
74,32,93156,1,0,1:0:0:0:
304,128,93347,1,2,3:1:0:0:
152,184,93538,5,8,3:1:0:0:
264,356,93729,1,2,3:1:0:0:
72,364,93920,2,0,L|0:368,3,45.0000017166138,0|2|0|2,1:2|2:2|0:0|2:2,0:0:0:0:
264,356,94301,6,0,P|197:359|144:320,1,135.000005149842,8|0,3:1|3:0,0:0:0:0:
124,252,94588,1,0,3:0:0:0:
152,184,94683,2,0,L|160:44,1,135.000005149842,0|2,1:0|0:2,0:0:0:0:
436,124,95066,5,8,3:1:0:0:
237,178,95257,1,2,3:1:0:0:
241,136,95352,1,2,0:0:0:0:
246,94,95448,2,0,P|300:64|373:77,1,135.000005149842,0|2,1:2|3:1,0:0:0:0:
384,282,95831,2,0,B|328:264|300:316|300:316|268:364|211:349,1,202.500007724762,10|0,3:1|0:0,0:0:0:0:
168,292,96213,5,0,1:0:0:0:
229,256,96308,1,2,0:0:0:0:
272,312,96404,1,0,0:0:0:0:
211,349,96499,1,2,0:0:0:0:
168,292,96595,6,0,P|114:280|32:336,1,135.000005149842,8|2,1:2|0:1,0:0:0:0:
20,232,96849,5,2,0:0:0:0:
24,204,96913,1,2,0:0:0:0:
28,176,96977,2,0,P|76:194|168:184,1,135.000005149842,0|2,1:0|3:1,0:0:0:0:
0,31,97359,5,2,3:2:0:0:
23,75,97454,1,0,3:0:0:0:
62,106,97550,1,2,3:1:0:0:
111,119,97645,1,0,3:0:0:0:
160,110,97741,1,0,1:0:0:0:
244,4,97933,1,2,0:0:0:0:
344,92,98124,6,0,P|398:104|480:48,1,135.000005149842,10|2,0:1|0:1,0:0:0:0:
492,152,98378,5,2,0:0:0:0:
488,180,98442,1,2,0:0:0:0:
484,208,98506,2,0,P|436:190|344:200,1,135.000005149842,0|2,1:0|3:1,0:0:0:0:
512,352,98888,5,2,3:2:0:0:
489,307,98983,1,0,3:0:0:0:
449,275,99079,1,2,3:1:0:0:
401,263,99174,1,0,3:0:0:0:
351,272,99270,1,0,1:0:0:0:
248,364,99461,1,2,0:1:0:0:
68,356,99652,5,8,2:1:0:0:
149,353,99843,1,2,0:2:0:0:
4,312,100034,5,0,1:0:0:0:
208,296,100226,1,2,3:1:0:0:
24,135,100416,6,0,P|23:158|32:176,2,30,8|2|0,3:1|0:0|0:0,0:0:0:0:
64,240,100608,1,2,0:2:0:0:
148,4,100798,6,0,P|149:27|140:45,2,30,0|2|2,1:0|0:0|0:0,0:0:0:0:
64,56,100989,2,0,P|37:51|20:44,1,45,0|0,1:0|1:0,0:0:0:0:
108,168,101181,6,0,P|127:195|156:211,1,67.5000025749208,0|0,1:0|2:0,0:0:0:0:
236,224,101371,2,0,P|269:221|297:203,1,67.5000025749208,0|0,1:0|2:0,0:0:0:0:
332,128,101562,6,0,B|255:104|275:164|204:146,1,135.000005149842,0|0,1:0|1:0,0:0:0:0:
236,224,101849,1,0,1:0:0:0:
272,296,101945,6,0,P|260:326|236:349,1,67.5000025749208,0|0,1:0|2:0,0:0:0:0:
163,383,102135,2,0,P|130:388|98:378,1,67.5000025749208,0|0,1:0|2:0,0:0:0:0:
0,116,102327,5,0,1:2:0:0:
20,184,102422,1,2,1:2:0:0:
90,219,102518,1,2,1:2:0:0:
176,196,102613,1,2,1:2:0:0:
272,156,102709,6,0,B|163:141|205:234|89:219,1,202.500007724762,4|0,1:0|3:0,0:0:0:0:
91,219,103378,1,0,3:0:0:0:
91,219,103473,6,0,L|112:324,1,90,2|0,3:2|2:0,0:0:0:0:
196,300,104046,1,0,3:0:0:0:
196,300,104142,1,0,3:0:0:0:
196,300,104238,6,0,P|191:335|176:368,1,67.5000025749208,2|0,3:2|0:0,0:0:0:0:
255,239,104620,6,0,P|270:257|278:278,2,45.0000017166138,8|8|8,0:3|0:3|0:3,0:0:0:0:
340,208,105002,2,0,L|408:216,2,45.0000017166138,4|4|4,0:3|0:3|0:3,0:0:0:0:
264,152,105384,2,0,P|244:144|220:124,2,45.0000017166138,8|8|0,0:1|0:1|0:0,0:0:0:0:
284,147,105703,1,2,0:0:0:0:
284,147,105766,6,0,P|326:80|318:1,1,161.999995056153,4|0,1:2|3:0,0:0:0:0:
318,1,106435,1,0,3:0:0:0:
318,1,106531,5,0,3:0:0:0:
248,24,106722,1,0,3:0:0:0:
284,147,106913,5,0,3:0:0:0:
392,172,107104,1,0,3:0:0:0:
312,288,107295,5,0,3:0:0:0:
160,304,107495,1,0,3:0:0:0:
8,320,107695,6,0,P|0:275|5:231,1,90,0|0,3:0|3:0,0:0:0:0:
52,56,108095,6,0,B|88:100|64:156|64:156|56:144|60:128,1,135.000005149842,4|4,1:2|0:3,0:0:0:0:
60,128,108380,1,8,0:1:0:0:
60,128,108452,1,8,0:1:0:0:
60,128,108523,6,0,P|112:112|112:216,1,180,4|0,1:0|0:0,0:0:0:0:
80,268,109557,1,0,3:0:0:0:
107,339,109764,6,0,P|126:353|147:358,1,45,0|0,3:0|0:0,0:0:0:0:
216,320,110178,2,0,P|234:306|255:301,1,45,0|0,3:0|3:0,0:0:0:0:
332,324,110606,2,0,L|344:376,1,45,0|0,3:0|3:0,0:0:0:0:
420,368,111050,2,0,L|472:380,1,45,0|0,3:0|3:0,0:0:0:0:
383,263,111511,22,0,P|352:230|309:223,1,90,4|0,0:2|3:0,0:0:0:0:
238,252,111871,1,4,3:3:0:0:
192,192,111991,38,0,B|190:197|190:197|140:202|108:238|108:238|96:276|113:311|113:311|148:304|181:319|181:319|215:293|238:252|238:252|227:291|254:344|254:344|284:364|319:357|319:357|324:324|351:302|351:302|346:257|309:223|309:223|350:248|403:239|403:239|437:222|444:176|444:176|408:164|392:131|392:131|341:129|303:152|303:152|334:122|346:67|346:67|334:32|303:14|303:14|276:40|239:42|239:42|222:85|234:131|234:131|209:88|167:65|167:65|128:72|103:97|103:97|120:128|112:158|112:158|147:186|188:188,1,1627.20000496582,4|0,0:1|3:0,0:0:0:0:
