osu file format v14

[General]
AudioFilename: audio.mp3
AudioLeadIn: 0
PreviewTime: 77868
Countdown: 0
SampleSet: Soft
StackLeniency: 0.7
Mode: 0
LetterboxInBreaks: 0
WidescreenStoryboard: 1

[Editor]
Bookmarks: 14046,26276,64492,66021,83027,87040
DistanceSpacing: 1.5
BeatDivisor: 4
GridSize: 4
TimelineZoom: 1.9

[Metadata]
Title:AsiaN distractive
TitleUnicode:AsiaN distractive
Artist:Nekomata Gekidan
ArtistUnicode:猫叉劇団
Creator:Regou
Version:gary00737's Hard
Source:beatmania IIDX 24 SINOBUZ
Tags:Pending cup #5 yf_bmp gary00737 Chaoslitz StarrStyx 09kami Frey Suzuki_1112 Dailycare 1112deng Master
BeatmapID:1399558
BeatmapSetID:657122

[Difficulty]
HPDrainRate:5
CircleSize:3.7
OverallDifficulty:5
ApproachRate:7
SliderMultiplier:0.999999999999999
SliderTickRate:1

[Events]
//Background and Video events
0,0,"3.jpg",0,0
//Break Periods
2,37749,38752
//Storyboard Layer 0 (Background)
//Storyboard Layer 1 (Fail)
//Storyboard Layer 2 (Pass)
//Storyboard Layer 3 (Foreground)
//Storyboard Sound Samples

[TimingPoints]
289,382.165605095541,4,2,1,90,1,0
11371,-100,4,2,1,30,0,0
11945,-100,4,2,1,90,0,0
64492,-100,4,2,2,90,0,0
66976,-100,4,2,2,95,0,0
67263,-100,4,2,2,100,0,0
67550,-100,4,2,2,90,0,0
70607,-100,4,2,1,90,0,0
78250,-83.3333333333333,4,2,1,90,0,1
102709,-100,4,2,1,90,0,0
107295,400,4,2,1,90,1,0
108095,428.571428571429,4,2,1,90,1,0
108523,413.793103448276,4,2,1,90,1,0
110178,428.571428571429,4,2,1,90,1,0
110606,444.444444444444,4,2,1,90,1,0
111050,461.538461538462,4,2,1,90,1,0
111511,480,4,2,1,90,1,0
111991,500,4,2,1,90,1,0
112022,-100,4,2,2,5,0,0

[Colours]
Combo1 : 241,139,48
Combo2 : 247,89,156
Combo3 : 64,128,247
Combo4 : 156,225,72

[HitObjects]
199,270,1053,6,0,P|291:307|335:267,1,150,0|2,0:0|3:2,0:0:0:0:
267,234,1817,6,0,L|416:222,1,150,4|2,1:0|3:2,0:0:0:0:
483,188,2581,2,0,P|391:151|347:191,1,150,0|2,3:0|3:2,0:0:0:0:
416,222,3346,2,0,P|411:172|404:63,1,150,0|2,3:0|3:2,0:0:0:0:
332,93,4110,2,0,P|279:93|235:74,1,99.9999999999999,8|4,0:3|0:3,0:0:0:0:
92,34,4874,6,0,P|99:104|103:183,1,150,4|2,1:0|3:2,0:0:0:0:
165,226,5639,2,0,P|160:251|160:281,2,50,0|2|0,3:0|3:2|3:0,0:0:0:0:
184,153,6212,1,2,3:2:0:0:
238,206,6403,2,0,P|269:203|307:201,1,50,0|0,3:0|3:0,0:0:0:0:
341,255,6785,2,0,P|372:252|410:250,1,50,0|0,3:0|3:0,0:0:0:0:
465,245,7167,1,4,1:2:0:0:
465,245,7550,6,0,B|458:198|489:168|489:168|452:150|452:150|502:88|446:29,1,250,4|2,1:0|3:2,0:0:0:0:
402,92,8696,1,2,3:2:0:0:
254,64,9078,6,0,P|257:92|259:122,1,50,0|0,3:0|3:0,0:0:0:0:
215,175,9460,2,0,P|191:179|166:180,2,50,0|0|0,3:0|3:0|3:0,0:0:0:0:
290,180,10034,1,0,3:0:0:0:
249,242,10225,2,0,P|192:256|130:249,1,99.9999999999999,4|4,1:2|1:1,0:0:0:0:
151,253,11945,6,0,L|86:263,2,50,2|0|0,3:2|3:0|3:0,0:0:0:0:
194,191,12518,2,0,P|186:163|182:141,2,50,2|2|2,3:2|3:2|3:2,0:0:0:0:
227,260,13091,1,0,3:0:0:0:
270,197,13282,2,0,P|319:189|368:196,1,99.9999999999999,4|4,1:2|1:1,0:0:0:0:
395,344,14046,6,0,P|313:356|229:340,1,150,8|0,1:2|3:0,0:0:0:0:
172,339,14811,2,0,P|134:353|89:349,2,74.9999999999999,8|0|0,0:1|0:0|3:3,0:0:0:0:
155,265,15575,2,0,P|115:258|78:232,2,74.9999999999999,6|0|2,1:2|0:0|3:2,0:0:0:0:
220,225,16339,1,4,0:1:0:0:
189,77,16722,6,0,P|219:80|261:80,1,50,4|0,1:2|0:0,0:0:0:0:
301,40,17104,2,0,P|358:39|421:31,1,99.9999999999999,8|8,0:1|0:1,0:0:0:0:
473,14,17677,1,0,3:0:0:0:
473,89,17868,2,0,P|471:119|471:152,1,50,0|2,3:0|3:2,0:0:0:0:
430,201,18250,2,0,P|431:231|432:264,1,50,2|2,3:2|3:2,0:0:0:0:
457,321,18632,6,0,P|491:319|525:322,2,50,0|2|0,3:0|3:2|3:3,0:0:0:0:
398,366,19206,1,0,3:3:0:0:
329,336,19397,2,0,P|272:333|208:335,1,99.9999999999999,4|4,1:2|1:1,0:0:0:0:
163,371,19970,1,0,0:0:0:0:
106,319,20161,6,0,P|106:284|107:248,1,50,10|0,0:1|0:0,0:0:0:0:
137,198,20543,2,0,P|131:169|114:139,1,50,8|0,0:1|3:0,0:0:0:0:
177,100,20925,2,0,P|200:143|210:192,1,99.9999999999999,10|8,3:1|0:1,0:0:0:0:
256,252,21499,5,0,3:0:0:0:
301,192,21690,2,0,P|311:143|335:100,1,99.9999999999999,10|8,3:1|0:1,0:0:0:0:
404,72,22263,1,0,3:0:0:0:
478,82,22454,1,10,3:1:0:0:
424,222,22836,6,0,P|452:231|486:231,1,50,4|0,1:2|3:0,0:0:0:0:
488,306,23218,2,0,P|438:304|391:288,1,99.9999999999999,8|8,0:1|0:1,0:0:0:0:
334,238,23792,1,0,3:0:0:0:
278,288,23983,2,0,P|230:304|181:305,1,99.9999999999999,2|10,3:1|0:1,0:0:0:0:
110,280,24556,1,0,3:0:0:0:
79,211,24747,6,0,P|90:181|112:155,1,50,10|0,2:1|3:0,0:0:0:0:
67,94,25129,2,0,P|48:110|34:131,1,50,10|0,3:1|3:0,0:0:0:0:
22,35,25511,2,0,P|70:20|126:34,1,99.9999999999999,4|4,1:2|1:0,0:0:0:0:
207,149,26276,6,0,P|202:191|194:241,2,74.9999999999999,8|2|2,1:2|0:0|0:0,0:0:0:0:
242,83,27040,2,0,P|281:71|298:59,1,50,0|0,1:0|0:0,0:0:0:0:
330,128,27422,2,0,P|357:98|366:79,1,50,0|0,1:0|0:0,0:0:0:0:
432,65,27804,6,0,P|436:101|420:155,2,74.9999999999999,0|2|2,1:2|0:0|0:0,0:0:0:0:
483,9,28569,2,0,P|498:28|506:52,1,50,0|0,1:0|0:0,0:0:0:0:
509,127,28951,2,0,P|508:158|506:191,1,50,0|0,1:0|0:0,0:0:0:0:
444,218,29333,6,0,L|355:208,2,74.9999999999999,0|2|2,1:2|0:0|0:0,0:0:0:0:
490,277,30097,2,0,P|496:302|495:326,2,50,0|0|0,1:0|0:0|1:0,0:0:0:0:
422,311,30671,1,0,0:0:0:0:
353,279,30862,6,0,P|301:280|251:324,1,99.9999999999999,0|2,1:0|0:2,0:0:0:0:
222,369,31435,2,0,L|144:336,2,74.9999999999999,4|0|4,1:2|1:0|1:1,0:0:0:0:
297,373,32199,1,0,1:0:0:0:
262,306,32390,6,0,L|184:273,2,74.9999999999999,4|2|2,2:2|0:0|0:2,0:0:0:0:
326,267,33155,2,0,P|308:246|273:232,1,50,0|0,1:0|0:0,0:0:0:0:
321,168,33537,2,0,P|294:158|257:164,1,50,0|0,1:0|0:0,0:0:0:0:
204,189,33919,6,0,P|160:194|112:194,2,74.9999999999999,0|2|2,1:1|0:0|0:2,0:0:0:0:
211,114,34683,2,0,P|205:75|206:55,1,50,0|0,1:0|0:0,0:0:0:0:
278,80,35066,2,0,P|292:43|303:26,1,50,0|0,1:0|0:0,0:0:0:0:
353,84,35448,6,0,P|396:78|445:79,2,74.9999999999999,0|2|2,1:0|0:0|1:2,0:0:0:0:
320,151,36212,2,0,P|295:153|269:153,2,50,0|0|0,1:0|1:0|1:0,0:0:0:0:
374,202,36785,1,0,1:0:0:0:
448,190,36976,2,0,B|451:223|436:243|436:243|452:266|452:266|435:301|448:330,1,150,0|4,1:0|0:1,0:0:0:0:
449,331,39652,5,0,1:0:0:0:
449,331,39843,1,0,1:0:0:0:
395,277,40034,5,8,1:2:0:0:
349,336,40225,2,0,P|318:333|281:329,1,50,2|0,0:1|1:0,0:0:0:0:
226,315,40607,1,2,0:1:0:0:
274,256,40798,2,0,P|281:204|264:142,1,99.9999999999999,8|0,0:1|1:0,0:0:0:0:
221,101,41371,1,2,0:1:0:0:
165,152,41562,6,0,P|113:159|51:142,1,99.9999999999999,8|0,0:1|1:1,0:0:0:0:
15,93,42136,1,2,0:1:0:0:
71,42,42327,2,0,P|123:35|185:52,1,99.9999999999999,8|0,0:1|1:1,0:0:0:0:
271,157,43091,6,0,P|268:185|261:217,2,50,8|2|0,0:1|0:1|1:0,0:0:0:0:
296,86,43664,1,2,0:1:0:0:
353,38,43855,2,0,P|401:28|451:35,1,99.9999999999999,8|0,0:1|1:0,0:0:0:0:
508,83,44429,1,2,0:1:0:0:
472,149,44620,6,0,P|443:146|407:134,1,50,8|2,0:1|0:0,0:0:0:0:
387,206,45002,2,0,P|363:188|338:160,1,50,0|2,1:0|0:1,0:0:0:0:
289,127,45384,2,0,P|273:181|300:233,1,99.9999999999999,8|0,0:1|1:0,0:0:0:0:
344,269,45957,1,0,1:1:0:0:
329,342,46148,5,4,1:0:0:0:
258,365,46339,2,0,B|231:374|207:372|207:372|174:357|156:333,1,99.9999999999999,2|2,0:1|0:1,0:0:0:0:
120,286,46913,2,0,L|111:183,1,99.9999999999999,8|0,0:1|1:0,0:0:0:0:
103,111,47486,1,2,0:0:0:0:
145,48,47677,6,0,P|175:44|205:49,1,50,8|2,0:1|0:1,0:0:0:0:
224,114,48059,2,0,P|251:125|275:144,1,50,0|2,1:0|0:1,0:0:0:0:
296,204,48441,2,0,P|337:157|333:108,1,99.9999999999999,8|0,0:1|1:1,0:0:0:0:
288,64,49015,1,2,0:1:0:0:
361,50,49206,5,8,0:1:0:0:
410,106,49397,2,0,P|410:173|389:218,1,99.9999999999999,2|2,0:1|0:1,0:0:0:0:
349,259,49970,2,0,P|299:280|251:281,1,99.9999999999999,8|0,0:1|1:0,0:0:0:0:
184,251,50543,1,2,0:0:0:0:
169,177,50734,5,0,1:0:0:0:
170,102,50925,1,0,1:0:0:0:
95,108,51117,2,0,L|95:173,1,50,0|0,1:2|1:0,0:0:0:0:
21,139,51499,2,0,L|21:89,2,50,4|0|0,1:1|1:0|1:2,0:0:0:0:
17,288,52263,5,8,1:2:0:0:
84,320,52454,2,0,P|109:307|134:287,1,50,2|0,0:0|1:0,0:0:0:0:
171,234,52836,1,2,0:1:0:0:
227,285,53027,2,0,P|279:292|341:275,1,99.9999999999999,8|0,2:1|1:0,0:0:0:0:
377,226,53601,1,2,0:0:0:0:
320,174,53792,6,0,P|271:167|222:177,1,99.9999999999999,10|0,0:1|1:1,0:0:0:0:
171,234,54365,1,2,0:1:0:0:
120,178,54556,2,0,P|96:228|114:283,1,99.9999999999999,8|0,0:1|1:1,0:0:0:0:
253,291,55320,6,0,P|256:319|263:351,2,50,8|2|0,0:1|0:1|1:0,0:0:0:0:
282,222,55893,1,2,0:1:0:0:
225,174,56084,2,0,P|177:164|127:171,1,99.9999999999999,8|0,0:1|1:0,0:0:0:0:
70,219,56658,1,2,0:1:0:0:
106,285,56849,6,0,P|135:282|171:270,1,50,8|2,0:1|0:1,0:0:0:0:
191,342,57231,2,0,P|215:324|240:296,1,50,4|2,1:2|0:1,0:0:0:0:
290,356,57613,2,0,P|329:315|344:258,1,99.9999999999999,8|4,0:3|1:1,0:0:0:0:
337,199,58186,1,8,0:1:0:0:
337,199,58377,5,4,1:2:0:0:
404,231,58569,2,0,P|455:226|496:197,1,99.9999999999999,2|2,0:1|0:1,0:0:0:0:
505,124,59142,2,0,L|496:21,1,99.9999999999999,8|0,0:1|1:0,0:0:0:0:
422,11,59715,1,2,0:0:0:0:
378,72,59906,6,0,P|354:90|325:101,1,50,8|2,0:1|0:1,0:0:0:0:
277,54,60288,2,0,P|248:57|217:53,1,50,0|2,1:2|0:0,0:0:0:0:
169,12,60670,2,0,P|156:73|184:113,1,99.9999999999999,8|0,0:1|1:1,0:0:0:0:
232,152,61244,1,2,0:1:0:0:
305,135,61435,5,8,0:1:0:0:
377,155,61626,2,0,P|380:214|381:275,1,99.9999999999999,2|2,0:1|0:1,0:0:0:0:
455,258,62199,2,0,P|453:208|451:158,1,99.9999999999999,8|0,0:1|1:0,0:0:0:0:
445,83,62772,1,2,0:2:0:0:
385,36,62964,5,0,1:0:0:0:
311,49,63155,1,0,1:0:0:0:
271,114,63346,2,0,L|206:114,1,50,0|0,1:2|1:0,0:0:0:0:
169,168,63728,2,0,L|119:168,2,50,4|0|4,1:2|1:0|1:1,0:0:0:0:
221,222,64301,1,0,1:0:0:0:
293,203,64492,6,0,B|321:165|378:158|418:199|418:199|442:153|502:161|502:161|524:212|465:258,1,350,8|0,1:2|0:0,0:0:0:0:
411,306,66021,6,0,B|376:289|356:254|356:254|322:293|268:281|268:281|272:335|234:356|234:356|189:328|195:279,1,350,4|0,1:1|0:0,0:0:0:0:
217,210,67550,6,0,B|234:155|215:100|215:100|160:123|143:187|143:187|108:160|108:160|97:212|58:243,1,350,4|0,1:0|0:0,0:0:0:0:
22,282,69078,6,0,P|26:214|24:124,1,150,4|2,1:1|0:0,0:0:0:0:
16,57,69843,1,2,1:2:0:0:
165,60,70225,2,0,P|205:50|227:37,1,50,0|2,1:0|1:2,0:0:0:0:
248,111,70607,6,0,P|206:129|156:135,2,74.9999999999999,4|0|2,1:0|0:0|0:0,0:0:0:0:
302,59,71371,2,0,P|326:40|343:4,1,50,8|2,0:1|0:0,0:0:0:0:
392,73,71753,2,0,P|410:37|408:7,1,50,0|2,1:1|0:0,0:0:0:0:
483,8,72136,6,0,P|485:43|484:79,1,50,8|2,0:1|0:2,0:0:0:0:
452,125,72518,2,0,P|450:160|451:196,1,50,8|2,0:1|0:2,0:0:0:0:
475,250,72900,1,8,0:1:0:0:
475,250,73282,6,0,P|477:285|476:321,2,50,0|2|8,1:1|0:2|0:1,0:0:0:0:
256,192,73760,12,0,76531,0:0:0:0:
14,133,77868,5,0,1:0:0:0:
11,223,78059,1,8,3:1:0:0:
91,181,78250,6,0,L|157:171,1,59.9999981689453,12|2,3:2|3:1,0:0:0:0:
125,258,78632,2,0,L|184:249,1,59.9999981689453,0|2,1:2|3:1,0:0:0:0:
159,335,79015,2,0,L|277:317,1,119.999996337891,0|0,3:0|1:0,0:0:0:0:
366,304,79588,1,2,3:1:0:0:
403,222,79779,6,0,P|384:201|345:182,1,59.9999981689453,8|2,3:1|3:1,0:0:0:0:
423,124,80161,2,0,P|400:106|372:96,1,59.9999981689453,0|2,1:2|3:1,0:0:0:0:
393,8,80543,2,0,P|335:12|292:53,1,119.999996337891,0|2,3:0|1:2,0:0:0:0:
294,143,81117,1,2,3:1:0:0:
217,189,81308,6,0,P|221:223|223:255,2,59.9999981689453,8|2|0,3:1|3:1|1:2,0:0:0:0:
149,129,81881,1,2,3:1:0:0:
185,45,82072,2,0,P|128:33|65:46,1,119.999996337891,0|0,3:0|1:0,0:0:0:0:
7,111,82645,1,2,3:1:0:0:
52,190,82836,5,8,3:1:0:0:
142,172,83027,2,0,P|143:155|148:131,2,29.9999990844727,2|0|0,3:1|0:0|1:2,0:0:0:0:
189,248,83410,1,2,3:1:0:0:
232,170,83601,1,10,3:1:0:0:
264,350,83983,6,0,P|265:310|267:271,1,59.9999981689453,0|0,1:0|0:0,0:0:0:0:
309,212,84365,1,8,1:2:0:0:
309,212,84556,1,2,0:1:0:0:
357,287,84747,2,0,P|355:316|354:346,1,59.9999981689453,0|2,1:0|3:1,0:0:0:0:
443,334,85129,2,0,P|445:274|448:214,1,119.999996337891,10|0,3:1|1:0,0:0:0:0:
478,128,85703,1,2,0:0:0:0:
456,40,85894,6,0,P|423:39|383:42,1,59.9999981689453,10|2,0:1|3:1,0:0:0:0:
309,64,86276,2,0,P|276:65|236:62,1,59.9999981689453,0|2,1:0|3:1,0:0:0:0:
162,40,86658,2,0,P|100:38|26:43,1,119.999996337891,10|0,3:1|1:0,0:0:0:0:
16,219,87422,6,0,P|18:266|19:289,2,59.9999981689453,8|2|0,3:1|3:2|1:0,0:0:0:0:
45,133,87996,1,2,3:1:0:0:
131,162,88187,2,0,P|166:153|203:142,1,59.9999981689453,8|2,3:1|0:2,0:0:0:0:
173,234,88569,2,0,P|208:225|245:214,1,59.9999981689453,0|2,1:0|0:0,0:0:0:0:
312,259,88951,6,0,P|310:230|310:200,1,59.9999981689453,0|0,1:0|1:0,0:0:0:0:
366,128,89333,1,0,1:0:0:0:
438,184,89524,1,0,1:0:0:0:
494,112,89715,2,0,P|494:82|492:48,1,59.9999981689453,0|0,1:0|1:0,0:0:0:0:
416,3,90097,1,0,1:0:0:0:
334,44,90288,1,2,1:2:0:0:
252,3,90480,6,0,L|242:69,1,59.9999981689453,12|2,3:2|3:1,0:0:0:0:
153,59,90862,2,0,L|163:125,1,59.9999981689453,0|2,1:2|3:1,0:0:0:0:
247,147,91245,2,0,P|236:209|229:265,1,119.999996337891,2|0,3:2|1:0,0:0:0:0:
241,354,91818,1,2,3:1:0:0:
153,372,92008,6,0,P|144:346|139:307,1,59.9999981689453,8|2,3:1|3:1,0:0:0:0:
50,325,92390,2,0,P|50:297|56:261,1,59.9999981689453,0|2,1:2|3:1,0:0:0:0:
137,229,92773,2,0,P|134:183|122:99,1,119.999996337891,2|0,3:2|1:0,0:0:0:0:
105,21,93347,1,2,3:1:0:0:
190,46,93537,5,8,3:1:0:0:
206,135,93728,1,2,3:1:0:0:
206,135,93919,2,0,P|222:171|252:201,1,59.9999981689453,0|0,1:2|0:0,0:0:0:0:
295,119,94301,1,8,3:1:0:0:
295,119,94492,2,0,L|301:72,2,29.9999990844727,0|0|0,3:0|3:0|1:0,0:0:0:0:
332,201,94874,1,2,0:2:0:0:
421,185,95066,5,8,3:1:0:0:
421,185,95257,2,0,L|418:135,2,29.9999990844727,2|0|0,3:1|0:0|1:2,0:0:0:0:
437,274,95639,1,2,3:1:0:0:
348,290,95830,1,10,3:1:0:0:
495,186,96213,6,0,P|492:148|491:99,1,59.9999981689453,0|0,1:0|0:0,0:0:0:0:
469,39,96594,1,8,1:2:0:0:
469,39,96785,1,2,0:1:0:0:
412,109,96976,2,0,P|413:138|414:168,1,59.9999981689453,0|2,1:0|3:1,0:0:0:0:
339,218,97359,2,0,P|336:164|334:95,1,119.999996337891,2|0,3:2|1:0,0:0:0:0:
256,52,97933,1,2,0:0:0:0:
177,98,98123,6,0,P|175:137|173:176,1,59.9999981689453,10|2,0:1|0:1,0:0:0:0:
95,202,98505,2,0,P|96:172|97:142,1,59.9999981689453,0|2,1:0|3:1,0:0:0:0:
21,92,98887,2,0,P|19:151|16:211,1,119.999996337891,2|0,3:2|1:0,0:0:0:0:
168,314,99652,6,0,P|169:343|170:373,2,59.9999981689453,8|2|0,2:1|0:2|1:0,0:0:0:0:
158,224,100226,1,2,3:1:0:0:
209,151,100416,2,0,P|238:143|266:135,1,59.9999981689453,8|2,3:1|0:2,0:0:0:0:
255,226,100798,2,0,P|284:218|312:210,1,59.9999981689453,0|0,1:0|1:0,0:0:0:0:
399,173,101181,6,0,P|408:144|411:114,1,59.9999981689453,0|0,1:0|1:0,0:0:0:0:
323,117,101562,2,0,P|293:122|266:134,1,59.9999981689453,0|0,1:0|1:0,0:0:0:0:
312,210,101945,2,0,P|331:232|355:250,1,59.9999981689453,0|0,1:0|1:0,0:0:0:0:
443,248,102327,6,0,P|468:241|491:239,4,29.9999990844727,0|2|2|2|4,1:2|1:2|1:2|1:2|1:0,0:0:0:0:
261,170,105002,6,0,P|268:128|262:56,2,99.9999999999999,4|8|4,0:3|0:1|1:2,0:0:0:0:
180,248,108095,6,0,P|125:249|66:261,1,99.9999999999999,4|4,1:2|1:0,0:0:0:0:
289,280,111511,6,0,P|350:279|411:271,1,99.9999999999999,4|4,0:2|0:1,0:0:0:0:
256,192,112116,12,0,119991,0:0:0:0:
