osu file format v14

[General]
AudioFilename: audio.mp3
AudioLeadIn: 0
PreviewTime: 77868
Countdown: 0
SampleSet: Soft
StackLeniency: 0.3
Mode: 0
LetterboxInBreaks: 0
WidescreenStoryboard: 1

[Editor]
DistanceSpacing: 0.5
BeatDivisor: 4
GridSize: 4
TimelineZoom: 1

[Metadata]
Title:AsiaN distractive
TitleUnicode:AsiaN distractive
Artist:Nekomata Gekidan
ArtistUnicode:猫叉劇団
Creator:Regou
Version:Frey's Insane
Source:beatmania IIDX 24 SINOBUZ
Tags:Pending cup #5 yf_bmp gary00737 Chaoslitz StarrStyx 09kami Frey Suzuki_1112 Dailycare 1112deng Master
BeatmapID:1417615
BeatmapSetID:657122

[Difficulty]
HPDrainRate:7
CircleSize:4
OverallDifficulty:8
ApproachRate:9
SliderMultiplier:2
SliderTickRate:1

[Events]
//Background and Video events
0,0,"ss.jpg",0,0
//Break Periods
//Storyboard Layer 0 (Background)
//Storyboard Layer 1 (Fail)
//Storyboard Layer 2 (Pass)
//Storyboard Layer 3 (Foreground)
//Storyboard Sound Samples

[TimingPoints]
289,382.165605095541,4,3,0,40,1,0
1817,-125,4,2,0,65,0,0
4110,-125,4,2,0,45,0,0
4874,-125,4,2,0,65,0,0
7167,-100,4,2,0,65,0,0
7454,-100,4,2,0,20,0,0
7550,-125,4,2,0,65,0,0
13282,-100,4,2,0,70,0,0
13569,-100,4,2,0,20,0,0
13664,-100,4,2,0,70,0,0
13951,-100,4,2,0,20,0,0
14046,-100,4,2,0,70,0,0
19683,-100,4,2,0,20,0,0
19779,-100,4,2,0,70,0,0
20066,-100,4,2,0,20,0,0
20161,-100,4,2,0,72,0,0
21690,-100,4,2,0,74,0,0
23218,-100,4,2,0,76,0,0
24747,-100,4,2,0,78,0,0
25511,-100,4,2,0,80,0,0
26276,-100,4,2,0,70,0,0
31435,-125,4,2,0,70,0,0
32008,-100,4,2,0,70,0,0
52263,-100,4,2,0,75,0,0
63728,-100,4,2,0,65,0,0
63919,-100,4,2,0,70,0,0
64110,-100,4,2,0,75,0,0
70607,-100,4,2,0,70,0,0
73664,-100,4,2,0,75,0,0
78250,-90.9090909090909,4,3,0,80,0,1
102709,-125,4,2,0,70,0,0
105002,-125,4,2,0,45,0,0
105766,-125,4,2,0,70,0,0
107295,400,4,2,0,70,1,0
108095,428.571428571429,4,2,0,70,1,0
108095,-100,4,2,0,70,0,0
108416,-100,4,2,0,20,0,0
108523,413.793103448276,4,2,0,70,1,0
108523,-125,4,2,0,70,0,0
110178,428.571428571429,4,2,0,70,1,0
110606,444.444444444444,4,2,0,70,1,0
111050,461.538461538462,4,2,0,70,1,0
111511,480,4,2,0,70,1,0
111991,500,4,2,0,70,1,0
113991,-100,4,2,0,60,0,0
115991,-100,4,2,0,50,0,0
117991,-100,4,2,0,40,0,0
119991,-100,4,2,0,30,0,0
120991,-100,4,2,0,20,0,0
121991,-100,4,2,0,10,0,0

[Colours]
Combo1 : 255,209,51
Combo2 : 38,255,185

[HitObjects]
136,248,1053,6,0,L|128:176,1,50,8|8,0:0|0:0,0:0:0:0:
256,300,1244,2,0,L|256:232,1,50,8|8,0:0|0:0,0:0:0:0:
376,248,1435,2,0,L|384:176,1,50,4|4,0:0|0:0,0:0:0:0:
384,28,1626,1,0,0:2:0:0:
356,64,1722,1,0,0:0:0:0:
328,96,1817,6,0,P|256:124|180:92,1,160,6|0,3:2|0:0,0:0:0:0:
128,28,2390,2,0,L|64:40,1,40,2|0,0:0|0:0,0:0:0:0:
0,224,2581,2,0,L|157:252,1,160
239,220,3155,6,0,P|241:239|245:259,1,40,2|0,0:0|0:0,0:0:0:0:
433,350,3346,2,0,P|451:273|419:201,1,160
352,148,3919,2,0,L|280:164,1,40,2|0,0:0|0:0,0:0:0:0:
144,196,4110,6,0,L|160:264,2,53.3333333333333,8|8|8,3:0|3:0|3:0,0:0:0:0:
108,66,4492,2,0,L|160:52,2,53.3333333333333,4|4|4,3:0|3:0|3:0,0:0:0:0:
256,16,4874,6,0,B|276:84|232:104|256:176,1,160,4|0,3:2|0:0,0:0:0:0:
256,288,5448,1,2,0:0:0:0:
256,288,5543,1,0,0:0:0:0:
256,288,5639,1,0,0:0:0:0:
416,168,5830,1,0,0:0:0:0:
332,140,6021,1,2,0:0:0:0:
348,228,6212,1,0,0:0:0:0:
432,256,6403,5,0,0:0:0:0:
400,80,6594,1,0,0:0:0:0:
224,112,6785,1,2,0:0:0:0:
256,288,6976,1,0,0:0:0:0:
504,200,7167,6,0,P|431:182|359:160,1,150,4|0,3:2|2:0,0:0:0:0:
224,112,7550,1,4,3:2:0:0:
376,352,8505,5,2,0:0:0:0:
376,352,8696,1,0,0:0:0:0:
136,352,9078,1,0,0:0:0:0:
120,264,9269,1,0,0:0:0:0:
32,280,9460,1,2,0:0:0:0:
48,368,9652,1,0,0:0:0:0:
204,292,9843,2,0,P|216:236|232:204,1,80,2|0,0:0|0:0,0:0:0:0:
32,76,10225,1,6,3:2:0:0:
56,192,10416,6,0,L|124:176,1,40,0|0,3:0|3:0,0:0:0:0:
256,144,10607,1,6,3:2:0:0:
256,360,11945,5,2,0:0:0:0:
256,272,12136,1,0,0:0:0:0:
336,232,12327,1,0,0:0:0:0:
414,334,12518,2,0,P|392:332|336:320,1,80
98,334,12900,2,0,P|120:332|176:320,1,80,2|0,0:0|0:0,0:0:0:0:
336,232,13282,6,0,P|360:168|312:88,1,150,4|0,3:2|2:0,0:0:0:0:
185,97,13664,2,0,P|152:162|176:232,1,150,4|0,3:2|2:0,0:0:0:0:
256,312,14046,6,0,B|336:324|336:324|380:308|380:308|472:324,1,200,4|0,3:2|3:0,0:0:0:0:
512,236,14620,2,0,P|508:200|492:172,1,50,2|0,0:0|0:0,0:0:0:0:
336,232,14811,2,0,P|236:216|212:132,1,200,0|0,3:0|3:0,0:0:0:0:
256,40,15384,6,0,L|320:48,1,50,2|0,0:0|0:0,0:0:0:0:
448,64,15575,2,0,B|445:169|416:164|421:262,1,200,4|0,3:2|3:0,0:0:0:0:
344,328,16148,2,0,L|280:336,1,50,2|0,0:0|0:0,0:0:0:0:
184,192,16339,2,0,P|256:228|344:144,2,200,0|0|0,3:0|3:0|3:0,0:0:0:0:
408,56,17486,1,0,3:0:0:0:
104,56,17677,5,2,0:2:0:0:
104,56,17773,1,0,0:0:0:0:
104,56,17868,1,0,3:2:0:0:
72,152,18059,1,0,0:0:0:0:
168,184,18250,1,2,3:2:0:0:
200,88,18441,1,0,0:0:0:0:
20,80,18632,5,0,3:0:0:0:
96,236,18824,1,0,0:0:0:0:
252,160,19015,1,2,3:2:0:0:
176,4,19206,1,0,0:0:0:0:
168,184,19397,6,0,L|208:340,1,150,4|0,3:2|2:0,0:0:0:0:
306,329,19779,2,0,L|344:184,1,150,4|0,3:2|2:0,0:0:0:0:
364,100,20161,6,0,P|448:80|508:200,1,200,0|0,3:0|3:0,0:0:0:0:
500,256,20734,2,0,P|444:268|424:276,1,50,2|0,0:0|0:0,0:0:0:0:
344,184,20925,2,0,B|248:212|248:140|144:172,1,200,0|0,3:0|3:0,0:0:0:0:
72,236,21499,6,0,L|60:308,1,50,2|0,0:0|0:0,0:0:0:0:
24,96,21690,2,0,L|224:68,1,200,0|0,3:0|3:0,0:0:0:0:
296,0,22263,2,0,P|324:8|360:8,1,50,2|0,0:0|0:0,0:0:0:0:
500,125,22454,2,0,P|463:184|327:168,2,200,0|4|0,3:0|3:2|3:0,0:0:0:0:
256,92,23601,1,0,3:0:0:0:
169,183,23792,6,0,L|175:232,1,50,2|0,0:2|0:0,0:0:0:0:
32,326,23983,2,0,L|8:128,1,200,0|0,3:0|3:0,0:0:0:0:
124,36,24556,2,0,L|164:40,2,33.3333333333333,2|0|0,0:2|0:0|0:0,0:0:0:0:
28,24,24747,5,2,3:2:0:0:
128,160,24938,1,0,0:0:0:0:
256,52,25129,1,2,3:2:0:0:
28,24,25320,1,0,0:0:0:0:
48,224,25511,5,6,3:2:0:0:
208,128,25703,1,0,1:0:0:0:
80,96,25894,1,6,3:2:0:0:
176,256,26086,1,0,1:0:0:0:
336,160,26276,6,0,P|432:148|480:216,1,150,4|0,1:2|0:0,0:0:0:0:
476,220,26658,2,0,L|452:336,1,100,2|0,1:2|0:0,0:0:0:0:
220,268,27040,5,0,1:0:0:0:
264,260,27136,1,0,0:0:0:0:
308,252,27231,2,0,L|388:240,1,50
292,116,27422,1,2,1:2:0:0:
248,108,27518,1,0,0:0:0:0:
204,100,27613,2,0,L|124:88,1,50
32,192,27804,6,0,L|12:28,1,150,0|0,1:0|0:0,0:0:0:0:
8,4,28187,2,0,P|88:28|112:20,1,100,2|0,1:2|0:0,0:0:0:0:
164,224,28569,5,0,1:0:0:0:
192,188,28664,1,0,0:0:0:0:
232,168,28760,1,0,0:0:0:0:
276,172,28855,1,0,0:0:0:0:
316,192,28951,2,0,P|328:228|328:280,1,50,2|0,1:2|0:0,0:0:0:0:
264,324,29142,2,0,P|252:288|252:236,1,50
256,72,29333,6,0,P|336:108|408:52,1,150,0|0,1:0|0:0,0:0:0:0:
408,48,29715,2,0,L|508:36,1,100,2|0,1:2|0:0,0:0:0:0:
384,252,30097,6,0,L|334:246,1,50,0|0,1:0|0:0,0:0:0:0:
424,160,30288,2,0,L|496:152,1,50
328,120,30480,1,2,1:2:0:0:
284,124,30575,1,0,0:0:0:0:
240,128,30671,1,0,0:0:0:0:
196,132,30766,1,0,0:0:0:0:
152,136,30862,6,0,L|164:72,1,50,0|0,1:0|0:0,0:0:0:0:
56,204,31053,2,0,P|8:184|-28:188,1,50,0|0,0:0|3:0,0:0:0:0:
100,320,31244,2,0,P|121:306|145:300,1,50,2|0,0:0|0:0,0:0:0:0:
256,352,31435,6,0,P|312:320|304:240,1,120,4|0,3:2|1:0,0:0:0:0:
296,180,31817,2,0,L|228:168,1,40
120,120,32008,6,0,L|108:-16,1,100,6|0,0:0|1:0,0:0:0:0:
400,20,32390,2,0,L|384:184,1,150,4|0,1:2|0:0,0:0:0:0:
380,212,32773,2,0,P|464:236|496:256,1,100,2|0,1:2|0:0,0:0:0:0:
312,104,33155,5,0,1:0:0:0:
268,116,33251,1,0,0:0:0:0:
224,124,33346,2,0,P|180:112|132:92,1,50
200,280,33537,1,2,1:2:0:0:
244,268,33633,1,0,0:0:0:0:
288,260,33728,2,0,P|332:272|380:292,1,50
439,362,33919,6,0,P|491:306|467:234,1,150,0|0,1:0|0:0,0:0:0:0:
456,204,34301,2,0,P|456:144|480:100,1,100,2|0,1:2|0:0,0:0:0:0:
256,112,34683,5,0,1:0:0:0:
298,125,34778,1,0,0:0:0:0:
340,113,34874,1,0,0:0:0:0:
369,79,34969,1,0,0:0:0:0:
368,32,35066,2,0,P|340:20|308:-4,1,50,2|0,1:2|0:0,0:0:0:0:
188,9,35257,2,0,P|167:22|144:31,1,50
24,120,35448,6,0,P|112:152|192:208,1,150,0|0,1:0|0:0,0:0:0:0:
188,212,35830,2,0,P|176:128|180:92,1,100,2|0,1:2|0:0,0:0:0:0:
324,172,36212,5,0,1:0:0:0:
334,215,36307,1,0,0:0:0:0:
335,260,36403,2,0,P|308:312|288:336,1,50
200,384,36594,2,0,P|132:364|108:364,1,50,2|0,1:2|0:0,0:0:0:0:
141,230,36785,2,0,P|165:223|187:212,1,50,0|0,3:0|0:0,0:0:0:0:
324,172,36976,5,0,1:0:0:0:
368,136,37072,1,0,3:0:0:0:
372,80,37167,1,0,3:0:0:0:
336,36,37263,1,0,1:0:0:0:
280,32,37359,2,0,L|208:56,1,50,2|0,3:2|3:0,3:0:0:0:
52,104,37550,5,4,1:2:0:0:
256,192,37645,12,0,39269,0:0:0:0:
104,332,39652,5,0,1:0:0:0:
208,160,39843,1,0,1:0:0:0:
112,132,40034,6,0,P|111:181|133:225,1,100,4|0,1:2|0:0,0:0:0:0:
378,225,40416,2,0,P|400:181|400:132,1,100,2|0,1:2|0:0,0:0:0:0:
352,328,40798,2,0,L|508:304,1,150,0|0,1:0|2:0,0:0:0:0:
512,272,41180,2,0,P|500:240|504:168,1,100,2|0,1:2|0:0,0:0:0:0:
320,10,41562,6,0,L|304:160,1,150,0|0,1:0|2:0,0:0:0:0:
300,196,41945,2,0,L|168:216,1,100,2|0,1:2|0:0,0:0:0:0:
0,168,42327,2,0,L|98:153,1,100,0|0,1:0|0:0,0:0:0:0:
176,52,42613,1,0,0:0:0:0:
176,52,42709,2,0,P|120:44|68:16,1,100,2|0,1:2|0:0,0:0:0:0:
0,168,43091,6,0,L|15:266,1,100,0|0,1:0|0:0,0:0:0:0:
92,332,43473,1,2,1:2:0:0:
180,128,43664,1,0,0:0:0:0:
256,192,43855,2,0,P|332:172|352:68,1,150,0|0,1:0|0:0,0:0:0:0:
360,76,44238,2,0,P|256:48|232:36,1,100,2|0,1:2|0:0,0:0:0:0:
152,308,44620,6,0,P|256:336|280:348,1,100,0|0,1:0|0:0,0:0:0:0:
340,376,45002,1,2,1:2:0:0:
464,252,45193,1,0,0:0:0:0:
295,207,45384,2,0,P|368:215|422:167,1,150,0|2,1:0|3:2,0:0:0:0:
176,116,45766,5,0,1:0:0:0:
336,116,45957,1,2,1:2:0:0:
216,207,46148,6,0,P|167:219|120:200,1,100,4|0,1:2|0:0,0:0:0:0:
256,52,46531,1,2,1:2:0:0:
380,20,46722,1,0,0:0:0:0:
464,116,46913,2,0,L|444:288,1,150,0|0,1:0|0:0,0:0:0:0:
444,300,47295,2,0,P|372:308|332:324,1,100,2|0,1:2|0:0,0:0:0:0:
256,360,47677,5,0,1:0:0:0:
170,181,47868,1,0,0:0:0:0:
269,188,48059,1,2,1:2:0:0:
114,263,48250,1,0,0:0:0:0:
127,91,48441,2,0,L|296:64,1,150,0|0,1:0|0:0,0:0:0:0:
284,32,48824,2,0,P|332:48|396:44,1,100,2|0,1:2|0:0,0:0:0:0:
508,192,49206,6,0,P|458:191|411:207,1,100,0|0,1:0|0:0,0:0:0:0:
291,285,49588,2,0,L|269:188,1,100,2|0,1:2|0:0,0:0:0:0:
394,356,49970,2,0,L|414:176,1,150,0|0,1:0|0:0,0:0:0:0:
416,172,50352,1,2,1:2:0:0:
256,72,50543,1,0,0:0:0:0:
328,4,50734,5,0,1:0:0:0:
352,100,50925,1,0,3:0:0:0:
160,100,51117,1,2,1:2:0:0:
172,52,51213,1,0,3:0:0:0:
184,4,51308,1,0,3:0:0:0:
440,75,51499,2,0,L|408:199,1,100,4|0,1:2|1:0,0:0:0:0:
96,171,51881,2,0,L|72:75,1,100,6|0,1:2|3:0,0:0:0:0:
64,40,52167,1,0,3:0:0:0:
64,40,52263,5,4,1:2:0:0:
220,72,52454,1,0,0:0:0:0:
188,227,52645,2,0,P|235:212|285:207,1,100,2|0,1:2|0:0,0:0:0:0:
155,344,53027,2,0,P|90:311|71:241,1,150,0|0,1:0|0:0,0:0:0:0:
84,164,53410,2,0,L|196:140,1,100,2|0,1:2|0:0,0:0:0:0:
391,94,53792,6,0,P|319:111|256:76,1,150,0|0,1:0|0:0,0:0:0:0:
220,8,54174,2,0,L|122:28,1,100,2|0,1:2|0:0,0:0:0:0:
171,237,54556,2,0,P|163:188|180:142,1,100,0|0,1:0|0:0,0:0:0:0:
331,142,54843,1,0,0:0:0:0:
331,142,54938,2,0,P|348:188|340:237,1,100,2|0,1:2|0:0,0:0:0:0:
256,76,55320,5,0,1:0:0:0:
392,32,55511,1,0,0:0:0:0:
476,148,55703,2,0,L|468:256,1,100,2|0,1:2|0:0,0:0:0:0:
192,259,56085,2,0,L|360:235,1,150,0|0,1:0|0:0,0:0:0:0:
346,160,56467,2,0,P|297:155|256:128,1,100,2|0,1:2|0:0,0:0:0:0:
92,276,56849,5,0,1:0:0:0:
156,352,57040,1,0,0:0:0:0:
192,260,57231,1,2,1:2:0:0:
152,128,57422,1,0,0:0:0:0:
20,168,57613,2,0,L|0:336,1,150,0|2,1:0|3:2,0:0:0:0:
59,368,57996,2,0,P|107:352|159:352,1,100,0|2,1:0|1:2,0:0:0:0:
336,208,58378,6,0,P|287:199|250:166,1,100,4|0,1:2|0:0,0:0:0:0:
332,107,58760,1,2,1:2:0:0:
512,148,58951,1,0,0:0:0:0:
388,284,59142,2,0,L|216:300,1,150,0|0,1:0|0:0,0:0:0:0:
164,304,59524,2,0,L|173:204,1,100,2|0,1:2|0:0,0:0:0:0:
184,56,59906,5,0,1:0:0:0:
173,204,60097,1,0,0:0:0:0:
284,36,60288,1,2,1:2:0:0:
84,24,60480,1,0,0:0:0:0:
173,204,60671,2,0,P|240:168|312:180,1,150,0|0,1:0|0:0,0:0:0:0:
364,232,61053,2,0,L|384:340,1,100,2|0,1:2|0:0,0:0:0:0:
476,132,61435,6,0,L|494:33,1,100,0|0,1:0|0:0,0:0:0:0:
279,91,61817,2,0,P|329:92|374:72,1,100,2|0,1:2|0:0,0:0:0:0:
200,31,62199,2,0,P|170:98|206:160,1,150,0|0,1:0|0:0,0:0:0:0:
276,200,62581,2,0,L|374:218,1,100,2|0,1:2|0:0,0:0:0:0:
256,328,62964,5,2,1:2:0:0:
128,264,63155,1,0,3:0:0:0:
128,120,63346,2,0,L|208:80,1,50,2|0,1:2|3:0,0:0:0:0:
256,56,63537,1,0,3:0:0:0:
384,120,63728,5,4,1:0:0:0:
256,328,63919,1,4,1:0:0:0:
128,120,64110,1,4,1:2:0:0:
384,120,64301,2,0,L|339:142,1,50,0|0,1:0|3:0,0:0:0:0:
192,224,64492,5,4,1:2:0:0:
48,284,66021,5,4,1:2:0:0:
192,224,67550,5,4,1:2:0:0:
132,80,69078,5,4,1:2:0:0:
380,80,69843,1,0,1:0:0:0:
372,284,70225,1,2,1:2:0:0:
460,236,70416,1,0,1:0:0:0:
376,180,70607,6,0,P|312:204|264:204,1,100,4|0,3:2|0:0,0:0:0:0:
136,96,70989,2,0,P|181:116|231:121,1,100,2|0,3:2|0:0,0:0:0:0:
38,52,71371,2,0,L|52:152,1,100,0|0,3:0|0:0,0:0:0:0:
128,296,71753,2,0,L|141:196,1,100,2|0,3:2|0:0,0:0:0:0:
208,48,72136,6,0,P|204:97|224:142,1,100,0|0,3:0|0:0,0:0:0:0:
304,335,72518,2,0,P|307:286|287:241,1,100,2|0,3:2|0:0,0:0:0:0:
208,304,72900,1,0,3:0:0:0:
208,304,73091,1,0,0:0:0:0:
400,276,73282,1,2,3:2:0:0:
400,276,73473,1,0,0:0:0:0:
333,142,73664,6,0,L|432:128,1,100,0|0,3:2|0:0,0:0:0:0:
288,52,74046,2,0,L|189:37,1,100,2|0,3:2|0:0,0:0:0:0:
417,33,74429,2,0,P|437:78|432:128,1,100,0|0,3:0|0:0,0:0:0:0:
246,230,74811,2,0,P|226:185|232:136,1,100,2|0,3:2|0:0,0:0:0:0:
308,312,75193,6,0,B|355:310|354:326|406:327,1,100,0|0,3:0|0:0,0:0:0:0:
204,312,75575,2,0,B|156:310|157:326|105:327,1,100,2|0,3:2|0:0,0:0:0:0:
20,216,75957,2,0,L|28:156,1,50,2|0,1:2|0:0,0:0:0:0:
124,112,76148,2,0,L|64:84,1,50,0|0,3:0|0:0,0:0:0:0:
104,244,76339,2,0,L|112:184,1,50,2|0,1:2|0:0,0:0:0:0:
188,52,76531,2,0,L|128:24,1,50,4|0,3:0|0:0,0:0:0:0:
364,280,77868,5,2,3:2:0:0:
148,280,78059,1,0,3:2:0:0:
256,368,78250,5,4,1:2:0:0:
256,192,78441,1,0,0:0:0:0:
256,172,78505,1,0,0:0:0:0:
256,152,78569,1,0,0:0:0:0:
256,132,78632,2,0,B|261:71|252:71|256:12,1,110.000003356934,2|0,1:2|0:0,0:0:0:0:
68,220,79015,2,0,L|13:212,1,55.0000016784668,0|0,1:0|0:0,0:0:0:0:
2,101,79206,2,0,L|56:108,1,55.0000016784668
155,156,79397,2,0,P|168:102|152:51,1,110.000003356934,2|0,1:2|0:0,0:0:0:0:
68,220,79779,5,0,1:0:0:0:
132,307,79970,1,0,0:0:0:0:
152,304,80034,1,0,0:0:0:0:
172,300,80097,1,0,0:0:0:0:
192,296,80161,2,0,L|324:272,1,110.000003356934,2|0,1:2|0:0,0:0:0:0:
390,86,80543,2,0,L|400:32,1,55.0000016784668,0|0,1:0|0:0,0:0:0:0:
498,106,80734,2,0,L|508:51,1,55.0000016784668
425,190,80925,2,0,P|370:194|321:172,1,110.000003356934,2|0,1:2|0:0,0:0:0:0:
188,24,81308,5,0,1:0:0:0:
60,72,81499,1,0,0:0:0:0:
56,92,81562,1,0,0:0:0:0:
52,112,81626,1,0,0:0:0:0:
48,132,81690,2,0,L|20:264,1,110.000003356934,2|0,1:2|0:0,0:0:0:0:
212,204,82072,2,0,L|158:191,1,55.0000016784668,0|0,1:0|0:0,0:0:0:0:
300,288,82263,2,0,L|353:275,1,55.0000016784668
486,239,82454,2,0,L|464:132,1,110.000003356934,2|0,1:2|0:0,0:0:0:0:
256,68,82836,5,0,1:0:0:0:
356,24,83027,1,0,1:0:0:0:
364,68,83123,1,0,0:0:0:0:
356,112,83218,1,2,1:2:0:0:
156,112,83410,1,0,1:0:0:0:
320,216,83601,2,0,L|392:204,1,55.0000016784668,0|0,1:0|0:0,0:0:0:0:
192,216,83792,2,0,L|120:204,1,55.0000016784668,0|0,1:0|0:0,0:0:0:0:
256,368,83983,5,2,1:2:0:0:
301,360,84078,1,0,0:0:0:0:
344,353,84174,1,0,1:0:0:0:
388,346,84269,1,0,0:0:0:0:
432,336,84365,5,4,1:2:0:0:
460,192,84556,1,0,0:0:0:0:
456,172,84620,1,0,0:0:0:0:
452,152,84683,1,0,0:0:0:0:
448,132,84747,2,0,P|392:132|332:104,1,110.000003356934,2|0,1:2|0:0,0:0:0:0:
256,0,85129,2,0,L|320:8,1,55.0000016784668,0|0,1:0|0:0,0:0:0:0:
188,144,85320,2,0,L|133:150,1,55.0000016784668
36,240,85511,6,0,P|24:188|20:116,1,110.000003356934,2|0,1:2|0:0,0:0:0:0:
164,280,85894,1,0,1:0:0:0:
133,150,86085,1,0,0:0:0:0:
128,168,86148,1,0,0:0:0:0:
124,188,86212,1,0,0:0:0:0:
120,208,86276,2,0,L|260:188,1,110.000003356934,2|0,1:2|0:0,0:0:0:0:
336,80,86658,2,0,L|356:28,1,55.0000016784668,0|0,1:0|0:0,0:0:0:0:
413,159,86849,2,0,L|467:151,1,55.0000016784668
352,340,87040,2,0,P|308:308|295:256,1,110.000003356934,2|0,1:2|0:0,0:0:0:0:
336,80,87422,5,0,1:0:0:0:
403,243,87613,1,0,0:0:0:0:
228,220,87804,1,2,1:2:0:0:
256,328,87996,1,0,0:0:0:0:
372,160,88187,5,0,1:0:0:0:
140,160,88378,1,0,0:0:0:0:
40,208,88569,1,2,1:2:0:0:
36,188,88633,1,0,0:0:0:0:
32,168,88697,1,0,0:0:0:0:
28,148,88760,1,0,0:0:0:0:
112,16,88951,5,0,1:0:0:0:
150,214,89142,1,0,1:0:0:0:
112,16,89334,1,2,1:2:0:0:
400,16,89524,1,0,0:0:0:0:
362,214,89715,1,0,1:0:0:0:
400,16,89907,1,2,1:2:0:0:
180,60,90097,5,0,1:0:0:0:
332,60,90288,1,2,1:2:0:0:
256,192,90480,5,4,1:2:0:0:
48,136,90671,1,0,0:0:0:0:
68,132,90734,1,0,0:0:0:0:
88,128,90798,1,0,0:0:0:0:
108,124,90862,2,0,L|88:256,1,110.000003356934,2|0,1:2|0:0,0:0:0:0:
421,232,91244,2,0,L|412:177,1,55.0000016784668,0|0,1:0|0:0,0:0:0:0:
340,354,91435,2,0,L|332:300,1,55.0000016784668
172,354,91626,2,0,L|188:245,1,110.000003356934,2|0,1:2|0:0,0:0:0:0:
340,30,92008,5,0,1:0:0:0:
168,72,92199,1,0,0:0:0:0:
172,88,92263,1,0,0:0:0:0:
176,104,92327,1,0,0:0:0:0:
180,120,92390,1,2,1:2:0:0:
291,200,92581,1,0,0:0:0:0:
340,30,92773,2,0,L|280:16,1,55.0000016784668,0|0,1:0|0:0,0:0:0:0:
402,141,92964,2,0,L|462:127,1,55.0000016784668
280,304,93155,2,0,P|272:250|291:199,1,110.000003356934,2|0,1:2|0:0,0:0:0:0:
512,288,93537,5,0,1:0:0:0:
380,260,93728,1,0,0:0:0:0:
470,159,93919,1,2,1:2:0:0:
475,176,93982,1,0,0:0:0:0:
481,193,94046,1,0,0:0:0:0:
486,211,94110,1,0,0:0:0:0:
256,112,94301,5,0,1:0:0:0:
444,76,94492,1,0,0:0:0:0:
400,84,94588,1,0,0:0:0:0:
356,92,94683,1,2,1:2:0:0:
256,112,94874,1,0,0:0:0:0:
380,260,95066,5,0,1:0:0:0:
168,220,95257,1,0,1:0:0:0:
212,228,95353,1,0,0:0:0:0:
256,236,95448,1,2,1:2:0:0:
116,340,95639,1,0,1:0:0:0:
38,234,95830,2,0,L|28:160,1,55.0000016784668,0|0,1:0|0:0,0:0:0:0:
70,78,96021,2,0,L|16:68,1,55.0000016784668,0|0,1:0|0:0,0:0:0:0:
180,96,96212,5,2,1:2:0:0:
212,64,96308,1,0,0:0:0:0:
256,52,96403,1,0,1:0:0:0:
300,64,96499,1,0,0:0:0:0:
332,96,96594,5,4,1:2:0:0:
256,228,96785,1,0,0:0:0:0:
236,232,96849,1,0,0:0:0:0:
216,236,96913,1,0,0:0:0:0:
196,240,96976,2,0,P|136:208|92:192,1,110.000003356934,2|0,1:2|0:0,0:0:0:0:
396,301,97359,2,0,P|405:275|411:248,1,55.0000016784668,0|0,1:0|0:0,0:0:0:0:
256,72,97550,2,0,L|256:127,1,55.0000016784668
116,301,97741,2,0,P|100:241|96:177,1,110.000003356934,2|0,1:2|0:0,0:0:0:0:
348,80,98123,5,0,1:0:0:0:
256,240,98314,1,0,0:0:0:0:
236,236,98378,1,0,0:0:0:0:
216,232,98441,1,0,0:0:0:0:
196,228,98505,1,2,1:2:0:0:
328,324,98696,1,0,0:0:0:0:
220,344,98887,2,0,L|166:333,1,55.0000016784668,0|0,1:0|0:0,0:0:0:0:
364,220,99078,2,0,L|417:209,1,55.0000016784668
256,64,99269,2,0,P|204:88|144:84,1,110.000003356934,2|0,1:2|0:0,0:0:0:0:
32,196,99652,5,0,1:0:0:0:
56,32,99843,1,0,0:0:0:0:
128,250,100034,1,2,1:2:0:0:
152,86,100225,1,0,0:0:0:0:
32,196,100416,1,0,1:0:0:0:
195,176,100607,2,0,P|221:165|248:160,1,55.0000016784668
56,100,100798,1,2,1:2:0:0:
128,250,100989,1,0,0:0:0:0:
384,250,101180,5,0,1:0:0:0:
452,136,101371,1,0,1:0:0:0:
384,20,101562,1,2,1:2:0:0:
128,20,101753,1,0,1:0:0:0:
60,136,101944,1,0,1:0:0:0:
128,250,102135,1,0,1:0:0:0:
323,171,102327,5,2,1:2:0:0:
329,128,102423,1,0,0:0:0:0:
319,86,102518,1,0,1:0:0:0:
293,50,102614,1,0,0:0:0:0:
256,28,102709,6,0,P|192:64|100:48,1,160,4|0,3:2|0:0,0:0:0:0:
36,108,103282,2,0,L|28:160,1,40,2|0,0:0|0:0,0:0:0:0:
97,317,103473,2,0,L|256:296,1,160
296,216,104046,6,0,P|276:214|257:208,1,40,2|0,0:2|0:0,0:0:0:0:
255,88,104238,2,0,P|332:100|396:55,1,160,0|2,0:0|0:0,0:0:0:0:
308,0,104811,1,0,0:0:0:0:
152,104,105002,6,0,L|100:96,2,53.3333333333333,8|8|8,3:0|3:0|3:0,0:0:0:0:
136,212,105384,2,0,L|84:204,2,53.3333333333333,4|4|4,3:0|3:0|3:0,0:0:0:0:
256,328,105766,6,0,B|236:260|280:240|256:168,1,160,4|0,3:2|0:0,0:0:0:0:
256,56,106339,1,2,0:0:0:0:
256,56,106435,1,0,0:0:0:0:
256,56,106531,1,0,0:0:0:0:
384,12,106722,1,0,0:0:0:0:
468,120,106913,1,2,0:0:0:0:
388,232,107104,1,0,0:0:0:0:
256,192,107295,6,0,P|296:156|340:140,1,100
84,72,107695,1,2,0:0:0:0:
188,104,107895,1,0,0:0:0:0:
152,272,108095,6,0,P|79:279|24:232,1,150,4|0,3:2|2:0,0:0:0:0:
120,147,108523,1,4,3:2:0:0:
392,147,109557,5,2,0:0:0:0:
392,147,109764,1,0,0:0:0:0:
132,246,110178,6,0,L|120:142,1,100
232,280,110606,6,0,L|216:134,1,100,2|0,0:0|0:0,0:0:0:0:
332,314,111050,6,0,L|316:168,1,100
436,4,111511,5,2,3:2:0:0:
452,144,111751,2,0,L|457:193,1,50,0|0,3:0|3:0,0:0:0:0:
281,115,111991,5,2,3:2:0:0:
256,192,112116,12,0,121991,2:0:0:0:
