osu file format v14

[General]
AudioFilename: audio.mp3
AudioLeadIn: 0
PreviewTime: 77868
Countdown: 0
SampleSet: Soft
StackLeniency: 0.5
Mode: 0
LetterboxInBreaks: 0
WidescreenStoryboard: 1

[Editor]
DistanceSpacing: 0.6
BeatDivisor: 6
GridSize: 8
TimelineZoom: 1

[Metadata]
Title:AsiaN distractive
TitleUnicode:AsiaN distractive
Artist:Nekomata Gekidan
ArtistUnicode:猫叉劇団
Creator:Regou
Version:1112's Light Insane
Source:beatmania IIDX 24 SINOBUZ
Tags:Pending cup #5 yf_bmp gary00737 Chaoslitz StarrStyx 09kami Frey Suzuki_1112 Dailycare 1112deng Master
BeatmapID:1420020
BeatmapSetID:657122

[Difficulty]
HPDrainRate:5.7
CircleSize:4
OverallDifficulty:7.3
ApproachRate:9
SliderMultiplier:1.6
SliderTickRate:1

[Events]
//Background and Video events
0,0,"1112.jpg",0,0
//Break Periods
//Storyboard Layer 0 (Background)
//Storyboard Layer 1 (Fail)
//Storyboard Layer 2 (Pass)
//Storyboard Layer 3 (Foreground)
//Storyboard Sound Samples

[TimingPoints]
289,382.165605095541,4,2,87,85,1,0
4110,-133.333333333333,4,2,87,85,0,0
4492,-181.818181818181,4,2,87,85,0,0
5257,-100,4,2,87,85,0,0
7550,-133.333333333333,4,2,87,85,0,0
9460,-100,4,2,87,85,0,0
10607,-133.333333333333,4,2,87,85,0,0
12136,-100,4,2,87,85,0,0
19397,-71.4285714285714,4,2,87,85,0,0
19779,-83.3333333333333,4,2,87,85,0,0
25511,-71.4285714285714,4,2,87,85,0,0
26276,-83.3333333333333,4,2,87,85,0,0
64492,-100,4,2,87,85,0,0
65066,-100,4,2,89,85,0,0
69843,-100,4,2,89,85,0,0
70607,-83.3333333333333,4,2,87,85,0,0
77486,-83.3333333333333,4,2,89,85,0,0
78250,-71.4285714285714,4,2,87,85,0,1
102709,-200,4,2,87,85,0,0
107295,400,4,2,87,85,1,0
108095,428.571428571429,4,2,87,85,1,0
108523,413.793103448276,4,2,87,85,1,0
108523,-200,4,2,87,85,0,0
110178,428.571428571429,4,2,87,85,1,0
110606,444.444444444444,4,2,87,85,1,0
111050,461.538461538462,4,2,87,85,1,0
111511,480,4,2,87,85,1,0
111991,500,4,2,87,85,1,0
112116,-100,4,2,78,75,0,0
114991,-100,4,2,78,53,0,0
116991,-100,4,2,78,35,0,0
119491,-100,4,2,78,16,0,0
121991,-100,4,2,78,5,0,0

[Colours]
Combo1 : 255,253,170
Combo2 : 255,170,255
Combo3 : 170,255,255
Combo4 : 185,255,170

[HitObjects]
169,164,1053,6,0,L|164:124,1,40,2|2,0:0|0:0,0:0:0:0:
69,23,1244,2,0,L|74:63,1,40,2|2,0:0|0:0,0:0:0:0:
194,43,1435,2,0,L|155:48,1,40,2|2,0:0|0:0,0:0:0:0:
37,153,1626,1,2,0:0:0:0:
57,151,1721,1,2,0:0:0:0:
81,148,1817,6,0,B|72:214|72:214|89:248|89:248|75:324,1,160,12|0,1:0|0:0,0:0:0:0:
179,378,2390,2,0,L|186:313,1,40,0|0,0:0|0:0,0:0:0:0:
260,281,2581,1,0,0:0:0:0:
260,281,3155,2,0,L|253:216,1,40,0|0,2:0|3:0,0:0:0:0:
179,184,3346,5,0,0:0:0:0:
179,184,3728,2,0,L|198:110,2,53.3333333333333,2|2|2,0:0|0:0|0:0,0:0:0:0:
96,206,4110,6,0,L|88:143,2,40.000001525879,2|2|2,0:0|0:0|0:0,0:0:0:0:
38,267,4492,6,0,L|14:233,2,29.3333342285157,2|2|2,0:0|0:0|0:0,0:0:0:0:
39,353,4874,5,12,1:0:0:0:
39,353,5448,2,0,L|-6:345,1,40,0|0,0:0|0:0,0:0:0:0:
121,315,5639,1,2,1:0:0:0:
220,338,5830,1,0,0:0:0:0:
292,235,6021,1,2,1:0:0:0:
391,258,6212,1,0,0:0:0:0:
380,230,6403,5,2,1:0:0:0:
281,207,6594,1,0,0:0:0:0:
242,318,6785,1,2,1:0:0:0:
143,295,6976,1,0,0:0:0:0:
133,175,7167,6,0,L|144:315,1,120,8|0,1:0|0:0,0:0:0:0:
67,298,7550,2,0,B|228:265|183:412|358:361,1,300.000011444092,4|0,1:0|0:0,0:0:0:0:
401,302,8696,1,4,0:0:0:0:
416,321,9078,1,0,0:0:0:0:
439,211,9269,1,0,0:0:0:0:
465,102,9460,6,0,L|368:117,1,80,4|0,0:0|0:0,0:0:0:0:
392,80,9747,1,0,0:0:0:0:
397,48,9843,2,0,L|301:61,1,80,4|0,0:0|0:0,0:0:0:0:
299,162,10225,6,0,L|381:153,1,80,8|0,0:1|0:0,0:0:0:0:
389,189,10511,1,0,0:0:0:0:
406,227,10607,6,0,B|202:244|202:244|143:173|143:173|270:164,1,420.000016021729,4|0,1:0|0:0,0:0:0:0:
265,164,12136,1,2,1:0:0:0:
252,91,12327,1,0,0:0:0:0:
232,17,12518,5,2,1:0:0:0:
192,144,12709,1,0,0:0:0:0:
153,262,12900,5,2,1:0:0:0:
111,116,13091,1,0,0:0:0:0:
12,198,13282,2,0,P|56:205|97:179,1,80,8|0,1:0|0:0,0:0:0:0:
260,287,13664,2,0,P|194:291|139:238,1,120,2|0,0:0|0:0,0:0:0:0:
152,261,14046,6,0,B|173:298|173:298|158:381,1,120,12|0,1:0|0:0,0:0:0:0:
290,305,14620,2,0,L|341:300,1,40,0|0,0:0|0:0,0:0:0:0:
396,260,14811,2,0,B|417:297|417:297|402:380,1,120,6|4,0:0|0:0,0:0:0:0:
510,192,15384,2,0,L|459:187,1,40,4|0,0:0|0:0,0:0:0:0:
404,147,15575,2,0,B|382:184|382:184|397:267,1,120,8|0,1:0|0:0,0:0:0:0:
298,139,16148,2,0,L|247:134,1,40
192,94,16339,2,0,B|170:131|170:131|185:214,1,120,2|0,0:0|0:0,0:0:0:0:
190,280,16722,5,4,1:0:0:0:
281,260,16913,1,0,0:0:0:0:
196,306,17104,1,8,0:0:0:0:
93,295,17295,1,0,0:0:0:0:
201,329,17486,5,0,0:0:0:0:
285,281,17677,2,0,L|343:272,1,40,0|0,0:0|0:0,0:0:0:0:
283,372,17868,1,8,0:0:0:0:
270,268,18059,1,0,0:0:0:0:
256,174,18250,1,2,0:0:0:0:
242,81,18441,1,0,0:0:0:0:
372,117,18632,6,0,L|313:119,1,40,8|0,0:0|0:0,0:0:0:0:
242,81,18824,2,0,L|178:82,1,40,8|0,0:0|0:0,0:0:0:0:
121,133,19015,2,0,L|14:137,1,80,0|0,0:0|0:0,0:0:0:0:
54,252,19397,6,0,B|81:235|87:198|87:198|117:172|161:175|205:206,1,167.999994873047,8|0,1:0|0:0,0:0:0:0:
183,192,19779,6,0,P|196:248|231:278,1,95.9999970703126,4|0,1:0|0:0,0:0:0:0:
287,108,20161,2,0,L|262:221,1,95.9999970703126,12|0,0:0|0:0,0:0:0:0:
330,31,20543,2,0,P|361:65|369:112,1,95.9999970703126,2|0,0:0|0:0,0:0:0:0:
370,190,20830,1,0,0:0:0:0:
370,190,20925,6,0,L|487:167,1,95.9999970703126,8|0,0:0|0:0,0:0:0:0:
504,259,21212,1,0,0:0:0:0:
504,259,21308,2,0,P|520:329|497:370,1,95.9999970703126,2|0,0:0|0:0,0:0:0:0:
416,384,21594,1,0,0:0:0:0:
416,384,21690,6,0,L|299:361,1,95.9999970703126,8|0,0:0|0:0,0:0:0:0:
277,298,21976,1,0,0:0:0:0:
277,298,22072,2,0,L|150:321,1,95.9999970703126,2|0,0:0|0:0,0:0:0:0:
76,325,22359,1,0,0:0:0:0:
76,325,22454,2,0,B|51:251|51:251|74:178,1,143.999995605469,8|0,1:0|0:0,0:0:0:0:
70,188,22836,6,0,P|145:185|186:155,1,95.9999970703126,4|4,1:0|0:0,0:0:0:0:
144,29,23218,2,0,P|69:32|28:62,1,95.9999970703126,8|4,0:0|0:0,0:0:0:0:
226,115,23601,2,0,L|239:7,1,95.9999970703126,2|0,0:0|0:0,0:0:0:0:
319,26,23887,1,0,0:0:0:0:
319,26,23983,6,0,L|307:121,1,95.9999970703126,12|0,0:0|0:0,0:0:0:0:
399,38,24365,2,0,L|387:133,1,95.9999970703126,12|0,0:0|0:0,0:0:0:0:
393,159,24652,1,0,0:0:0:0:
406,187,24747,6,0,L|393:262,1,47.9999985351563,6|0,0:0|0:0,0:0:0:0:
290,349,24938,2,0,L|307:271,1,47.9999985351563,12|0,0:0|0:0,0:0:0:0:
429,337,25129,2,0,L|371:322,1,47.9999985351563,6|0,0:0|0:0,0:0:0:0:
269,209,25320,2,0,L|328:222,1,47.9999985351563,12|0,0:0|0:0,0:0:0:0:
230,275,25511,6,0,B|136:247|164:331|37:281,1,167.999994873047,2|0,3:0|0:0,0:0:0:0:
58,206,25894,2,0,B|156:237|121:148|256:202,1,167.999994873047,2|0,3:0|0:0,0:0:0:0:
256,201,26276,6,0,B|227:134|227:134|275:43,1,143.999995605469,12|0,1:0|0:0,0:0:0:0:
285,31,26658,2,0,L|172:41,1,95.9999970703126,8|0,0:0|0:0,0:0:0:0:
76,38,27040,5,2,0:0:0:0:
76,38,27136,2,0,B|52:72|52:72|63:167,1,95.9999970703126
58,126,27422,1,8,0:0:0:0:
114,215,27613,2,0,L|103:270,1,47.9999985351563
28,361,27804,6,0,B|91:353|91:353|122:363|122:363|184:356,1,143.999995605469,2|0,0:0|0:0,0:0:0:0:
201,380,28187,2,0,P|260:385|314:351,1,95.9999970703126,8|0,0:0|0:0,0:0:0:0:
370,248,28569,5,2,0:0:0:0:
370,248,28664,2,0,B|394:279|394:279|388:364,1,95.9999970703126,0|0,0:0|0:0,0:0:0:0:
386,363,28951,2,0,L|446:358,1,47.9999985351563,8|0,0:0|0:0,0:0:0:0:
487,263,29142,2,0,P|491:222|482:190,1,47.9999985351563,0|0,0:0|0:0,0:0:0:0:
468,127,29333,6,0,P|420:138|367:193,1,95.9999970703126,6|0,0:0|0:0,0:0:0:0:
354,159,29620,2,0,P|343:111|288:58,1,95.9999970703126,4|0,0:0|0:0,0:0:0:0:
323,52,29906,2,0,P|371:41|424:-14,1,95.9999970703126,12|0,0:0|0:0,0:0:0:0:
437,20,30193,2,0,P|448:68|503:121,1,95.9999970703126,4|0,0:0|0:0,0:0:0:0:
468,127,30480,2,0,P|420:138|367:193,1,95.9999970703126,6|0,0:0|0:0,0:0:0:0:
321,262,30862,6,0,P|328:293|324:337,1,47.9999985351563,2|2,0:0|0:0,0:0:0:0:
247,339,31053,2,0,P|240:308|244:264,1,47.9999985351563,2|2,0:0|0:0,0:0:0:0:
257,208,31244,1,2,0:0:0:0:
146,351,31435,6,0,B|76:364|76:364|9:338,1,143.999995605469,8|0,1:0|0:0,0:0:0:0:
30,175,32008,2,0,B|65:179|98:151|98:151|115:181|162:194,1,143.999995605469,8|0,3:0|0:0,0:0:0:0:
191,242,32390,6,0,P|174:178|209:103,1,143.999995605469,12|0,1:0|0:0,0:0:0:0:
206,83,32773,2,0,P|271:117|308:113,1,95.9999970703126,8|0,0:0|0:0,0:0:0:0:
411,77,33155,5,2,0:0:0:0:
411,77,33250,2,0,B|417:119|417:119|409:136|409:136|419:204,1,95.9999970703126
414,170,33537,1,8,0:0:0:0:
375,302,33728,1,0,0:0:0:0:
363,325,33824,1,0,0:0:0:0:
349,348,33919,6,0,P|278:301|210:318,1,143.999995605469,2|0,0:0|0:0,0:0:0:0:
198,318,34301,2,0,P|228:259|221:212,1,95.9999970703126,8|0,0:0|0:0,0:0:0:0:
224,141,34683,5,2,0:0:0:0:
224,141,34779,1,0,0:0:0:0:
224,141,34874,2,0,B|181:137|181:137|169:127|169:127|101:121,1,95.9999970703126,0|8,0:0|0:0,0:0:0:0:
62,199,35257,2,0,L|67:265,1,47.9999985351563,0|0,0:0|0:0,0:0:0:0:
57,336,35448,5,6,0:0:0:0:
161,315,35639,2,0,L|152:373,2,47.9999985351563,0|0|12,0:0|0:0|0:0,0:0:0:0:
263,300,36021,2,0,L|254:358,2,47.9999985351563,0|0|6,0:0|0:0|0:0,0:0:0:0:
362,277,36403,2,0,L|353:335,2,47.9999985351563,0|0|12,0:0|0:0|0:0,0:0:0:0:
463,261,36785,2,0,L|454:319,1,47.9999985351563,0|0,0:0|0:0,0:0:0:0:
396,364,36976,5,2,0:0:0:0:
371,348,37072,1,2,0:0:0:0:
354,324,37167,1,2,0:0:0:0:
346,295,37263,1,2,0:0:0:0:
348,266,37359,1,8,0:0:0:0:
358,239,37454,1,2,0:0:0:0:
379,219,37550,5,8,1:0:0:0:
256,192,37645,12,0,39269,0:0:0:0:
250,140,39652,6,0,L|145:139,1,95.9999970703126
70,86,40034,5,12,1:0:0:0:
141,231,40225,2,0,P|150:290|132:344,2,95.9999970703126,0|8|0,0:0|0:0|0:0,0:0:0:0:
70,86,40798,2,0,B|143:76|143:76|187:99|187:99|280:85,1,191.999994140625,2|8,0:0|0:0,0:0:0:0:
316,31,41371,1,0,0:0:0:0:
421,128,41562,6,0,P|435:187|422:217,2,95.9999970703126,2|0|8,0:0|0:0|0:0,0:0:0:0:
316,31,42136,1,0,0:0:0:0:
298,166,42327,2,0,L|303:273,1,95.9999970703126,2|0,0:0|0:0,0:0:0:0:
361,332,42709,2,0,B|291:318|291:318|246:347|246:347|157:332,1,191.999994140625,8|2,0:0|0:0,0:0:0:0:
50,279,43282,6,0,P|41:326|66:392,2,95.9999970703126,0|8|0,0:0|0:0|0:0,0:0:0:0:
0,192,43855,2,0,P|53:248|166:239,1,191.999994140625,0|8,0:0|0:0,0:0:0:0:
211,180,44429,1,0,0:0:0:0:
145,75,44620,6,0,B|127:122|127:122|142:192,2,95.9999970703126,2|2|8,0:0|3:0|0:0,0:0:0:0:
238,34,45193,1,2,3:0:0:0:
321,116,45384,2,0,P|258:73|138:79,1,191.999994140625,2|8,0:0|0:0,0:0:0:0:
63,132,45957,1,4,0:0:0:0:
63,132,46053,1,0,0:0:0:0:
63,132,46148,6,0,P|71:191|68:250,1,95.9999970703126,12|0,1:0|0:0,0:0:0:0:
206,352,46531,2,0,P|217:287|247:220,1,95.9999970703126,8|0,0:0|0:0,0:0:0:0:
162,160,46913,2,0,P|212:227|328:224,1,191.999994140625,2|8,0:0|0:0,0:0:0:0:
338,136,47486,1,0,0:0:0:0:
400,207,47677,5,2,0:0:0:0:
478,233,47868,1,0,0:0:0:0:
410,299,48059,1,8,0:0:0:0:
461,138,48250,1,0,0:0:0:0:
340,49,48441,2,0,P|391:91|517:105,1,191.999994140625,2|8,0:0|0:0,0:0:0:0:
478,25,49015,1,0,0:0:0:0:
340,49,49206,6,0,P|355:97|344:163,1,95.9999970703126,2|0,0:0|0:0,0:0:0:0:
292,218,49588,1,8,0:0:0:0:
199,182,49779,1,0,0:0:0:0:
351,141,49970,2,0,B|405:135|405:135|441:158|441:158|517:149,1,143.999995605469,2|0,0:0|0:0,0:0:0:0:
487,152,50352,2,0,P|469:198|469:270,1,95.9999970703126,8|0,0:0|0:0,0:0:0:0:
458,337,50734,5,2,0:0:0:0:
309,359,50925,1,8,0:0:0:0:
369,236,51117,1,8,0:0:0:0:
369,236,51212,1,8,0:0:0:0:
369,236,51308,1,2,0:0:0:0:
288,365,51499,6,0,B|247:309|247:309|276:213,1,143.999995605469,12|0,1:0|0:0,0:0:0:0:
279,215,51881,2,0,B|196:249|231:168|111:216,1,143.999995605469,12|0,1:0|0:0,0:0:0:0:
69,234,52263,5,12,1:0:0:0:
69,234,52454,2,0,P|92:194|68:127,1,95.9999970703126,0|8,0:0|0:0,0:0:0:0:
134,25,52836,1,0,0:0:0:0:
44,67,53027,2,0,B|116:63|116:63|158:87|158:87|266:82,1,191.999994140625,2|8,0:0|0:0,0:0:0:0:
293,27,53601,1,0,0:0:0:0:
416,110,53792,6,0,P|446:176|409:298,1,191.999994140625,2|8,0:0|0:0,0:0:0:0:
322,315,54365,1,0,0:0:0:0:
196,231,54556,6,0,P|261:224|301:198,1,95.9999970703126,2|0,0:0|0:0,0:0:0:0:
260,109,54938,2,0,P|195:116|155:142,1,95.9999970703126,8|0,0:0|0:0,0:0:0:0:
94,202,55320,5,2,0:0:0:0:
189,326,55511,2,0,L|196:223,1,95.9999970703126,0|8,0:0|0:0,0:0:0:0:
168,130,55894,1,0,0:0:0:0:
44,77,56085,2,0,B|121:70|121:70|159:90|159:90|239:81,1,191.999994140625,2|8,0:0|0:0,0:0:0:0:
301,20,56658,1,0,0:0:0:0:
413,93,56849,6,0,L|529:84,1,95.9999970703126,2|2,0:0|3:0,0:0:0:0:
512,246,57231,2,0,L|416:253,1,95.9999970703126,8|2,0:0|3:0,0:0:0:0:
291,131,57613,2,0,P|285:169|295:200,1,47.9999985351563,2|0,0:0|0:0,0:0:0:0:
321,256,57804,2,0,P|323:282|316:314,1,47.9999985351563,4|0,0:0|0:0,0:0:0:0:
260,363,57996,1,8,0:0:0:0:
231,355,58091,1,0,0:0:0:0:
204,348,58187,1,4,0:0:0:0:
117,349,58378,5,12,1:0:0:0:
41,384,58569,2,0,P|28:321|42:277,1,95.9999970703126,0|8,0:0|0:0,0:0:0:0:
100,211,58951,1,0,0:0:0:0:
39,130,59142,2,0,B|114:120|114:120|151:145|151:145|243:131,1,191.999994140625,2|8,0:0|0:0,0:0:0:0:
280,63,59715,1,0,0:0:0:0:
423,138,59906,5,2,0:0:0:0:
367,60,60097,1,0,0:0:0:0:
331,139,60288,1,8,0:0:0:0:
448,50,60480,1,0,0:0:0:0:
280,63,60671,2,0,P|329:133|303:242,1,191.999994140625,2|8,0:0|0:0,0:0:0:0:
231,252,61244,1,0,0:0:0:0:
127,224,61435,5,2,0:0:0:0:
83,318,61626,2,0,B|156:311|156:311|194:342|194:342|289:333,1,191.999994140625,0|0,0:0|0:0,0:0:0:0:
363,340,62199,2,0,B|392:256|392:256|349:126,1,191.999994140625,2|8,0:0|0:0,0:0:0:0:
296,96,62773,1,0,0:0:0:0:
184,180,62964,6,0,P|233:186|289:176,1,95.9999970703126,8|2,0:0|0:0,0:0:0:0:
79,145,63346,1,8,0:0:0:0:
73,174,63441,1,8,0:0:0:0:
77,207,63537,1,2,0:0:0:0:
236,275,63728,6,0,L|311:270,1,47.9999985351563,8|0,1:0|0:0,0:0:0:0:
354,352,63919,2,0,L|291:357,1,47.9999985351563,0|0,0:0|0:0,0:0:0:0:
172,342,64110,2,0,P|145:284|160:226,1,95.9999970703126,8|0,1:0|0:0,0:0:0:0:
156,230,64397,1,0,0:0:0:0:
165,205,64492,5,8,3:0:0:0:
271,128,65065,1,2,0:0:0:0:
296,119,65161,1,0,0:0:0:0:
321,110,65257,2,0,L|304:208,1,80,2|0,0:0|0:0,0:0:0:0:
245,247,65639,2,0,L|265:343,1,80,2|0,0:0|0:0,0:0:0:0:
420,296,66021,5,0,1:0:0:0:
336,275,66212,1,0,0:0:0:0:
439,215,66403,1,0,0:0:0:0:
505,309,66594,1,0,0:0:0:0:
439,215,66785,1,2,0:0:0:0:
321,139,67167,2,0,L|382:141,1,40,2|0,0:0|0:0,0:0:0:0:
478,217,67359,2,0,L|404:213,1,40,2|0,0:0|0:0,0:0:0:0:
369,30,67550,5,4,0:0:0:0:
219,102,68123,1,2,0:0:0:0:
209,75,68218,1,0,0:0:0:0:
199,52,68314,2,0,L|115:65,1,80,2|0,0:0|0:0,0:0:0:0:
52,166,68696,2,0,L|152:175,1,80,2|0,0:0|0:0,0:0:0:0:
149,188,68983,1,0,0:0:0:0:
165,205,69078,5,0,1:0:0:0:
256,258,69269,1,0,0:0:0:0:
298,168,69460,1,0,0:0:0:0:
263,279,69652,1,0,0:0:0:0:
181,220,69843,2,0,L|169:56,1,160,0|0,1:0|1:0,0:0:0:0:
85,44,70416,1,0,1:0:0:0:
28,122,70607,6,0,P|89:142|138:126,1,95.9999970703126,12|0,1:0|0:0,0:0:0:0:
169,60,70989,2,0,L|275:52,1,95.9999970703126,8|0,0:0|0:0,0:0:0:0:
283,44,71276,1,0,0:0:0:0:
301,34,71371,6,0,P|314:93|302:141,1,95.9999970703126,2|0,0:0|0:0,0:0:0:0:
211,156,71753,2,0,L|218:260,1,95.9999970703126,8|0,0:0|0:0,0:0:0:0:
238,272,72040,1,0,0:0:0:0:
257,288,72136,6,0,P|316:293|372:263,1,95.9999970703126,2|0,0:0|0:0,0:0:0:0:
415,180,72518,2,0,L|411:82,1,95.9999970703126,8|0,0:0|0:0,0:0:0:0:
301,34,72900,2,0,B|358:29|358:29|386:43|386:43|471:32,1,143.999995605469,2|0,0:0|0:0,0:0:0:0:
441,35,73282,1,8,0:0:0:0:
493,117,73473,1,8,0:0:0:0:
415,180,73664,6,0,L|235:162,1,143.999995605469,6|0,0:0|0:0,0:0:0:0:
249,186,74046,2,0,P|269:132|245:85,1,95.9999970703126,12|0,0:0|0:0,0:0:0:0:
234,81,74333,1,0,0:0:0:0:
212,60,74429,6,0,L|32:78,1,143.999995605469,6|0,0:0|0:0,0:0:0:0:
46,54,74811,2,0,P|66:108|42:155,1,95.9999970703126,12|0,0:0|0:0,0:0:0:0:
31,159,75098,1,0,0:0:0:0:
11,174,75193,6,0,P|1:244|37:292,1,95.9999970703126,12|8,1:0|0:0,0:0:0:0:
77,333,75480,1,0,0:0:0:0:
77,333,75575,2,0,L|207:320,1,95.9999970703126,2|8,0:0|0:0,0:0:0:0:
317,287,75957,6,0,L|305:349,1,47.9999985351563,2|0,0:0|0:0,0:0:0:0:
414,224,76148,2,0,L|476:236,1,47.9999985351563,2|0,0:0|0:0,0:0:0:0:
350,127,76339,2,0,L|362:65,1,47.9999985351563,10|0,0:0|0:0,0:0:0:0:
249,186,76531,2,0,L|187:174,1,47.9999985351563,10|10,0:0|0:0,0:0:0:0:
256,192,76722,12,0,77868,0:0:0:0:
64,95,78250,5,12,1:0:0:0:
153,208,78441,2,0,L|160:153,3,37.3333321940105,0|0|0|8,0:0|0:0|0:0|0:0,0:0:0:0:
220,315,78824,1,0,0:0:0:0:
276,221,79015,2,0,B|298:145|298:145|270:51,1,167.999994873047,2|0,0:0|0:0,0:0:0:0:
272,59,79397,1,8,0:0:0:0:
175,40,79588,1,0,0:0:0:0:
51,88,79779,5,2,0:0:0:0:
146,209,79970,2,0,L|153:150,3,37.3333321940105,0|0|0|8,0:0|0:0|0:0|0:0,0:0:0:0:
217,323,80353,1,0,0:0:0:0:
276,221,80543,2,0,B|298:145|298:145|270:51,1,167.999994873047,2|0,0:0|0:0,0:0:0:0:
272,59,80926,1,8,0:0:0:0:
175,40,81117,1,0,0:0:0:0:
33,79,81308,5,2,0:0:0:0:
136,210,81499,2,0,L|144:146,3,37.3333321940105,0|0|0|8,0:0|0:0|0:0|0:0,0:0:0:0:
214,334,81882,1,0,0:0:0:0:
276,221,82072,2,0,B|298:145|298:145|270:51,1,167.999994873047,2|0,0:0|0:0,0:0:0:0:
272,59,82455,1,8,0:0:0:0:
168,26,82646,1,0,0:0:0:0:
74,177,82836,6,0,L|83:296,1,111.999996582031,2|8,0:0|0:0,0:0:0:0:
72,314,83123,1,0,0:0:0:0:
55,332,83218,2,0,P|129:349|175:335,1,111.999996582031,2|8,0:0|0:0,0:0:0:0:
281,366,83601,2,0,B|305:293|305:293|276:168,1,167.999994873047,2|0,0:0|0:0,0:0:0:0:
241,127,83983,2,0,L|310:123,1,55.9999982910157,8|0,0:0|0:0,0:0:0:0:
368,182,84174,2,0,L|445:178,1,55.9999982910157,0|0,0:0|0:0,0:0:0:0:
490,110,84365,5,12,1:0:0:0:
371,67,84556,2,0,L|381:16,3,37.3333321940105,0|0|0|8,0:0|0:0|0:0|0:0,0:0:0:0:
368,182,84938,1,0,0:0:0:0:
208,172,85129,2,0,B|273:165|273:165|306:189|306:189|391:179,1,167.999994873047,2|0,0:0|0:0,0:0:0:0:
368,182,85511,1,8,0:0:0:0:
494,244,85703,1,0,0:0:0:0:
490,110,85894,5,2,0:0:0:0:
371,67,86085,2,0,L|381:16,3,37.3333321940105,0|0|0|8,0:0|0:0|0:0|0:0,0:0:0:0:
368,182,86467,1,0,0:0:0:0:
208,172,86658,2,0,B|273:165|273:165|306:189|306:189|391:179,1,167.999994873047,2|0,0:0|0:0,0:0:0:0:
368,182,87040,2,0,P|340:272|361:347,1,167.999994873047,8|0,0:0|0:0,0:0:0:0:
357,341,87422,5,2,0:0:0:0:
211,280,87613,2,0,P|265:284|326:268,1,111.999996582031,0|8,0:0|0:0,0:0:0:0:
368,182,87996,1,0,0:0:0:0:
292,68,88187,2,0,P|277:131|291:188,1,111.999996582031,2|0,0:0|0:0,0:0:0:0:
454,186,88569,2,0,L|461:136,3,37.3333321940105,8|0|0|0,0:0|0:0|0:0|0:0,0:0:0:0:
285,176,88951,5,0,0:0:0:0:
183,187,89142,2,0,L|172:137,3,37.3333321940105,8|0|0|2,0:0|0:0|0:0|0:0,0:0:0:0:
236,259,89524,1,8,0:0:0:0:
289,332,89715,2,0,L|283:384,3,37.3333321940105,2|0|0|8,0:0|0:0|0:0|0:0,0:0:0:0:
417,366,90097,2,0,B|435:328|435:328|427:235,1,111.999996582031,8|8,0:0|0:0,0:0:0:0:
424,88,90480,5,12,1:0:0:0:
359,208,90671,2,0,L|352:153,3,37.3333321940105,2|0|0|8,3:0|0:0|0:0|0:0,0:0:0:0:
292,315,91054,1,2,3:0:0:0:
236,221,91245,2,0,B|214:145|214:145|242:51,1,167.999994873047,2|0,0:0|0:0,0:0:0:0:
240,59,91627,1,8,0:0:0:0:
337,40,91818,1,2,3:0:0:0:
441,76,92009,5,2,0:0:0:0:
370,209,92200,2,0,L|362:148,3,37.3333321940105,2|0|0|8,3:0|0:0|0:0|0:0,0:0:0:0:
295,328,92581,1,2,3:0:0:0:
236,221,92773,2,0,B|214:145|214:145|242:51,1,167.999994873047,2|0,0:0|0:0,0:0:0:0:
240,59,93155,1,8,0:0:0:0:
345,23,93347,1,4,3:0:0:0:
464,63,93537,5,2,0:0:0:0:
508,180,93728,1,2,3:0:0:0:
383,211,93919,2,0,L|378:154,3,37.3333321940105,0|0|0|2,0:0|0:0|0:0|3:0,0:0:0:0:
236,221,94301,2,0,B|214:145|214:145|235:79,1,111.999996582031,2|2,0:0|3:0,0:0:0:0:
232,79,94588,1,0,0:0:0:0:
244,44,94683,1,0,0:0:0:0:
356,3,94875,1,2,3:0:0:0:
452,194,95066,6,0,L|443:313,1,111.999996582031,2|12,0:0|0:0,0:0:0:0:
454,329,95353,1,0,0:0:0:0:
471,347,95448,2,0,P|397:364|351:350,1,111.999996582031,2|12,0:0|0:0,0:0:0:0:
245,383,95831,2,0,B|221:310|221:310|250:185,1,167.999994873047,2|0,0:0|0:0,0:0:0:0:
285,144,96213,2,0,L|216:140,1,55.9999982910157,12|0,0:0|0:0,0:0:0:0:
158,199,96404,2,0,L|81:195,1,55.9999982910157,12|0,0:0|0:0,0:0:0:0:
36,127,96595,5,12,1:0:0:0:
155,84,96786,2,0,L|145:33,3,37.3333321940105,2|0|0|8,3:0|0:0|0:0|0:0,0:0:0:0:
158,199,97168,1,2,3:0:0:0:
318,189,97359,2,0,B|253:182|253:182|220:206|220:206|135:196,1,167.999994873047,2|0,0:0|0:0,0:0:0:0:
158,199,97741,1,8,0:0:0:0:
32,261,97933,1,2,3:0:0:0:
36,127,98124,5,2,0:0:0:0:
155,84,98315,2,0,L|145:33,3,37.3333321940105,2|0|0|8,3:0|0:0|0:0|0:0,0:0:0:0:
158,199,98697,1,2,3:0:0:0:
318,189,98888,2,0,B|253:182|253:182|220:206|220:206|135:196,1,167.999994873047,2|0,0:0|0:0,0:0:0:0:
158,199,99270,2,0,P|186:289|165:364,1,167.999994873047,8|0,0:0|0:0,0:0:0:0:
168,358,99652,5,2,0:0:0:0:
88,303,99843,1,2,3:0:0:0:
158,199,100034,2,0,P|217:201|271:220,1,111.999996582031,8|2,0:0|3:0,0:0:0:0:
359,323,100416,2,0,L|343:381,1,55.9999982910157,2|0,0:0|0:0,0:0:0:0:
449,328,100607,2,0,L|437:255,1,55.9999982910157,2|0,3:0|0:0,0:0:0:0:
375,199,100798,2,0,P|319:200|266:217,1,111.999996582031,8|2,0:0|3:0,0:0:0:0:
158,199,101180,6,0,P|217:201|271:220,1,111.999996582031,2|8,0:0|0:0,0:0:0:0:
265,187,101467,1,8,0:0:0:0:
266,216,101562,2,0,P|319:199|375:199,1,111.999996582031,8|8,0:0|1:0,0:0:0:0:
329,82,101945,2,0,B|281:79|256:115|256:115|222:79|159:95,1,167.999994873047,2|0,0:0|0:0,0:0:0:0:
86,72,102327,2,0,L|93:156,1,55.9999982910157,8|0,3:0|1:0,0:0:0:0:
159,265,102518,2,0,L|169:175,1,55.9999982910157,2|2,1:0|1:0,0:0:0:0:
71,227,102709,5,12,1:0:0:0:
256,192,102804,12,0,104620,0:0:0:0:
402,296,105002,6,0,P|391:252|397:218,1,80,2|2,0:0|0:0,0:0:0:0:
448,126,105766,6,0,B|409:109|373:65|407:29|407:29|434:53|431:91|386:125|344:137|287:107,1,320,8|4,1:0|0:0,0:0:0:0:
169,169,108095,6,0,B|153:223|153:223|172:293,1,120,2|0,0:0|0:0,0:0:0:0:
189,298,108523,6,0,B|225:296|248:260|248:260|267:220|300:217|327:227|327:227|299:249|285:293|353:345|391:280,1,320,12|0,1:0|0:0,0:0:0:0:
460,222,110606,6,0,L|465:130,1,80,4|0,0:0|0:0,0:0:0:0:
430,62,111050,1,2,3:0:0:0:
366,117,111280,1,0,0:0:0:0:
430,62,111511,1,2,0:0:0:0:
366,117,111751,1,8,0:0:0:0:
379,140,111871,1,8,0:0:0:0:
394,161,111991,5,12,1:0:0:0:
256,192,112116,12,0,121991,0:0:0:0:
