osu file format v14

[General]
AudioFilename: audio.mp3
AudioLeadIn: 0
PreviewTime: 77868
Countdown: 0
SampleSet: Soft
StackLeniency: 0.2
Mode: 0
LetterboxInBreaks: 0
WidescreenStoryboard: 1

[Editor]
Bookmarks: 64492
DistanceSpacing: 1
BeatDivisor: 6
GridSize: 16
TimelineZoom: 1.6

[Metadata]
Title:AsiaN distractive
TitleUnicode:AsiaN distractive
Artist:Nekomata Gekidan
ArtistUnicode:猫叉劇団
Creator:Regou
Version:09's Insane
Source:beatmania IIDX 24 SINOBUZ
Tags:Pending cup #5 yf_bmp gary00737 Chaoslitz StarrStyx 09kami Frey Suzuki_1112 Dailycare 1112deng Master
BeatmapID:1411707
BeatmapSetID:657122

[Difficulty]
HPDrainRate:6
CircleSize:5.5
OverallDifficulty:9
ApproachRate:9
SliderMultiplier:1.5
SliderTickRate:0.5

[Events]
//Background and Video events
0,0,"3.jpg",0,0
//Break Periods
//Storyboard Layer 0 (Background)
//Storyboard Layer 1 (Fail)
//Storyboard Layer 2 (Pass)
//Storyboard Layer 3 (Foreground)
//Storyboard Sound Samples

[TimingPoints]
289,382.165605095541,4,2,41,60,1,0
1053,-200,4,2,41,60,0,0
1626,-133.333333333333,4,2,41,60,0,0
1817,-100,4,2,41,60,0,0
4492,-133.333333333333,4,2,41,60,0,0
4874,-200,4,2,41,60,0,0
5448,-100,4,2,41,60,0,0
7167,-133.333333333333,4,2,41,60,0,0
8123,-100,4,2,41,60,0,0
10607,-133.333333333333,4,2,41,60,0,0
11945,-100,4,2,41,60,0,0
13664,-200,4,2,41,60,0,0
14046,-80,4,2,41,60,0,0
17868,-133.333333333333,4,2,41,60,0,0
19397,-80,4,2,41,60,0,0
24874,-80,4,2,41,5,0,0
24938,-80,4,2,41,60,0,0
25066,-80,4,2,41,5,0,0
25130,-80,4,2,41,60,0,0
25257,-80,4,2,41,5,0,0
25321,-80,4,2,41,60,0,0
25448,-80,4,2,41,5,0,0
25511,-200,4,2,41,60,0,0
26276,-80,4,2,41,60,0,0
30862,-133.333333333333,4,2,41,60,0,0
32008,-80,4,2,41,60,0,0
37359,-200,4,2,41,60,0,0
39652,-100,4,2,41,60,0,0
41658,-100,4,2,41,30,0,0
41753,-100,4,2,41,60,0,0
43951,-100,4,2,41,30,0,0
44238,-100,4,2,41,80,0,0
47008,-100,4,2,41,30,0,0
47104,-100,4,2,41,80,0,0
50066,-100,4,2,41,30,0,0
50352,-100,4,2,41,80,0,0
53887,-100,4,2,41,30,0,0
53983,-100,4,2,41,80,0,0
56180,-100,4,2,41,30,0,0
56467,-100,4,2,41,80,0,0
59238,-100,4,2,41,30,0,0
59524,-100,4,2,41,80,0,0
59906,-80,4,2,41,80,0,0
62295,-80,4,2,41,30,0,0
62581,-80,4,2,41,80,0,0
70225,-100,4,2,41,80,0,0
70894,-100,4,2,41,5,0,0
70989,-100,4,2,41,80,0,0
71276,-100,4,2,41,5,0,0
71371,-100,4,2,41,80,0,0
71658,-100,4,2,41,5,0,0
71753,-100,4,2,41,80,0,0
72040,-100,4,2,41,5,0,0
72136,-100,4,2,41,80,0,0
72422,-100,4,2,41,5,0,0
72518,-100,4,2,41,80,0,0
72804,-100,4,2,41,5,0,0
72900,-100,4,2,41,80,0,0
73187,-100,4,2,41,5,0,0
73282,-100,4,2,41,80,0,0
73569,-100,4,2,41,5,0,0
73664,-100,4,2,41,80,0,0
77486,-200,4,2,41,40,0,0
77868,-76.9230769230769,4,2,41,90,0,0
102709,-200,4,2,41,90,0,0
106913,-200,4,2,41,5,0,0
107295,400,4,2,41,80,1,0
107295,-200,4,2,41,80,0,0
107695,-200,4,2,41,5,0,0
108095,428.571428571429,4,2,41,80,1,0
108095,-200,4,2,41,80,0,0
108523,413.793103448276,4,2,41,80,1,0
108523,-200,4,2,41,80,0,0
110178,428.571428571429,4,2,41,80,1,0
110606,444.444444444444,4,2,41,80,1,0
111050,461.538461538462,4,2,41,80,1,0
111511,480,4,2,41,80,1,0
111991,500,4,2,41,80,1,0
111991,-200,4,2,41,80,0,0
112241,-200,4,2,41,20,0,0
112491,-200,4,2,41,5,0,0

[Colours]
Combo1 : 255,255,113
Combo2 : 197,157,249
Combo3 : 255,128,255
Combo4 : 115,255,115

[HitObjects]
439,28,1053,6,0,L|433:60,5,18.75,8|0|8|0|8|0,0:1|0:0|0:1|0:0|0:1|0:0,0:0:0:0:
377,111,1626,6,2,L|388:152,1,28.1250010728836
469,217,1817,6,0,B|425:202|388:226|354:259|307:220,1,150,6|0,0:1|0:0,0:0:0:0:
151,303,2390,6,2,L|160:353,1,37.5
239,279,2581,2,0,P|219:238|114:218,1,150,8|0,0:1|0:0,0:0:0:0:
36,363,3155,5,2,0:0:0:0:
36,363,3250,1,2,0:0:0:0:
36,363,3346,2,0,B|65:340|108:364|141:382|190:364,1,150,4|0,0:0|0:0,0:0:0:0:
304,352,3855,2,2,L|252:344,1,50
380,377,4110,6,0,L|432:368,2,50,6|0|0,0:0|0:0|0:0,0:0:0:0:
480,256,4492,2,0,L|428:247,2,37.5000014305115
368,187,4874,6,0,P|364:158|382:104,1,75,6|0,0:1|0:0,0:0:0:0:
380,377,5448,5,2,0:0:0:0:
380,377,5543,1,2,0:0:0:0:
364,355,5639,2,0,P|324:341|286:339,1,75,8|0,0:0|0:0,0:0:0:0:
102,300,6021,2,0,P|139:296|175:284,1,75,4|0,0:0|0:0,0:0:0:0:
308,214,6403,6,0,P|279:189|259:158,1,75,8|0,0:0|0:0,0:0:0:0:
138,111,6785,2,0,P|150:75|152:38,1,75,4|0,0:0|0:0,0:0:0:0:
157,366,7167,5,10,0:0:0:0:
157,366,7550,2,0,B|186:349|210:362|233:379|269:358,1,112.500004291535,4|0,0:0|0:0,0:0:0:0:
203,221,8123,6,0,L|148:212,2,37.5
374,125,8505,1,2,0:0:0:0:
374,125,8696,2,0,P|386:162|378:218,1,75,4|0,0:0|0:0,0:0:0:0:
435,62,9078,6,0,P|483:67|533:51,1,75,2|2,0:0|0:0,0:0:0:0:
316,16,9460,2,4,P|279:10|242:16,2,75
193,82,10034,1,10,0:0:0:0:
222,286,10225,5,10,0:0:0:0:
169,348,10416,1,0,0:0:0:0:
169,348,10511,1,0,0:0:0:0:
169,348,10607,6,0,P|98:360|53:347,1,112.500004291535,6|0,0:1|0:0,0:0:0:0:
39,209,11180,1,0,0:0:0:0:
39,209,11371,2,0,P|70:255|117:284,1,112.500004291535
277,234,11945,5,2,0:0:0:0:
277,234,12136,2,0,P|323:221|358:222,1,75,6|0,0:0|0:0,0:0:0:0:
485,300,12518,5,8,0:0:0:0:
485,300,12709,1,0,0:0:0:0:
302,336,12900,5,8,0:0:0:0:
408,276,13091,1,0,0:0:0:0:
303,165,13282,6,0,L|300:119,3,37.5,8|8|8|8,0:1|0:1|0:1|0:1,0:1:0:0:
424,21,13664,6,0,P|427:49|416:82,1,56.25,4|0,0:0|0:0,0:0:0:0:
280,47,14046,6,0,L|176:61,1,93.75,8|0,0:0|0:0,0:0:0:0:
179,57,14333,1,0,0:0:0:0:
172,54,14429,1,0,0:0:0:0:
14,43,14620,6,2,P|28:24|51:18,1,46.875
83,113,14811,2,0,L|65:211,1,93.75,8|0,0:0|0:0,0:0:0:0:
55,214,15097,1,0,0:0:0:0:
76,218,15193,1,0,0:0:0:0:
117,351,15384,5,2,0:0:0:0:
117,351,15480,1,2,0:0:0:0:
117,351,15575,2,0,P|134:338|172:332,1,46.875,8|0,0:0|0:0,0:0:0:0:
238,361,15766,2,0,P|246:341|276:317,1,46.875
346,341,15957,1,0,0:0:0:0:
381,162,16148,6,2,L|334:147,1,46.875
458,75,16339,2,0,P|486:133|467:212,1,140.625,8|0,0:0|0:0,0:0:0:0:
351,275,16722,5,6,0:1:0:0:
313,269,16817,1,0,0:0:0:0:
275,263,16913,1,0,0:0:0:0:
238,257,17008,1,0,0:0:0:0:
203,273,17104,2,0,B|171:281|171:281|149:270|101:275,1,93.75,8|0,0:0|0:0,0:0:0:0:
52,169,17486,5,0,0:0:0:0:
90,60,17677,2,0,L|146:47,1,46.875
245,85,17868,6,0,P|218:90|190:89,1,56.2500021457673,10|0,0:0|0:0,0:0:0:0:
377,31,18250,2,0,P|348:31|321:26,1,56.2500021457673,2|0,0:0|0:0,0:0:0:0:
284,149,18632,6,0,P|248:160|222:179,1,56.2500021457673,10|0,0:0|0:0,0:0:0:0:
473,119,19015,2,0,P|448:105|421:98,1,56.2500021457673,2|0,0:0|0:0,0:0:0:0:
143,150,19397,5,0,0:0:0:0:
145,158,19492,1,0,0:0:0:0:
147,167,19588,1,0,0:0:0:0:
149,174,19683,1,0,0:0:0:0:
139,207,19779,6,0,P|130:242|134:274,1,46.875,12|0,0:0|0:0,0:0:0:0:
185,153,19970,2,0,P|194:118|190:86,1,46.875
159,45,20161,2,0,P|103:50|58:71,1,93.75,4|0,0:1|0:0,0:0:0:0:
344,29,20543,5,0,0:0:0:0:
344,29,20734,2,2,L|397:26,1,46.875
495,77,20925,2,0,P|506:124|499:177,1,93.75,12|0,0:0|0:0,0:0:0:0:
495,179,21212,1,0,0:0:0:0:
486,187,21308,1,0,0:0:0:0:
270,134,21499,6,2,L|213:150,1,46.875
186,249,21690,2,0,P|203:293|240:333,1,93.75,12|0,0:0|0:0,0:0:0:0:
244,332,21977,1,0,0:0:0:0:
256,333,22073,1,0,0:0:0:0:
160,186,22263,6,2,P|134:179|100:186,1,46.875
47,336,22454,2,0,L|152:318,1,93.75,12|0,0:0|0:0,0:0:0:0:
276,256,22741,5,0,0:0:0:0:
287,265,22836,2,0,L|347:277,1,46.875,12|0,0:1|0:0,0:0:0:0:
404,292,23027,2,0,L|464:304,1,46.875
456,299,23218,6,0,B|448:243|448:243|457:219|457:219|447:150,1,140.625,8|0,0:0|0:0,0:0:0:0:
394,69,23601,2,0,P|388:97|390:120,1,46.875
494,34,23792,5,2,0:0:0:0:
494,34,23887,1,2,0:0:0:0:
469,13,23983,2,0,P|417:5|363:10,1,93.75,12|0,0:0|0:0,0:0:0:0:
268,75,24269,1,0,0:0:0:0:
268,75,24365,2,0,L|208:66,1,46.875
83,24,24556,6,2,L|47:27,2,31.25
111,9,24747,6,0,P|125:47|130:94,1,70.3125,6|0,0:0|0:0,0:0:0:0:
148,39,24938,2,0,P|142:73|129:106,1,70.3125,6|0,0:0|0:0,0:0:0:0:
172,88,25129,2,0,P|149:114|122:136,1,70.3125,6|0,0:0|0:0,0:0:0:0:
174,142,25320,2,0,P|141:153|106:159,1,70.3125,6|0,0:0|0:0,0:0:0:0:
69,210,25511,6,0,P|74:256|79:290,1,75,10|0,0:0|0:0,0:0:0:0:
240,225,26276,6,0,P|286:247|334:253,1,93.75,8|2,0:0|0:0,0:0:0:0:
446,238,26562,2,0,P|424:232|392:231,1,46.875,0|8,0:0|0:0,0:0:0:0:
211,327,26849,5,2,0:0:0:0:
55,256,27040,5,2,0:0:0:0:
87,207,27136,5,0,0:0:0:0:
92,188,27232,1,4,0:0:0:0:
199,77,27422,6,0,L|152:72,1,46.875,2|0,0:1|0:0,0:0:0:0:
290,15,27613,1,8,0:1:0:0:
303,18,27709,1,8,0:1:0:0:
312,26,27804,6,0,P|353:53|396:67,1,93.75,8|2,0:0|0:0,0:0:0:0:
503,52,28091,2,0,P|479:40|446:38,1,46.875,0|8,0:0|0:0,0:0:0:0:
279,124,28378,5,2,0:0:0:0:
268,245,28569,5,2,0:0:0:0:
312,284,28664,5,0,0:0:0:0:
342,288,28759,1,4,0:0:0:0:
453,367,28951,6,0,L|500:356,1,46.875,2|0,0:1|0:0,0:0:0:0:
339,367,29142,1,0,0:0:0:0:
325,371,29238,1,0,0:0:0:0:
308,373,29333,6,0,P|248:374|205:366,1,93.75,8|2,0:0|0:0,0:0:0:0:
80,346,29620,2,0,P|103:346|126:341,1,46.875,0|8,0:0|0:0,0:0:0:0:
257,213,29906,5,2,0:0:0:0:
141,161,30097,5,2,0:0:0:0:
78,168,30193,5,0,0:0:0:0:
59,160,30289,1,4,0:0:0:0:
203,69,30480,5,6,0:1:0:0:
203,69,30671,1,2,0:0:0:0:
348,8,30862,5,4,0:0:0:0:
395,5,30957,1,0,0:0:0:0:
408,51,31053,1,2,0:0:0:0:
368,77,31148,1,0,0:0:0:0:
330,47,31244,5,4,0:0:0:0:
327,70,31339,1,0,0:0:0:0:
318,89,31435,2,0,P|308:127|319:190,1,84.3750032186509,2|0,0:0|0:0,0:0:0:0:
348,260,31817,2,0,L|308:255,1,28.1250010728836
167,236,32008,6,0,P|219:215|263:213,1,93.75,2|0,0:0|0:0,0:0:0:0:
383,169,32390,6,0,P|432:186|492:193,1,93.75,8|2,0:0|0:0,0:0:0:0:
501,106,32677,2,0,L|447:114,1,46.875,0|8,0:0|0:0,0:0:0:0:
292,43,32964,5,2,0:0:0:0:
194,201,33155,5,2,0:0:0:0:
138,232,33250,5,0,0:0:0:0:
121,230,33346,1,4,0:0:0:0:
58,67,33537,6,0,L|11:60,1,46.875,2|0,0:0|0:0,0:0:0:0:
114,24,33728,1,0,0:0:0:0:
125,20,33824,1,0,0:0:0:0:
140,17,33919,6,0,P|174:25|231:63,1,93.75,8|2,0:0|0:0,0:0:0:0:
178,139,34206,2,0,L|128:148,1,46.875,0|8,0:0|0:0,0:0:0:0:
245,244,34492,5,2,0:0:0:0:
81,319,34683,5,2,0:0:0:0:
123,366,34779,5,0,0:0:0:0:
145,372,34874,1,4,0:0:0:0:
377,345,35066,5,2,0:0:0:0:
377,345,35257,1,0,0:0:0:0:
438,231,35448,5,8,0:0:0:0:
438,231,35639,1,8,0:0:0:0:
438,231,35830,1,10,0:0:0:0:
315,169,36021,5,8,0:0:0:0:
239,95,36212,1,8,0:0:0:0:
285,2,36403,1,10,0:0:0:0:
388,16,36594,1,12,0:0:0:0:
406,119,36785,1,12,0:0:0:0:
310,98,36976,5,10,0:0:0:0:
309,69,37072,1,2,0:0:0:0:
335,60,37167,1,2,0:0:0:0:
352,82,37263,1,2,0:0:0:0:
337,105,37359,6,2,L|328:130,1,18.75
284,253,37550,2,0,B|248:241|221:256|193:268|168:255,1,112.5,6|0,0:1|0:0,0:0:0:0:
377,345,38505,6,0,L|389:347,17,12.5
406,339,39652,6,0,P|414:305|410:255,1,75,2|0,0:0|0:0,0:0:0:0:
329,155,40034,5,8,0:0:0:0:
329,155,40225,1,0,0:0:0:0:
375,38,40416,5,2,0:0:0:0:
375,38,40607,1,0,0:0:0:0:
486,98,40798,6,0,P|499:150|494:190,1,75,8|0,0:0|0:0,0:0:0:0:
341,232,41180,5,2,0:0:0:0:
210,197,41371,1,0,0:0:0:0:
87,266,41562,1,8,0:0:0:0:
92,279,41658,1,0,0:0:0:0:
96,291,41753,6,0,P|141:302|175:301,1,75,0|2,0:0|0:0,0:0:0:0:
169,301,42136,1,0,0:0:0:0:
335,314,42327,6,0,P|371:322|405:338,1,75,8|0,0:0|0:0,0:0:0:0:
490,182,42709,2,0,P|456:198|419:206,1,75,2|0,0:0|0:0,0:0:0:0:
300,106,43091,5,8,0:0:0:0:
379,49,43282,1,0,0:0:0:0:
379,49,43473,1,2,0:0:0:0:
379,49,43664,1,0,0:0:0:0:
237,34,43855,5,8,0:0:0:0:
236,26,43951,1,0,0:0:0:0:
232,15,44046,2,0,L|270:19,1,37.5,0|0,0:0|0:0,0:0:0:0:
140,82,44238,2,0,P|93:64|54:61,1,75,2|0,0:0|0:0,0:0:0:0:
206,166,44620,5,8,0:0:0:0:
206,166,44811,1,0,0:0:0:0:
332,205,45002,6,0,P|371:176|406:168,1,75,2|0,0:0|0:0,0:0:0:0:
489,243,45384,5,8,0:0:0:0:
487,258,45480,1,0,0:0:0:0:
486,273,45575,2,0,L|479:331,1,37.5,0|0,0:0|0:0,0:0:0:0:
412,361,45766,2,0,B|394:362|394:362|365:349|365:349|336:350,1,75,2|0,0:0|0:0,0:0:0:0:
202,377,46148,5,8,0:0:0:0:
202,377,46339,1,0,0:0:0:0:
130,289,46531,5,2,0:0:0:0:
143,183,46722,1,0,0:0:0:0:
195,71,46913,6,0,L|153:75,2,37.5,8|0|0,0:0|0:0|0:0,0:0:0:0:
51,38,47295,6,0,P|42:89|52:123,1,75,2|0,0:0|0:0,0:0:0:0:
130,289,47677,5,8,0:0:0:0:
232,255,47868,1,0,0:0:0:0:
232,146,48059,1,2,0:0:0:0:
128,112,48250,1,0,0:0:0:0:
65,200,48441,1,8,0:0:0:0:
65,200,48632,1,0,0:0:0:0:
190,244,48824,6,0,L|270:235,1,75,2|0,0:0|0:0,0:0:0:0:
384,206,49206,5,8,0:0:0:0:
467,233,49397,1,0,0:0:0:0:
467,322,49588,1,2,0:0:0:0:
382,350,49779,1,0,0:0:0:0:
331,278,49970,1,8,0:0:0:0:
331,278,50066,1,0,0:0:0:0:
331,278,50161,6,0,L|376:266,1,37.5
439,174,50352,2,0,P|443:124|430:79,1,75,2|0,0:0|0:0,0:0:0:0:
297,163,50734,5,8,0:0:0:0:
297,163,50925,2,0,L|248:158,1,37.5
178,133,51117,5,2,0:0:0:0:
164,130,51212,1,0,0:0:0:0:
151,127,51308,2,0,P|151:145|158:162,1,37.5
122,249,51499,6,2,P|64:262|40:259,1,75,10|2,0:0|0:0,0:0:0:0:
247,350,51881,2,0,P|209:349|174:338,1,75,2|0,0:0|0:0,0:0:0:0:
341,260,52263,5,8,0:0:0:0:
341,260,52454,1,0,0:0:0:0:
498,369,52645,5,2,0:0:0:0:
312,322,52836,1,0,0:0:0:0:
130,359,53027,1,8,0:0:0:0:
130,359,53218,1,0,0:0:0:0:
236,238,53410,6,0,P|237:190|232:160,1,75,2|0,0:0|0:0,0:0:0:0:
129,80,53792,2,0,L|79:86,2,37.5,8|0|0,0:0|0:0|0:0,0:0:0:0:
317,20,54174,5,2,0:0:0:0:
317,20,54365,1,0,0:0:0:0:
391,233,54556,5,8,0:0:0:0:
298,202,54747,1,0,0:0:0:0:
298,105,54938,1,2,0:0:0:0:
390,75,55129,1,0,0:0:0:0:
448,154,55320,5,8,0:0:0:0:
448,154,55511,1,0,0:0:0:0:
294,213,55703,2,0,P|259:208|193:213,1,75,2|0,0:0|0:0,0:0:0:0:
323,324,56085,5,8,0:0:0:0:
331,324,56180,1,0,0:0:0:0:
338,324,56276,2,0,L|383:324,1,37.5
482,287,56467,2,0,P|492:336|489:371,1,75,2|0,0:0|0:0,0:0:0:0:
391,233,56849,5,8,0:0:0:0:
391,233,57040,1,0,0:0:0:0:
204,283,57231,5,2,0:0:0:0:
204,283,57422,1,0,0:0:0:0:
26,241,57613,5,8,0:0:0:0:
24,231,57709,1,0,0:0:0:0:
23,222,57804,2,0,L|17:173,1,37.5,2|0,0:0|0:0,0:0:0:0:
46,85,57996,2,0,P|81:96|112:116,1,75,2|0,0:0|0:0,0:0:0:0:
306,74,58378,5,8,0:0:0:0:
306,74,58569,1,0,0:0:0:0:
112,40,58760,5,2,0:0:0:0:
258,18,58951,1,0,0:0:0:0:
436,55,59142,5,8,0:0:0:0:
440,65,59238,1,0,0:0:0:0:
442,74,59333,2,0,L|436:126,1,37.5
336,214,59524,2,0,P|327:177|326:139,1,75,2|0,0:0|0:0,0:0:0:0:
411,315,59906,6,0,P|419:259|440:211,1,93.75,8|0,0:0|0:0,0:0:0:0:
235,271,60288,2,0,P|218:227|213:180,1,93.75,2|0,0:0|0:0,0:0:0:0:
105,343,60671,5,8,0:0:0:0:
105,343,60862,1,0,0:0:0:0:
34,162,61053,6,0,P|96:157|135:169,1,93.75,2|0,0:0|0:0,0:0:0:0:
326,267,61435,2,0,P|264:262|225:274,1,93.75,8|0,0:0|0:0,0:0:0:0:
368,115,61817,5,2,0:0:0:0:
368,115,62008,1,0,0:0:0:0:
215,15,62199,5,8,0:0:0:0:
211,23,62295,1,0,0:0:0:0:
207,31,62390,2,0,L|189:79,1,46.875
126,151,62581,2,0,P|69:163|29:161,1,93.75,2|0,0:0|0:0,0:0:0:0:
88,13,62964,5,8,0:0:0:0:
319,37,63155,1,0,0:0:0:0:
207,152,63346,5,10,0:0:0:0:
236,304,63537,1,0,0:0:0:0:
394,363,63728,5,8,0:0:0:0:
394,363,63919,1,2,0:0:0:0:
318,251,64110,5,10,0:0:0:0:
318,251,64301,2,0,L|316:202,1,46.875
355,153,64492,6,2,L|379:157,2,23.4375,10|2|2,0:0|0:0|0:0,0:0:0:0:
272,100,66021,5,8,0:0:0:0:
272,100,67550,5,8,0:0:0:0:
153,191,69078,5,10,0:0:0:0:
153,191,69843,1,10,0:0:0:0:
87,361,70225,5,2,0:0:0:0:
199,329,70416,1,2,0:0:0:0:
308,369,70607,6,0,P|352:377|430:368,1,112.5,4|0,0:0|0:0,0:0:0:0:
374,302,70989,2,0,P|414:283|473:231,1,112.5,2|0,0:1|0:0,0:0:0:0:
389,209,71371,2,0,P|411:170|429:94,1,112.5,4|0,0:0|0:0,0:0:0:0:
347,124,71753,2,0,P|343:79|314:6,1,112.5,2|0,0:1|0:0,0:0:0:0:
261,96,72136,6,0,P|231:62|165:20,1,112.5,4|0,0:0|0:0,0:0:0:0:
167,106,72518,2,0,P|123:94|45:98,1,112.5,2|0,0:1|0:0,0:0:0:0:
97,169,72900,2,0,P|55:184|-7:232,1,112.5,4|0,0:0|0:0,0:0:0:0:
76,261,73282,2,0,P|50:297|27:372,1,112.5,2|0,0:1|0:0,0:0:0:0:
112,351,73664,5,2,0:0:0:0:
232,304,73855,1,2,0:0:0:0:
232,304,73951,1,2,0:0:0:0:
232,304,74046,1,6,0:0:0:0:
351,356,74238,1,2,0:0:0:0:
474,238,74429,5,2,0:0:0:0:
204,216,74620,1,2,0:0:0:0:
204,216,74716,1,2,0:0:0:0:
204,216,74811,1,6,0:0:0:0:
404,132,75003,1,2,0:0:0:0:
35,119,75193,5,2,0:0:0:0:
312,69,75384,1,2,0:0:0:0:
312,69,75480,1,2,0:0:0:0:
312,69,75575,1,6,0:0:0:0:
107,163,75766,1,2,0:0:0:0:
320,260,75957,6,2,L|272:250,1,37.5
404,132,76148,1,2,0:0:0:0:
401,124,76244,1,2,0:0:0:0:
396,117,76339,6,2,L|449:110,1,37.5,6|2,0:0|0:0,0:0:0:0:
226,144,76531,2,2,L|177:133,1,37.5,6|2,0:0|0:0,0:0:0:0:
35,119,77486,6,8,L|39:149,3,18.75,8|8|8|8,0:1|0:1|0:1|0:1,0:1:0:0:
70,196,77868,6,0,L|67:326,1,97.4999955368044,2|2,0:0|0:0,0:0:0:0:
185,63,78250,5,12,0:0:0:0:
185,63,78441,2,0,L|141:70,2,32.4999985122681
374,86,78632,2,0,P|309:116|276:118,1,97.4999955368044,8|8,0:0|0:0,0:0:0:0:
459,39,79015,5,4,0:1:0:0:
458,14,79110,1,8,0:1:0:0:
481,6,79206,1,8,0:1:0:0:
496,25,79301,1,0,0:0:0:0:
481,47,79397,6,2,B|479:80|479:80|489:114|489:114|488:147,1,97.4999955368044
402,335,79779,5,12,0:0:0:0:
402,335,79970,2,0,L|443:343,2,32.4999985122681
358,238,80161,2,0,P|317:268|265:282,1,97.4999955368044,8|8,0:0|0:0,0:0:0:0:
77,331,80543,5,2,0:1:0:0:
76,356,80638,1,8,0:1:0:0:
99,364,80734,1,8,0:1:0:0:
114,345,80829,1,0,0:0:0:0:
99,323,80925,6,2,B|97:290|97:290|107:256|107:256|106:223,1,97.4999955368044
306,356,81308,5,12,0:0:0:0:
306,356,81499,2,0,L|311:319,2,32.4999985122681
195,230,81690,2,0,B|217:220|217:220|271:221|271:221|298:203,1,97.4999955368044,8|8,0:0|0:0,0:0:0:0:
487,169,82072,5,4,0:1:0:0:
483,202,82167,1,8,0:1:0:0:
479,236,82263,1,8,0:1:0:0:
475,270,82359,1,0,0:0:0:0:
471,303,82454,6,2,B|439:296|439:296|399:305|399:305|359:299,1,97.4999955368044
240,159,82836,5,12,0:0:0:0:
240,159,83027,2,0,L|179:154,1,48.7499977684022
28,223,83218,2,0,P|83:220|134:199,1,97.4999955368044,8|8,0:0|0:0,0:0:0:0:
108,54,83601,5,2,0:1:0:0:
90,62,83696,1,8,0:1:0:0:
91,82,83792,1,8,0:1:0:0:
110,86,83887,1,0,0:0:0:0:
133,67,83983,5,2,0:0:0:0:
111,39,84078,1,2,0:0:0:0:
78,54,84173,1,2,0:0:0:0:
80,91,84269,1,2,0:0:0:0:
115,99,84364,5,12,0:0:0:0:
313,16,84556,2,0,L|316:52,2,32.4999985122681
440,82,84747,2,8,P|444:122|430:191,1,97.4999955368044
229,117,85129,5,4,0:1:0:0:
251,89,85224,1,8,0:1:0:0:
284,104,85319,1,8,0:1:0:0:
282,141,85415,1,0,0:0:0:0:
247,148,85510,5,2,0:0:0:0:
230,285,85703,1,2,0:0:0:0:
62,356,85894,5,12,0:0:0:0:
62,356,86085,2,0,L|66:307,2,32.4999985122681
174,240,86276,2,8,P|127:224|79:221,1,97.4999955368044
306,230,86658,5,2,0:1:0:0:
328,202,86753,1,8,0:1:0:0:
361,217,86848,1,8,0:1:0:0:
359,254,86945,1,0,0:0:0:0:
324,261,87040,6,0,P|324:293|331:318,1,48.7499977684022,12|0,0:0|0:0,0:0:0:0:
412,300,87231,2,0,P|439:316|464:322,1,48.7499977684022
281,356,87422,6,2,P|210:372|179:389,1,97.4999955368044
79,221,87804,5,2,0:1:0:0:
79,221,87996,1,0,0:0:0:0:
170,79,88187,2,2,P|220:86|270:113,1,97.4999955368044
50,118,88569,2,0,L|15:123,3,32.4999985122681,4|0|0|0,0:0|0:0|0:0|0:0,0:0:0:0:
205,13,88951,6,0,P|230:11|267:18,1,48.7499977684022,2|0,0:0|0:0,0:0:0:0:
362,83,89142,2,0,P|337:86|321:83,2,32.4999985122681,2|0|0,0:0|0:0|0:0,0:0:0:0:
225,155,89333,5,4,0:0:0:0:
225,155,89524,6,0,P|200:153|163:160,1,48.7499977684022,2|0,0:0|0:0,0:0:0:0:
72,224,89715,2,0,P|96:227|113:223,2,32.4999985122681,2|0|0,0:0|0:0|0:0,0:0:0:0:
205,297,89906,5,4,0:0:0:0:
205,297,90097,6,0,P|230:295|267:302,1,48.7499977684022,2|0,0:0|0:0,0:0:0:0:
376,383,90288,2,0,P|351:386|327:383,1,48.7499977684022,2|0,0:0|0:0,0:0:0:0:
448,310,90480,5,12,0:0:0:0:
505,140,90671,2,0,L|508:87,2,32.4999985122681
466,12,90862,2,8,P|410:12|354:28,1,97.4999955368044
173,56,91244,5,4,0:1:0:0:
149,80,91339,1,8,0:1:0:0:
116,89,91435,1,8,0:1:0:0:
83,78,91531,1,0,0:0:0:0:
60,52,91626,6,2,P|99:51|153:85,1,97.4999955368044
108,266,92008,5,12,0:0:0:0:
321,159,92199,2,0,L|328:203,2,32.4999985122681
441,215,92390,2,8,P|454:274|444:320,1,97.4999955368044
247,199,92773,5,2,0:1:0:0:
222,175,92868,1,8,0:1:0:0:
214,141,92964,1,8,0:1:0:0:
225,109,93060,1,0,0:0:0:0:
250,86,93155,6,2,P|251:125|217:178,1,97.4999955368044
297,336,93537,5,12,0:0:0:0:
74,359,93728,1,0,0:0:0:0:
179,204,93919,6,0,P|226:200|280:212,1,97.4999955368044,8|8,0:0|0:0,0:0:0:0:
452,291,94301,5,4,0:0:0:0:
452,291,94492,2,0,L|461:231,1,48.7499977684022
503,96,94683,2,2,P|451:95|408:118,1,97.4999955368044
210,13,95066,5,12,0:0:0:0:
8,108,95257,2,0,L|3:46,1,48.7499977684022
53,165,95448,2,8,B|45:198|45:198|50:233|50:233|42:266,1,97.4999955368044
257,323,95830,5,4,0:1:0:0:
269,308,95925,1,8,0:1:0:0:
259,291,96021,1,8,0:1:0:0:
240,295,96117,1,0,0:0:0:0:
224,323,96212,5,2,0:0:0:0:
261,340,96308,1,2,0:0:0:0:
285,309,96403,1,2,0:0:0:0:
265,275,96499,1,2,0:0:0:0:
226,283,96595,5,12,0:0:0:0:
27,347,96785,2,0,L|23:306,2,32.4999985122681
138,170,96976,2,8,P|144:121|137:73,1,97.4999955368044
307,124,97359,5,2,0:1:0:0:
340,129,97454,1,8,0:1:0:0:
373,134,97550,1,8,0:1:0:0:
406,139,97645,1,0,0:0:0:0:
439,146,97741,6,2,P|450:204|440:258,1,97.4999955368044
512,92,98123,5,12,0:0:0:0:
345,41,98314,2,0,L|342:2,2,32.4999985122681
195,121,98505,2,8,P|186:65|191:17,1,97.4999955368044
68,117,98887,5,4,0:1:0:0:
46,149,98982,1,8,0:1:0:0:
8,137,99078,1,8,0:1:0:0:
8,98,99173,1,0,0:0:0:0:
46,86,99269,5,12,0:0:0:0:
64,126,99365,1,0,0:0:0:0:
53,168,99460,1,0,0:0:0:0:
51,212,99556,1,0,0:0:0:0:
63,254,99652,6,0,L|121:268,1,48.7499977684022,2|0,0:0|0:0,0:0:0:0:
208,344,99843,2,2,P|150:330|110:336,2,97.4999955368044
408,328,100416,5,8,0:1:0:0:
446,305,100511,1,8,0:1:0:0:
436,262,100607,1,8,0:1:0:0:
393,258,100703,1,8,0:1:0:0:
375,299,100798,5,2,0:0:0:0:
375,299,100989,1,2,0:0:0:0:
313,221,101180,5,10,0:1:0:0:
310,200,101276,1,8,0:1:0:0:
312,180,101371,1,8,0:1:0:0:
317,161,101467,1,8,0:1:0:0:
367,113,101562,5,10,0:1:0:0:
373,94,101658,1,8,0:1:0:0:
374,74,101753,1,8,0:1:0:0:
372,54,101849,1,8,0:1:0:0:
297,15,101945,6,0,L|227:25,3,48.7499977684022,8|0|0|0,0:1|0:1|0:1|0:1,0:1:0:0:
156,76,102327,5,2,0:0:0:0:
124,112,102422,1,2,0:0:0:0:
149,153,102518,1,2,0:0:0:0:
196,145,102613,1,2,0:0:0:0:
205,96,102709,6,0,P|146:198|269:106,1,450,12|4,0:0|0:0,0:0:0:0:
269,106,105384,1,6,0:0:0:0:
205,96,105766,6,0,P|199:169|269:106,1,225,12|2,0:0|0:0,0:0:0:0:
371,255,107295,6,0,L|296:243,1,75,2|0,0:0|0:0,0:0:0:0:
65,332,108095,6,0,L|108:325,1,37.5,12|0,0:0|0:0,0:0:0:0:
321,141,108523,6,0,B|293:115|257:124|257:124|203:148|157:135|157:135|132:111|101:105,1,225,12|0,0:0|0:0,0:0:0:0:
112,107,110606,5,2,0:0:0:0:
112,107,111511,5,2,0:0:0:0:
177,48,111991,6,2,L|221:46,1,37.5,6|0,0:0|2:0,0:0:0:0:
256,192,112491,12,0,115991,0:0:0:0:
