osu file format v14

[General]
AudioFilename: audio.mp3
AudioLeadIn: 0
PreviewTime: 77868
Countdown: 0
SampleSet: Soft
StackLeniency: 0.3
Mode: 0
LetterboxInBreaks: 0
WidescreenStoryboard: 0

[Editor]
Bookmarks: 14046,16722,19779,22836,26276,32390,64492,78250,89843,102709,120491
DistanceSpacing: 0.4
BeatDivisor: 6
GridSize: 8
TimelineZoom: 2.799999

[Metadata]
Title:AsiaN distractive
TitleUnicode:AsiaN distractive
Artist:Nekomata Gekidan
ArtistUnicode:猫叉劇団
Creator:Regou
Version:StarR's Expert
Source:beatmania IIDX 24 SINOBUZ
Tags:Pending cup #5 yf_bmp gary00737 Chaoslitz StarrStyx 09kami Frey Suzuki_1112 Dailycare 1112deng Master
BeatmapID:1411709
BeatmapSetID:657122

[Difficulty]
HPDrainRate:6
CircleSize:5
OverallDifficulty:9
ApproachRate:9.3
SliderMultiplier:1.76
SliderTickRate:1

[Events]
//Background and Video events
0,0,"aaa.jpg",0,0
//Break Periods
2,64692,65467
2,66221,66996
2,67750,68524
//Storyboard Layer 0 (Background)
//Storyboard Layer 1 (Fail)
//Storyboard Layer 2 (Pass)
//Storyboard Layer 3 (Foreground)
//Storyboard Sound Samples

[TimingPoints]
289,382.165605095541,4,2,21,50,1,0
1244,-100,4,2,21,45,0,0
1435,-100,4,2,21,40,0,0
1626,-100,4,2,21,35,0,0
1817,-100,4,2,21,65,0,0
3728,-100,4,2,21,50,0,0
4110,-100,4,2,21,40,0,0
4492,-100,4,2,21,30,0,0
4874,-100,4,2,21,65,0,0
13282,-80,4,2,21,80,0,0
14046,-100,4,2,21,80,0,0
14238,-100,4,2,21,45,0,0
16339,-166.666666666667,4,2,21,40,0,0
16626,-166.666666666667,4,2,21,5,0,0
16722,-166.666666666667,4,2,21,60,0,0
16913,-100,4,2,21,50,0,0
19397,-80,4,2,21,65,0,0
19779,-100,4,2,21,70,0,0
19970,-100,4,2,21,60,0,0
22836,-100,4,2,21,75,0,0
25511,-71.4285714285714,4,2,21,85,0,0
26276,-71.4285714285714,4,2,21,80,0,0
26467,-100,4,2,21,65,0,0
30862,-100,4,2,21,60,0,0
31435,-125,4,2,21,55,0,0
32008,-100,4,2,21,75,0,0
32390,-100,4,2,21,60,0,0
35448,-80,4,2,21,70,0,0
38123,-80,4,2,21,50,0,0
38505,-80,4,2,21,30,0,0
38887,-80,4,2,21,50,0,0
39652,-71.4285714285714,4,2,21,75,0,0
40034,-80,4,2,21,70,0,1
42327,-100,4,2,21,70,0,1
43855,-80,4,2,21,70,0,1
47677,-71.4285714285714,4,2,21,70,0,1
49397,-80,4,2,21,70,0,1
50734,-71.4285714285714,4,2,21,80,0,1
51499,-62.5,4,2,21,80,0,1
51881,-62.5,4,2,21,60,0,0
52263,-80,4,2,21,70,0,1
54556,-100,4,2,21,70,0,1
56085,-80,4,2,21,70,0,1
59906,-71.4285714285714,4,2,21,70,0,1
61626,-80,4,2,21,70,0,1
62964,-71.4285714285714,4,2,21,80,0,1
63728,-62.5,4,2,21,80,0,1
64492,-62.5,4,2,21,80,0,0
70225,-100,4,2,21,70,0,0
75193,-100,4,2,21,80,0,0
75575,-80,4,2,21,85,0,0
75957,-71.4285714285714,4,2,21,85,0,0
77868,-62.5,4,2,21,90,0,0
78250,-80,4,2,21,75,0,1
79397,-71.4285714285714,4,2,21,75,0,1
80161,-80,4,2,21,75,0,1
80925,-71.4285714285714,4,2,21,75,0,1
81308,-80,4,2,21,75,0,1
82454,-71.4285714285714,4,2,21,75,0,1
82836,-62.5,4,2,21,75,0,1
83983,-62.5,4,2,21,85,0,0
84365,-62.5,4,2,21,75,0,1
84556,-80,4,2,21,75,0,1
85511,-71.4285714285714,4,2,21,75,0,1
85894,-80,4,2,21,75,0,1
88951,-71.4285714285714,4,2,21,75,0,1
89715,-71.4285714285714,4,2,21,85,0,0
90480,-80,4,2,21,75,0,1
91626,-71.4285714285714,4,2,21,75,0,1
92008,-80,4,2,21,75,0,1
93155,-71.4285714285714,4,2,21,75,0,1
95066,-62.5,4,2,21,75,0,1
96212,-62.5,4,2,21,85,0,0
96594,-62.5,4,2,21,85,0,1
96976,-80,4,2,21,75,0,1
97741,-71.4285714285714,4,2,21,75,0,1
98123,-80,4,2,21,75,0,1
101180,-71.4285714285714,4,2,21,85,0,1
102327,-71.4285714285714,4,2,21,95,0,1
102709,-100,4,2,21,100,0,0
103282,-100,4,2,21,65,0,0
105002,-100,4,2,21,55,0,0
105384,-100,4,2,21,45,0,0
105766,-100,4,2,21,65,0,0
106913,-100,4,2,21,55,0,0
107295,400,4,2,21,45,1,0
107695,-100,4,2,21,35,0,0
108095,428.571428571429,4,2,21,40,1,0
108523,413.793103448276,4,2,21,50,1,0
109971,-100,4,2,21,45,0,0
110178,428.571428571429,4,2,21,45,1,0
110392,-100,4,2,21,40,0,0
110606,444.444444444444,4,2,21,40,1,0
110828,-100,4,2,21,35,0,0
111050,461.538461538462,4,2,21,35,1,0
111280,-100,4,2,21,30,0,0
111511,480,4,2,21,30,1,0
111991,500,4,2,21,30,1,0
111991,-280,4,2,21,15,0,0
117991,-280,4,2,21,5,0,0

[Colours]
Combo1 : 255,200,96
Combo2 : 255,166,255
Combo3 : 0,255,128
Combo4 : 255,85,85

[HitObjects]
213,54,1053,5,0,3:0:0:0:
217,79,1148,1,8,0:3:0:0:
307,127,1244,5,0,3:0:0:0:
303,153,1339,1,8,0:3:0:0:
215,199,1435,5,0,3:0:0:0:
219,224,1530,1,8,0:3:0:0:
294,260,1626,5,0,3:0:0:0:
290,285,1721,1,8,0:3:0:0:
254,354,1817,5,4,0:1:0:0:
95,233,2390,5,2,0:1:0:0:
103,189,2485,1,2,0:1:0:0:
151,278,2581,1,2,0:1:0:0:
410,106,3155,5,2,0:1:0:0:
402,62,3250,1,2,0:1:0:0:
354,151,3346,1,2,0:1:0:0:
217,97,3728,5,8,0:3:0:0:
163,66,3855,1,8,0:3:0:0:
102,69,3983,1,8,0:3:0:0:
34,187,4110,5,8,0:3:0:0:
76,163,4237,1,8,0:3:0:0:
125,166,4365,1,8,0:3:0:0:
187,268,4492,5,8,0:3:0:0:
152,248,4619,1,8,0:3:0:0:
113,251,4747,1,8,0:3:0:0:
131,343,4874,5,4,0:1:0:0:
387,127,5448,5,2,0:1:0:0:
356,122,5543,1,2,0:1:0:0:
325,118,5639,5,2,0:1:0:0:
454,78,5830,1,2,0:1:0:0:
332,307,6021,5,2,0:1:0:0:
177,258,6212,1,2,0:1:0:0:
375,83,6403,5,2,0:1:0:0:
417,273,6594,1,2,0:1:0:0:
91,355,6785,5,2,0:1:0:0:
154,146,6976,1,2,0:1:0:0:
256,361,7167,5,8,0:3:0:0:
255,55,7359,6,0,L|255:111,1,44,0|0,3:0|3:0,0:0:0:0:
255,165,7550,1,4,0:1:0:0:
255,165,8505,5,2,0:1:0:0:
255,165,8696,2,0,B|191:139|191:196|120:167,1,132,2|0,0:1|0:0,0:0:0:0:
75,115,9078,5,2,0:1:0:0:
58,201,9269,1,2,0:1:0:0:
203,291,9460,5,2,0:1:0:0:
189,174,9651,1,2,0:1:0:0:
327,81,9843,5,2,0:1:0:0:
312,207,10034,1,2,0:1:0:0:
454,290,10225,5,8,0:3:0:0:
396,137,10415,1,0,3:0:0:0:
435,132,10511,1,0,3:0:0:0:
475,129,10607,1,4,0:1:0:0:
475,129,11945,5,2,0:1:0:0:
421,199,12136,2,0,P|403:238|420:277,1,88,2|2,0:1|0:1,0:1:0:0:
475,129,12518,2,0,P|492:89|475:50,1,88,2|2,0:1|0:1,0:0:0:0:
356,154,12900,1,2,0:1:0:0:
420,277,13091,1,2,0:1:0:0:
259,261,13282,6,0,B|214:257|214:257|191:269|191:269|139:264,1,110,4|0,0:0|0:0,0:0:0:0:
356,154,13664,2,0,B|400:150|400:150|423:162|423:162|475:157,1,110,4|0,0:0|0:0,0:0:0:0:
259,23,14046,6,0,P|275:62|257:105,1,88,4|8,0:1|0:3,0:0:0:0:
183,74,14333,1,0,3:0:0:0:
196,71,14429,1,8,0:3:0:0:
282,171,14620,5,8,0:3:0:0:
255,167,14716,1,0,3:0:0:0:
229,163,14811,1,8,0:3:0:0:
154,262,15002,5,8,0:3:0:0:
180,257,15097,1,0,3:0:0:0:
207,254,15193,1,8,0:3:0:0:
327,299,15384,5,8,0:3:0:0:
338,331,15479,1,0,3:0:0:0:
326,364,15575,1,8,0:3:0:0:
127,173,15766,5,8,0:3:0:0:
115,210,15861,1,0,3:0:0:0:
129,248,15957,1,8,0:3:0:0:
367,55,16148,5,8,0:3:0:0:
380,97,16243,1,0,3:0:0:0:
364,141,16339,6,0,P|372:106|356:66,1,79.1999975830079,8|0,0:3|0:0,0:0:0:0:
302,110,16722,5,4,0:1:0:0:
413,278,16913,6,0,P|409:257|419:224,1,44,8|0,0:3|3:0,0:0:0:0:
424,216,17104,1,8,0:3:0:0:
273,89,17295,6,0,P|269:110|279:142,1,44,8|0,0:3|3:0,0:0:0:0:
284,150,17486,1,8,0:3:0:0:
124,353,17677,5,8,0:3:0:0:
146,340,17772,1,0,3:0:0:0:
164,320,17868,2,0,P|171:303|170:274,1,44,8|0,0:3|0:0,0:0:0:0:
197,276,18059,2,0,P|189:259|168:239,1,44,0|0,3:0|0:0,0:0:0:0:
26,113,18250,6,0,P|37:127|62:141,1,44,8|0,0:3|0:0,0:0:0:0:
46,168,18441,2,0,P|64:170|91:161,1,44,0|0,3:0|0:0,0:0:0:0:
311,49,18632,6,0,P|292:51|268:66,1,44,8|0,0:3|0:0,0:0:0:0:
244,41,18823,2,0,P|232:55|226:83,1,44,0|0,3:0|0:0,0:0:0:0:
320,256,19015,6,0,P|340:262|362:260,1,44,8|0,0:3|0:0,0:0:0:0:
358,220,19206,2,0,P|377:209|391:192,1,44,0|0,3:0|0:0,0:0:0:0:
191,66,19397,6,0,P|223:107|203:165,1,110,8|0,0:3|3:0,3:0:0:0:
145,123,19683,1,0,3:0:0:0:
191,66,19779,6,0,L|290:71,1,88,4|0,0:1|3:0,0:0:0:0:
344,113,20066,1,0,3:0:0:0:
357,123,20161,2,0,L|444:118,1,88,10|0,0:3|3:0,0:0:0:0:
319,216,20448,1,0,3:0:0:0:
310,231,20543,6,0,P|348:211|404:217,1,88,8|0,0:3|3:0,0:0:0:0:
367,299,20830,1,0,3:0:0:0:
358,314,20925,2,0,P|320:334|264:328,1,88,8|0,0:3|3:0,0:0:0:0:
214,214,21212,1,0,3:0:0:0:
229,205,21307,2,0,P|271:206|317:239,1,88,8|0,0:3|3:0,0:0:0:0:
137,167,21594,1,0,3:0:0:0:
147,152,21690,6,0,P|104:142|52:163,1,88,8|0,0:3|3:0,0:0:0:0:
303,143,21977,1,0,3:0:0:0:
310,159,22072,2,0,P|339:127|347:71,1,88,8|0,0:3|3:0,0:0:0:0:
191,267,22359,1,0,3:0:0:0:
177,256,22454,2,0,P|178:298|211:344,1,88,8|0,0:3|3:0,0:0:0:0:
274,379,22741,1,0,3:0:0:0:
324,319,22836,6,0,P|330:297|329:275,1,44,8|0,0:3|0:0,0:0:0:0:
404,269,23027,2,0,P|398:246|381:224,1,44,2|0,3:0|0:0,0:0:0:0:
446,185,23218,2,0,P|429:168|404:157,1,44,8|0,0:3|0:0,0:0:0:0:
188,235,23410,6,0,P|177:253|159:266,1,44,8|0,3:0|0:0,0:0:0:0:
292,183,23601,2,0,P|292:204|283:224,1,44,8|0,0:3|0:0,0:0:0:0:
344,70,23792,2,0,P|354:88|356:110,1,44,0|0,3:0|0:0,0:0:0:0:
237,37,23983,6,0,P|216:42|195:39,1,44,8|0,0:3|0:0,0:0:0:0:
180,119,24174,2,0,P|159:114|143:100,1,44,2|0,3:0|0:0,0:0:0:0:
82,167,24365,2,0,P|67:151|60:131,1,44,8|0,0:3|0:0,0:0:0:0:
319,132,24556,6,0,P|340:125|356:110,1,44,0|0,3:0|0:0,0:0:0:0:
243,219,24747,2,0,P|264:222|285:217,1,44,8|0,0:3|0:0,0:0:0:0:
141,300,24938,2,0,P|157:314|178:319,1,44,0|0,3:0|0:0,0:0:0:0:
362,257,25129,5,8,0:3:0:0:
151,161,25320,1,0,3:0:0:0:
332,50,25511,6,0,B|392:26|392:86|462:65,1,123.199996240234,4|0,0:0|0:0,0:0:0:0:
151,161,25894,2,0,B|91:137|91:197|21:176,1,123.199996240234,4|0,0:0|0:0,0:0:0:0:
430,272,26276,5,6,0:1:0:0:
354,224,26467,1,0,0:0:0:0:
337,264,26562,1,2,0:1:0:0:
347,306,26658,1,2,0:1:0:0:
430,272,26849,1,2,0:1:0:0:
347,306,27040,1,2,0:1:0:0:
337,264,27136,1,2,0:1:0:0:
354,224,27231,1,0,0:0:0:0:
430,272,27422,1,2,0:1:0:0:
283,58,27613,5,0,0:0:0:0:
326,52,27708,1,2,0:1:0:0:
370,46,27804,1,2,0:1:0:0:
202,123,27996,1,0,0:0:0:0:
159,117,28091,1,2,0:1:0:0:
115,111,28187,1,2,0:1:0:0:
202,123,28378,1,2,0:1:0:0:
240,213,28569,1,2,0:1:0:0:
277,191,28664,1,2,0:1:0:0:
300,154,28760,1,2,0:1:0:0:
302,111,28855,1,0,0:0:0:0:
285,70,28951,1,2,0:1:0:0:
202,123,29142,5,0,0:0:0:0:
159,117,29237,1,2,0:1:0:0:
115,111,29333,1,2,0:1:0:0:
240,213,29524,1,0,0:0:0:0:
283,207,29619,1,2,0:1:0:0:
327,201,29715,1,2,0:1:0:0:
240,213,29906,1,2,0:1:0:0:
202,123,30097,1,2,0:1:0:0:
165,145,30192,1,2,0:1:0:0:
143,183,30288,1,2,0:1:0:0:
141,226,30383,1,0,0:0:0:0:
159,266,30479,1,2,0:1:0:0:
240,213,30671,5,2,0:1:0:0:
283,207,30766,1,2,0:1:0:0:
327,201,30862,5,2,0:0:0:0:
343,165,30957,1,2,0:0:0:0:
366,191,31053,5,2,0:0:0:0:
384,166,31148,1,2,0:0:0:0:
406,180,31244,5,2,0:0:0:0:
324,275,31435,6,0,L|454:292,1,105.6,4|8,0:0|3:0,0:0:0:0:
324,193,31817,5,8,0:3:0:0:
324,193,31913,1,0,0:0:0:0:
324,193,32008,2,0,P|281:207|236:201,1,88,4|0,0:0|3:0,0:0:0:0:
157,169,32390,5,2,0:1:0:0:
233,121,32581,1,0,0:0:0:0:
250,161,32676,1,2,0:1:0:0:
240,203,32772,1,2,0:1:0:0:
157,169,32964,1,2,0:1:0:0:
240,203,33154,1,0,0:0:0:0:
250,161,33250,1,2,0:1:0:0:
233,121,33346,1,2,0:1:0:0:
157,169,33537,1,2,0:1:0:0:
382,107,33728,5,0,0:0:0:0:
372,65,33824,1,2,0:1:0:0:
389,25,33919,1,2,0:1:0:0:
465,73,34110,1,0,0:0:0:0:
465,73,34206,1,2,0:1:0:0:
465,73,34301,1,2,0:1:0:0:
389,25,34492,1,2,0:1:0:0:
372,65,34587,1,0,0:0:0:0:
382,107,34683,1,2,0:1:0:0:
399,147,34779,1,2,0:1:0:0:
389,189,34874,1,2,0:1:0:0:
389,25,35066,1,2,0:1:0:0:
307,155,35257,5,2,0:1:0:0:
307,155,35352,1,2,0:1:0:0:
307,155,35448,6,0,L|252:155,1,55,0|0,3:0|0:0,0:0:0:0:
209,68,35639,2,0,L|154:68,1,55,0|0,3:0|0:0,0:0:0:0:
407,87,35830,6,0,L|352:87,1,55,0|0,3:0|0:0,0:0:0:0:
246,241,36021,2,0,L|191:241,1,55,0|0,3:0|0:0,0:0:0:0:
397,285,36212,6,0,L|342:285,1,55,0|0,3:0|0:0,0:0:0:0:
144,157,36403,2,0,L|89:157,1,55,0|0,3:0|0:0,0:0:0:0:
432,181,36594,6,0,L|377:181,1,55,0|0,3:0|0:0,0:0:0:0:
191,335,36785,2,0,L|136:335,1,55,0|0,3:0|0:0,0:0:0:0:
283,101,36976,5,2,0:1:0:0:
256,142,37072,1,2,0:0:0:0:
284,174,37167,5,2,0:1:0:0:
259,203,37263,1,2,0:0:0:0:
276,231,37359,5,2,0:1:0:0:
263,255,37454,1,2,0:0:0:0:
291,332,37550,5,6,0:1:0:0:
291,332,38123,5,2,3:0:0:0:
291,332,38505,6,0,L|291:371,5,36.6666666666667,2|2|2|2|2|2,0:1|0:1|0:1|0:1|0:1|0:1,0:0:0:0:
291,332,38887,5,2,0:3:0:0:
291,332,39269,5,2,0:3:0:0:
463,238,39652,6,0,P|432:236|403:224,1,61.5999981201172,8|0,0:3|0:0,0:0:0:0:
333,170,39843,2,0,P|302:171|273:183,1,61.5999981201172,8|0,0:3|0:0,0:0:0:0:
208,230,40034,6,0,P|162:248|96:236,1,110,4|0,0:1|0:0,0:0:0:0:
56,183,40320,1,0,0:0:0:0:
56,183,40416,1,8,0:0:0:0:
192,67,40607,1,0,0:0:0:0:
257,125,40798,6,0,P|342:141|385:83,1,165,0|0,3:0|0:0,0:0:0:0:
458,141,41180,2,0,P|459:167|434:211,1,55,8|0,0:0|0:0,0:0:0:0:
312,74,41371,2,0,P|309:46|317:20,1,55
165,211,41562,5,0,3:0:0:0:
165,211,41658,1,0,0:0:0:0:
213,167,41753,2,0,B|242:193|244:240|188:281|188:281|133:243|174:202,1,220
325,230,42327,6,0,L|376:235,1,44,0|0,3:0|0:0,0:0:0:0:
492,247,42518,2,0,L|448:242,1,44
414,171,42709,2,0,P|411:149|402:130,1,44,8|0,0:0|0:0,0:0:0:0:
402,300,42900,2,0,P|388:317|370:329,1,44
216,238,43091,5,0,3:0:0:0:
49,255,43282,1,0,0:0:0:0:
149,317,43473,1,8,0:0:0:0:
127,179,43664,1,0,0:0:0:0:
127,179,43728,1,0,0:0:0:0:
127,179,43792,1,0,0:0:0:0:
127,179,43855,6,0,P|130:154|146:128,1,55,0|0,3:0|0:0,0:0:0:0:
205,80,44046,1,0,0:0:0:0:
296,193,44238,1,8,0:0:0:0:
159,271,44429,1,0,0:0:0:0:
113,46,44620,5,0,3:0:0:0:
360,89,44811,1,0,0:0:0:0:
358,286,45002,5,8,0:0:0:0:
110,327,45193,1,0,0:0:0:0:
283,242,45384,5,0,3:0:0:0:
295,217,45479,1,0,3:0:0:0:
298,189,45575,1,0,3:0:0:0:
290,162,45670,1,0,3:0:0:0:
196,197,45766,5,8,3:2:0:0:
175,234,45861,1,0,3:0:0:0:
170,278,45957,1,0,3:0:0:0:
183,321,46052,1,0,3:0:0:0:
216,350,46148,5,4,3:1:0:0:
329,174,46339,1,0,0:0:0:0:
406,215,46531,2,0,P|459:227|508:194,1,110,8|0,0:0|0:0,0:0:0:0:
375,116,46913,5,0,3:0:0:0:
350,104,47008,1,0,0:0:0:0:
322,100,47104,1,0,0:0:0:0:
296,108,47199,1,0,0:0:0:0:
274,125,47295,6,0,L|260:179,1,55,8|0,0:0|0:0,0:0:0:0:
218,82,47486,2,0,L|204:136,1,55
160,39,47677,6,0,P|183:18|213:10,1,61.5999981201172,0|0,3:0|0:0,0:0:0:0:
351,39,47868,2,0,P|328:18|298:10,1,61.5999981201172
82,179,48059,6,0,P|109:192|139:192,1,61.5999981201172,8|0,0:0|0:0,0:0:0:0:
430,179,48250,2,0,P|402:192|372:192,1,61.5999981201172
228,127,48441,6,0,B|251:110|277:114|287:138|287:138|257:258,1,184.799994360352,0|0,3:0|0:0,0:0:0:0:
234,273,48824,2,0,L|304:272,1,61.5999981201172,8|0,0:0|0:0,0:0:0:0:
370,317,49015,1,0,3:0:0:0:
214,377,49206,5,0,3:0:0:0:
370,317,49397,2,0,L|380:259,1,55,0|0,0:0|0:0,0:0:0:0:
295,272,49588,2,0,L|169:275,1,110,8|0,0:0|0:0,0:0:0:0:
93,175,49970,2,0,P|151:186|201:156,1,110,0|0,3:0|0:0,0:0:0:0:
280,133,50352,1,8,0:0:0:0:
281,152,50447,1,0,0:0:0:0:
275,170,50543,1,0,0:0:0:0:
135,97,50734,6,0,P|163:82|208:84,1,61.5999981201172,0|0,3:0|0:0,0:0:0:0:
274,25,50925,2,0,P|297:46|341:56,1,61.5999981201172,0|0,0:0|3:0,0:0:0:0:
430,86,51117,2,0,P|416:58|416:27,1,61.5999981201172,8|0,0:0|0:0,0:0:0:0:
494,158,51308,2,0,P|493:188|480:216,1,61.5999981201172,0|0,3:0|0:0,0:0:0:0:
411,314,51499,6,0,L|499:306,1,70.4,8|0,0:0|0:0,0:0:0:0:
282,254,51690,2,0,L|370:246,1,70.4,8|0,0:0|0:0,0:0:0:0:
153,350,51881,2,0,L|307:335,1,140.8,12|0,0:0|0:0,0:0:0:0:
88,208,52263,5,4,0:1:0:0:
282,254,52454,1,0,0:0:0:0:
239,189,52645,2,0,P|220:139|239:83,1,110,8|0,0:0|0:0,0:0:0:0:
309,135,53027,2,0,B|391:106|391:175|473:140,1,165,0|0,3:0|0:0,0:0:0:0:
430,72,53410,2,0,P|461:63|501:70,1,55,8|0,0:0|0:0,0:0:0:0:
483,231,53601,2,0,P|455:231|429:223,1,55
291,111,53792,5,0,3:0:0:0:
301,141,53887,1,0,0:0:0:0:
318,228,53983,2,0,B|278:240|243:198|243:198|221:240|140:248|140:203|184:207,1,220
276,305,54556,6,0,L|338:300,1,44,0|0,3:0|0:0,0:0:0:0:
192,314,54747,2,0,L|148:317,1,44
252,198,54938,2,0,P|252:220|244:241,1,44,8|0,0:0|0:0,0:0:0:0:
210,120,55129,2,0,P|201:100|202:79,1,44
253,199,55320,5,0,3:0:0:0:
450,74,55511,1,0,0:0:0:0:
485,193,55703,1,8,0:0:0:0:
387,157,55894,1,0,0:0:0:0:
387,157,55957,1,0,0:0:0:0:
387,157,56021,1,0,0:0:0:0:
387,157,56085,6,0,L|379:215,1,55,0|0,3:0|0:0,0:0:0:0:
371,277,56276,1,0,0:0:0:0:
235,225,56467,1,8,0:0:0:0:
217,90,56658,1,0,0:0:0:0:
385,43,56849,5,0,3:0:0:0:
449,253,57040,1,0,0:0:0:0:
185,346,57231,5,8,0:0:0:0:
216,156,57422,1,0,0:0:0:0:
94,165,57613,5,0,3:0:0:0:
87,190,57708,1,0,3:0:0:0:
88,219,57804,1,0,3:0:0:0:
101,243,57899,1,0,3:0:0:0:
196,195,57996,5,8,3:2:0:0:
216,156,58091,1,0,3:0:0:0:
217,112,58187,1,0,3:0:0:0:
202,70,58282,1,0,3:0:0:0:
170,38,58378,5,4,3:1:0:0:
101,243,58569,1,0,0:0:0:0:
172,273,58760,2,0,P|185:324|159:372,1,110,8|0,0:0|0:0,0:0:0:0:
101,243,59142,5,0,3:0:0:0:
88,219,59237,1,0,0:0:0:0:
87,190,59333,1,0,0:0:0:0:
94,165,59428,1,0,0:0:0:0:
111,144,59524,6,0,P|100:174|105:210,1,55,8|0,0:0|0:0,0:0:0:0:
193,108,59715,2,0,P|193:80|182:55,1,55
101,196,59906,6,0,P|128:213|170:213,1,61.5999981201172,0|0,3:0|0:0,0:0:0:0:
411,196,60097,2,0,P|384:213|342:213,1,61.5999981201172
155,315,60288,6,0,P|183:300|201:276,1,61.5999981201172,8|0,0:0|0:0,0:0:0:0:
356,315,60480,2,0,P|328:301|310:276,1,61.5999981201172
375,114,60671,6,0,L|191:96,1,184.799994360352,0|0,3:0|0:0,0:0:0:0:
110,176,61053,2,0,P|141:175|181:197,1,61.5999981201172,8|0,0:0|0:0,0:0:0:0:
265,73,61244,2,0,P|295:74|323:62,1,61.5999981201172,0|0,3:0|0:0,0:0:0:0:
452,191,61435,5,0,3:0:0:0:
341,236,61626,2,0,L|356:183,1,55,0|0,3:0|0:0,0:0:0:0:
375,114,61817,2,0,L|247:102,1,110,8|0,0:0|0:0,0:0:0:0:
168,186,62199,2,0,L|58:196,1,110,0|0,3:0|0:0,0:0:0:0:
144,117,62581,1,8,0:0:0:0:
162,111,62677,1,0,0:0:0:0:
181,112,62772,1,0,0:0:0:0:
111,265,62964,6,0,P|136:280|185:279,1,61.5999981201172,0|0,3:0|0:0,0:0:0:0:
244,343,63155,2,0,P|269:328|318:329,1,61.5999981201172,0|0,3:0|3:0,0:0:0:0:
416,358,63346,2,0,P|396:335|389:287,1,61.5999981201172,8|0,0:0|0:0,0:0:0:0:
434,210,63537,2,0,P|453:187|460:139,1,61.5999981201172,0|0,3:0|0:0,0:0:0:0:
378,56,63728,6,0,L|466:48,1,70.4,8|0,0:0|0:0,0:0:0:0:
256,148,63919,2,0,L|344:140,1,70.4,8|0,0:0|0:0,0:0:0:0:
224,54,64110,2,0,L|83:67,1,140.8,8|0,0:0|3:0,0:0:0:0:
33,126,64397,1,0,3:0:0:0:
33,126,64492,1,4,1:0:0:0:
129,143,66021,5,4,0:1:0:0:
225,160,67550,5,4,0:1:0:0:
321,177,69078,5,4,0:1:0:0:
321,177,69843,1,4,1:0:0:0:
321,177,70225,2,0,L|257:168,1,44,0|0,3:0|0:0,0:0:0:0:
376,241,70416,2,0,L|440:232,1,44,0|0,3:0|0:0,0:0:0:0:
311,288,70607,6,0,P|289:330|297:370,1,88,4|0,0:1|0:0,0:0:0:0:
376,241,70989,2,0,P|398:199|390:159,1,88,8|0,0:3|0:0,0:0:0:0:
337,101,71276,1,0,0:0:0:0:
273,148,71371,2,0,L|280:191,1,44,0|0,3:0|0:0,0:0:0:0:
344,57,71562,2,0,L|336:100,1,44,0|0,3:0|0:0,0:0:0:0:
257,14,71753,1,8,0:3:0:0:
93,276,71945,5,0,3:0:0:0:
91,283,72040,1,0,3:0:0:0:
93,291,72136,1,8,0:3:0:0:
214,195,72327,5,0,3:0:0:0:
216,205,72422,1,0,3:0:0:0:
214,215,72518,1,8,0:3:0:0:
83,141,72709,5,0,3:0:0:0:
79,156,72804,1,0,3:0:0:0:
82,171,72900,1,8,0:3:0:0:
218,49,73091,5,0,3:0:0:0:
221,72,73186,1,0,3:0:0:0:
215,94,73282,2,0,L|269:91,1,44,8|0,0:3|0:0,0:0:0:0:
195,159,73473,2,0,L|249:156,1,44,0|0,3:0|0:0,0:0:0:0:
340,139,73664,6,0,L|322:236,1,88,2|0,0:3|0:0,0:0:0:0:
459,161,73951,1,2,3:0:0:0:
454,177,74046,2,0,P|437:139|450:95,1,88,2|0,3:3|0:0,0:0:0:0:
283,31,74333,1,2,3:3:0:0:
295,19,74428,2,0,P|290:60|257:92,1,88,0|0,3:3|0:0,0:0:0:0:
175,270,74715,1,2,3:3:0:0:
157,269,74810,2,0,P|189:242|235:243,1,88,2|0,3:3|0:0,0:0:0:0:
398,284,75097,1,2,0:3:0:0:
382,292,75193,6,0,L|373:204,1,88,0|0,3:0|0:0,0:0:0:0:
314,318,75480,1,0,3:0:0:0:
298,326,75576,6,0,L|285:208,1,110,0|0,3:0|0:0,0:0:0:0:
225,367,75862,1,0,3:0:0:0:
209,375,75957,6,0,L|201:313,1,61.5999981201172,8|0,0:0|0:0,0:0:0:0:
193,239,76148,2,0,L|185:177,1,61.5999981201172,0|0,3:0|0:0,0:0:0:0:
98,70,76339,6,0,L|91:132,1,61.5999981201172,8|0,0:0|0:0,0:0:0:0:
82,206,76531,2,0,L|75:268,1,61.5999981201172,0|0,3:0|0:0,0:0:0:0:
58,152,77486,6,0,P|87:165|132:156,3,61.5999981201172
179,112,77868,6,0,P|212:100|247:101,1,70.4,0|0,3:0|0:0,0:0:0:0:
334,44,78059,2,0,P|364:61|398:66,1,70.4,0|0,3:0|0:0,0:0:0:0:
489,138,78250,5,4,3:1:0:0:
312,273,78441,1,0,3:0:0:0:
308,251,78505,1,0,3:0:0:0:
315,231,78569,1,0,3:0:0:0:
331,216,78632,2,0,P|355:230|395:230,1,55,8|0,0:0|0:0,0:0:0:0:
489,138,78824,2,0,P|465:152|425:152,1,55,0|0,3:0|0:0,0:0:0:0:
331,73,79015,6,0,P|355:59|395:59,3,55,2|2|0|2,0:1|0:1|0:1|0:1,0:0:0:0:
252,43,79397,6,0,P|243:73|247:104,1,61.5999981201172,8|0,0:0|0:0,0:0:0:0:
331,216,79588,2,0,P|339:246|335:277,1,61.5999981201172,0|0,3:0|0:0,0:0:0:0:
251,384,79779,5,0,3:0:0:0:
108,286,79970,1,0,3:0:0:0:
125,272,80034,1,0,3:0:0:0:
145,268,80098,1,0,3:0:0:0:
167,269,80161,2,0,P|152:246|148:219,1,55,8|0,0:0|0:0,0:0:0:0:
280,121,80352,2,0,P|275:148|261:170,1,55,0|0,3:0|0:0,0:0:0:0:
158,66,80543,6,0,P|162:38|176:16,3,55,2|2|2|2,0:1|0:1|0:1|0:1,0:0:0:0:
161,146,80925,6,0,L|88:150,1,61.5999981201172,8|0,0:0|0:0,0:0:0:0:
320,48,81117,2,0,L|247:44,1,61.5999981201172,0|0,3:0|0:0,0:0:0:0:
435,179,81308,5,0,3:0:0:0:
298,329,81499,1,0,3:0:0:0:
302,307,81563,1,0,3:0:0:0:
295,287,81627,1,0,3:0:0:0:
281,271,81690,2,0,P|249:282|211:280,1,55,8|0,0:0|0:0,0:0:0:0:
382,167,81881,2,0,P|409:169|434:178,1,55,0|0,3:0|0:0,0:0:0:0:
255,70,82072,6,0,P|227:72|203:83,3,55,2|2|2|2,0:1|0:1|0:1|0:1,0:0:0:0:
388,126,82454,6,0,L|397:58,1,61.5999981201172,8|0,0:0|0:0,0:0:0:0:
255,204,82645,2,0,L|246:142,1,61.5999981201172,0|0,3:0|0:0,0:0:0:0:
398,252,82836,6,0,P|423:316|390:384,1,140.8,0|0,3:0|0:0,0:0:0:0:
325,302,83123,1,0,3:0:0:0:
342,314,83218,1,8,0:0:0:0:
452,188,83410,1,0,3:0:0:0:
250,108,83601,5,0,3:0:0:0:
281,79,83696,1,0,0:0:0:0:
323,72,83792,1,0,0:0:0:0:
362,88,83887,1,0,0:0:0:0:
334,203,83983,5,8,0:0:0:0:
289,230,84078,1,0,3:0:0:0:
237,233,84174,1,0,3:0:0:0:
189,211,84269,1,0,3:0:0:0:
158,169,84365,5,4,3:1:0:0:
291,95,84556,1,0,3:0:0:0:
286,116,84620,1,0,3:0:0:0:
271,132,84684,1,0,3:0:0:0:
253,144,84747,2,0,P|242:120|248:83,1,55,8|0,0:0|0:0,0:0:0:0:
375,204,84938,2,0,P|377:231|365:256,1,55,0|0,3:0|0:0,0:0:0:0:
445,76,85129,6,0,L|509:88,3,55,2|2|2|2,0:1|0:1|0:1|0:1,0:1:0:0:
347,21,85511,6,0,P|318:34|273:32,1,61.5999981201172,8|0,0:0|0:0,0:0:0:0:
217,102,85703,2,0,P|188:89|143:91,1,61.5999981201172,0|0,3:0|0:0,0:0:0:0:
43,216,85894,6,0,P|88:186|151:196,1,110,0|0,3:0|3:0,0:0:0:0:
133,291,86148,1,0,3:0:0:0:
118,307,86212,1,0,3:0:0:0:
96,309,86276,2,0,P|93:282|106:258,1,55,8|0,0:0|0:0,0:0:0:0:
265,151,86467,2,0,P|277:175|274:202,1,55,0|0,3:0|0:0,0:0:0:0:
114,87,86658,6,0,L|50:99,3,55,2|2|2|2,0:1|0:1|0:1|0:1,0:0:0:0:
218,29,87040,6,0,P|198:79|237:116,1,110,8|0,0:0|3:0,0:0:0:0:
284,62,87327,1,0,3:0:0:0:
284,62,87422,5,0,3:0:0:0:
132,99,87613,1,0,0:0:0:0:
110,302,87804,5,0,3:0:0:0:
344,317,87995,1,0,0:0:0:0:
255,111,88187,6,0,P|247:136|254:163,1,55,0|0,3:0|0:0,0:0:0:0:
256,302,88378,1,0,3:0:0:0:
256,53,88569,6,0,L|256:93,2,36.6666666666667,0|0|0,3:0|0:0|0:0,0:0:0:0:
256,186,88760,1,0,0:0:0:0:
432,138,88951,6,0,L|432:203,1,61.5999981201172,8|0,0:0|0:0,0:0:0:0:
135,94,89142,1,0,3:0:0:0:
135,94,89206,1,0,3:0:0:0:
135,94,89269,1,0,3:0:0:0:
135,94,89333,2,0,L|135:159,1,61.5999981201172,8|0,0:0|0:0,0:0:0:0:
331,18,89524,2,0,L|331:83,1,61.5999981201172,0|0,3:0|0:0,0:0:0:0:
315,324,89715,5,0,3:0:0:0:
315,324,89779,1,0,3:0:0:0:
315,324,89843,1,0,3:0:0:0:
315,324,89906,2,0,L|315:262,1,61.5999981201172,8|0,0:0|0:0,0:0:0:0:
175,205,90097,2,0,L|175:143,1,61.5999981201172,0|0,3:0|0:0,0:0:0:0:
368,119,90288,2,0,L|368:57,1,61.5999981201172,8|0,0:0|0:0,0:0:0:0:
213,68,90480,6,0,L|86:85,1,110,4|0,3:1|3:0,0:0:0:0:
43,131,90734,1,0,3:0:0:0:
27,116,90798,1,0,3:0:0:0:
24,94,90862,2,0,P|25:64|42:39,1,55,8|0,0:0|0:0,0:0:0:0:
175,143,91053,2,0,P|188:166|188:193,1,55,0|0,3:0|0:0,0:0:0:0:
69,291,91244,6,0,L|78:223,3,55,2|2|2|2,0:1|0:1|0:1|0:1,0:0:0:0:
211,348,91626,6,0,P|182:339|135:348,1,61.5999981201172,8|0,0:0|0:0,0:0:0:0:
280,257,91817,2,0,P|310:263|341:257,1,61.5999981201172,0|0,3:0|0:0,0:0:0:0:
365,134,92008,6,0,L|492:151,1,110,0|0,3:0|3:0,0:0:0:0:
385,49,92263,1,0,3:0:0:0:
404,59,92327,1,0,3:0:0:0:
426,61,92391,2,0,P|454:52|474:29,1,55,8|0,0:0|0:0,0:0:0:0:
316,200,92581,2,0,P|296:180|270:173,1,55,0|0,3:0|0:0,0:0:0:0:
444,312,92773,6,0,L|435:244,3,55,2|2|2|2,0:1|0:1|0:1|0:1,0:0:0:0:
290,241,93155,6,0,P|319:232|366:241,1,61.5999981201172,8|0,0:0|0:0,0:0:0:0:
212,327,93346,2,0,P|181:332|151:326,1,61.5999981201172,0|0,3:0|0:0,0:0:0:0:
64,218,93537,5,0,3:0:0:0:
233,148,93728,1,0,3:0:0:0:
144,295,93919,1,8,0:0:0:0:
142,276,93983,1,0,0:0:0:0:
149,259,94046,1,0,0:0:0:0:
162,246,94110,2,0,B|226:215|226:271|291:247,1,123.199996240234,0|0,0:0|3:0,0:0:0:0:
427,197,94492,5,0,3:0:0:0:
450,264,94588,1,0,3:0:0:0:
414,321,94683,2,0,L|420:382,1,61.5999981201172,8|0,0:0|0:0,0:0:0:0:
280,250,94874,2,0,L|287:189,1,61.5999981201172,0|0,3:0|0:0,0:0:0:0:
393,3,95066,6,0,P|421:66|396:130,1,140.8,0|0,3:0|3:0,0:0:0:0:
323,80,95353,1,0,3:0:0:0:
340,68,95448,1,8,0:0:0:0:
427,197,95639,1,0,3:0:0:0:
216,281,95830,5,0,3:0:0:0:
253,315,95925,1,0,3:0:0:0:
303,324,96021,1,0,3:0:0:0:
350,305,96116,1,0,3:0:0:0:
324,180,96212,5,8,3:2:0:0:
270,147,96307,1,0,3:0:0:0:
207,144,96403,1,0,3:0:0:0:
149,170,96498,1,0,3:0:0:0:
110,220,96594,5,4,3:1:0:0:
252,67,96785,1,0,3:0:0:0:
229,63,96849,1,0,3:0:0:0:
210,71,96913,1,0,3:0:0:0:
195,87,96976,2,0,P|217:100|255:98,1,55,8|0,0:0|0:0,0:0:0:0:
422,34,97167,2,0,P|394:34|371:48,1,55,0|0,3:0|0:0,0:0:0:0:
498,154,97359,6,0,L|508:86,3,55,2|2|2|2,0:1|0:1|0:1|0:1,0:0:0:0:
401,254,97741,6,0,L|485:268,1,61.5999981201172,8|0,0:0|0:0,0:0:0:0:
256,165,97932,2,0,L|316:154,1,61.5999981201172,0|0,3:0|0:0,0:0:0:0:
178,284,98123,6,0,L|69:266,1,110,0|0,3:0|3:0,0:0:0:0:
179,120,98378,1,0,3:0:0:0:
169,138,98442,1,0,3:0:0:0:
166,160,98505,2,0,P|171:197|200:231,1,55,8|0,0:0|0:0,0:0:0:0:
297,82,98696,2,0,P|308:57|310:30,1,55,0|0,3:0|0:0,0:0:0:0:
423,234,98887,6,0,L|487:246,3,55,2|2|2|2,0:1|0:1|0:1|0:1,0:0:0:0:
324,193,99269,6,0,P|344:243|305:280,1,110,8|0,0:0|3:0,0:0:0:0:
258,226,99556,1,0,3:0:0:0:
258,226,99652,5,0,3:0:0:0:
291,83,99843,1,0,0:0:0:0:
75,133,100034,5,8,0:0:0:0:
94,321,100225,1,0,0:0:0:0:
258,226,100416,5,0,3:0:0:0:
184,59,100607,1,0,3:0:0:0:
174,100,100702,1,0,3:0:0:0:
192,139,100798,2,0,P|205:117|209:86,1,55,8|0,0:0|0:0,0:0:0:0:
258,226,100989,2,0,P|262:253|276:277,1,55,0|0,3:0|0:0,0:0:0:0:
363,295,101180,6,0,L|369:377,1,61.5999981201172,8|0,0:0|0:0,0:0:0:0:
149,295,101371,2,0,L|143:377,1,61.5999981201172,8|0,0:0|0:0,0:0:0:0:
397,163,101562,6,0,L|403:245,1,61.5999981201172,8|0,0:0|0:0,0:0:0:0:
115,163,101753,2,0,L|109:245,1,61.5999981201172,8|0,0:0|0:0,0:0:0:0:
441,29,101945,6,0,L|447:111,1,61.5999981201172,8|0,0:0|0:0,0:0:0:0:
71,29,102136,2,0,L|65:111,1,61.5999981201172,8|0,0:0|0:0,0:0:0:0:
268,54,102327,5,0,3:0:0:0:
241,122,102422,1,0,3:0:0:0:
255,194,102518,1,0,3:0:0:0:
277,263,102613,1,0,3:0:0:0:
246,329,102709,1,4,3:1:0:0:
362,140,103282,5,2,0:1:0:0:
370,96,103377,1,2,0:1:0:0:
418,185,103473,1,2,0:1:0:0:
172,289,104046,5,2,0:1:0:0:
164,245,104141,1,2,0:1:0:0:
116,334,104237,1,2,0:1:0:0:
269,87,104620,5,2,0:1:0:0:
323,56,104747,1,2,0:1:0:0:
384,59,104875,1,2,0:1:0:0:
221,178,105002,5,2,0:1:0:0:
179,154,105129,1,2,0:1:0:0:
130,157,105257,1,2,0:1:0:0:
292,247,105384,5,2,0:1:0:0:
327,227,105511,1,2,0:1:0:0:
366,230,105639,1,2,0:1:0:0:
224,326,105766,5,4,0:1:0:0:
56,128,106339,5,2,0:1:0:0:
87,123,106434,1,2,0:1:0:0:
118,119,106530,5,2,0:1:0:0:
95,240,106722,1,2,0:1:0:0:
227,191,106913,5,2,0:1:0:0:
212,55,107104,1,2,0:1:0:0:
362,115,107295,5,2,0:1:0:0:
339,268,107495,1,2,0:1:0:0:
491,195,107695,5,2,0:1:0:0:
470,57,107895,1,2,0:1:0:0:
324,192,108095,5,2,0:1:0:0:
160,192,108309,2,0,L|198:192,3,29.3333333333333,2|2|0|0,0:1|0:1|0:0|0:0,0:0:0:0:
128,53,109557,5,2,0:1:0:0:
232,35,109764,1,2,0:1:0:0:
388,142,109971,5,2,0:1:0:0:
295,120,110178,1,2,0:1:0:0:
142,227,110392,5,2,0:1:0:0:
223,206,110606,1,2,0:1:0:0:
370,321,110828,5,2,0:1:0:0:
298,301,111050,1,2,0:1:0:0:
213,371,111280,5,2,0:1:0:0:
295,218,111511,1,2,0:1:0:0:
152,113,111751,5,2,0:1:0:0:
186,109,111871,1,2,0:1:0:0:
228,105,111991,6,0,B|303:126|303:126|236:165|236:165|238:243|238:243|183:192|183:192|110:218|110:218|141:149|141:149|94:87|94:87|170:96|170:96|216:32|216:32|227:94,1,754.285714285714
