osu file format v14

[General]
AudioFilename: audio.mp3
AudioLeadIn: 0
PreviewTime: 77868
Countdown: 0
SampleSet: Soft
StackLeniency: 0.7
Mode: 0
LetterboxInBreaks: 0
WidescreenStoryboard: 1

[Editor]
Bookmarks: 14046,26180,26276,64492,66021,83027,87040
DistanceSpacing: 1.2
BeatDivisor: 6
GridSize: 8
TimelineZoom: 1.9

[Metadata]
Title:AsiaN distractive
TitleUnicode:AsiaN distractive
Artist:Nekomata Gekidan
ArtistUnicode:猫叉劇団
Creator:Regou
Version:Hyper
Source:beatmania IIDX 24 SINOBUZ
Tags:Pending cup #5 yf_bmp gary00737 Chaoslitz StarrStyx 09kami Frey Suzuki_1112 Dailycare 1112deng Master
BeatmapID:1399559
BeatmapSetID:657122

[Difficulty]
HPDrainRate:6
CircleSize:3.7
OverallDifficulty:6
ApproachRate:7.5
SliderMultiplier:1.5
SliderTickRate:1

[Events]
//Background and Video events
0,0,"3.jpg",0,0
//Break Periods
2,37749,38827
//Storyboard Layer 0 (Background)
//Storyboard Layer 1 (Fail)
//Storyboard Layer 2 (Pass)
//Storyboard Layer 3 (Foreground)
//Storyboard Sound Samples

[TimingPoints]
289,382.165605095541,4,2,1,90,1,0
1722,-100,4,2,1,90,0,0
1817,-100,4,2,1,90,0,0
3728,-100,4,2,1,90,0,0
3855,-100,4,2,1,90,0,0
4874,-100,4,2,1,90,0,0
5448,-100,4,2,1,90,0,0
6403,-100,4,2,1,90,0,0
6594,-100,4,2,1,90,0,0
7167,-100,4,2,1,90,0,0
7263,-100,4,2,1,90,0,0
7550,-100,4,2,1,90,0,0
9460,-100,4,2,1,90,0,0
10225,-100,4,2,1,90,0,0
10320,-100,4,2,1,90,0,0
10607,-100,4,2,1,90,0,0
11371,-100,4,2,1,30,0,0
11945,-100,4,2,1,90,0,0
12136,-100,4,2,1,90,0,0
12327,-100,4,2,1,90,0,0
12518,-100,4,2,1,90,0,0
12709,-100,4,2,1,90,0,0
12900,-100,4,2,1,90,0,0
13091,-100,4,2,1,90,0,0
13282,-100,4,2,1,90,0,0
13664,-100,4,2,1,90,0,0
13855,-100,4,2,1,90,0,0
14046,-100,4,2,1,90,0,0
14429,-100,4,2,1,90,0,0
14620,-100,4,2,1,90,0,0
14811,-100,4,2,1,90,0,0
16531,-100,4,2,1,90,0,0
17104,-100,4,2,1,90,0,0
17295,-100,4,2,1,90,0,0
17486,-100,4,2,1,90,0,0
17868,-100,4,2,1,90,0,0
18059,-100,4,2,1,90,0,0
18155,-100,4,2,1,90,0,0
18441,-100,4,2,1,90,0,0
18632,-100,4,2,1,90,0,0
18728,-100,4,2,1,90,0,0
18824,-100,4,2,1,90,0,0
18919,-100,4,2,1,90,0,0
19015,-100,4,2,1,90,0,0
19206,-100,4,2,1,90,0,0
19397,-100,4,2,1,90,0,0
20161,-100,4,2,1,90,0,0
20734,-100,4,2,1,90,0,0
21212,-100,4,2,1,90,0,0
21308,-100,4,2,1,90,0,0
21690,-100,4,2,1,90,0,0
21881,-100,4,2,1,90,0,0
21976,-100,4,2,1,90,0,0
22454,-100,4,2,1,90,0,0
23218,-100,4,2,1,90,0,0
23983,-100,4,2,1,90,0,0
24365,-100,4,2,1,90,0,0
24747,-100,4,2,1,90,0,0
25129,-100,4,2,1,90,0,0
25511,-100,4,2,1,90,0,0
25894,-100,4,2,1,90,0,0
26276,-100,4,2,1,90,0,0
26562,-100,4,2,1,90,0,0
26658,-100,4,2,1,90,0,0
26849,-100,4,2,1,90,0,0
27040,-100,4,2,1,90,0,0
27136,-100,4,2,1,90,0,0
27231,-100,4,2,1,90,0,0
27327,-100,4,2,1,90,0,0
27613,-100,4,2,1,90,0,0
28091,-100,4,2,1,90,0,0
28187,-100,4,2,1,90,0,0
28378,-100,4,2,1,90,0,0
28569,-100,4,2,1,90,0,0
28664,-100,4,2,1,90,0,0
28760,-100,4,2,1,90,0,0
28855,-100,4,2,1,90,0,0
29142,-100,4,2,1,90,0,0
29620,-100,4,2,1,90,0,0
29715,-100,4,2,1,90,0,0
29906,-100,4,2,1,90,0,0
30097,-100,4,2,1,90,0,0
30193,-100,4,2,1,90,0,0
30288,-100,4,2,1,90,0,0
30384,-100,4,2,1,90,0,0
30671,-100,4,2,1,90,0,0
30862,-100,4,2,1,90,0,0
31148,-100,4,2,1,90,0,0
31244,-100,4,2,1,90,0,0
31435,-100,4,2,1,90,0,0
32008,-100,4,2,1,90,0,0
32677,-100,4,2,1,90,0,0
32773,-100,4,2,1,90,0,0
32964,-100,4,2,1,90,0,0
33155,-100,4,2,1,90,0,0
33250,-100,4,2,1,90,0,0
33346,-100,4,2,1,90,0,0
33441,-100,4,2,1,90,0,0
33728,-100,4,2,1,90,0,0
34206,-100,4,2,1,90,0,0
34301,-100,4,2,1,90,0,0
34492,-100,4,2,1,90,0,0
34683,-100,4,2,1,90,0,0
34779,-100,4,2,1,90,0,0
34874,-100,4,2,1,90,0,0
34970,-100,4,2,1,90,0,0
35257,-100,4,2,1,90,0,0
35448,-100,4,2,1,90,0,0
35830,-100,4,2,1,90,0,0
36212,-100,4,2,1,90,0,0
36594,-100,4,2,1,90,0,0
37550,-100,4,2,1,90,0,0
38505,-100,4,2,1,90,0,0
38569,-100,4,2,1,70,0,0
38632,-100,4,2,1,50,0,0
38696,-100,4,2,1,40,0,0
38760,-100,4,2,1,30,0,0
38887,-100,4,2,1,40,0,0
39078,-100,4,2,1,60,0,0
39269,-100,4,2,1,90,0,0
39652,-100,4,2,1,90,0,0
39843,-100,4,2,1,90,0,0
40034,-100,4,2,1,90,0,0
40225,-100,4,2,1,90,0,0
51499,-100,4,2,1,90,0,0
51881,-100,4,2,1,90,0,0
52263,-100,4,2,1,90,0,0
62964,-100,4,2,1,90,0,0
63346,-100,4,2,1,90,0,0
63537,-100,4,2,1,90,0,0
63919,-100,4,2,1,90,0,0
64492,-100,4,2,2,90,0,0
65066,-100,4,2,2,90,0,0
66021,-100,4,2,2,90,0,0
66833,-100,4,2,2,90,0,0
66976,-100,4,2,2,95,0,0
67167,-100,4,2,2,95,0,0
67263,-100,4,2,2,100,0,0
67359,-100,4,2,2,100,0,0
67550,-100,4,2,2,90,0,0
68123,-100,4,2,2,90,0,0
69078,-100,4,2,2,90,0,0
69843,-100,4,2,1,90,0,0
70607,-100,4,2,1,90,0,0
71180,-100,4,2,1,90,0,0
73664,-100,4,2,1,90,0,0
74429,-100,4,2,1,90,0,0
74811,-100,4,2,1,90,0,0
75002,-100,4,2,1,90,0,0
75193,-100,4,2,1,90,0,0
75766,-100,4,2,1,90,0,0
75862,-100,4,2,1,90,0,0
75957,-100,4,2,1,90,0,0
76148,-100,4,2,1,90,0,0
77773,-100,4,2,1,5,0,0
77868,-100,4,2,1,90,0,0
78250,-90.9090909090909,4,2,1,90,0,1
78441,-90.9090909090909,4,2,1,90,0,1
90097,-90.9090909090909,4,2,1,90,0,1
90480,-90.9090909090909,4,2,1,90,0,1
90671,-90.9090909090909,4,2,1,90,0,1
94301,-90.9090909090909,4,2,1,90,0,1
95066,-90.9090909090909,4,2,1,90,0,1
95257,-90.9090909090909,4,2,1,90,0,1
102136,-90.9090909090909,4,2,1,90,0,1
102709,-100,4,2,1,90,0,0
104620,-100,4,2,1,90,0,0
105002,-100,4,2,1,90,0,0
105384,-100,4,2,1,90,0,0
105639,-100,4,2,1,90,0,0
105703,-100,4,2,1,90,0,0
105766,-100,4,2,1,90,0,0
107295,400,4,2,1,90,1,0
107695,-100,4,2,1,90,0,0
108095,428.571428571429,4,2,1,90,1,0
108523,413.793103448276,4,2,1,90,1,0
109557,-100,4,2,1,90,0,0
110178,428.571428571429,4,2,1,90,1,0
110606,444.444444444444,4,2,1,90,1,0
111050,461.538461538462,4,2,1,90,1,0
111511,480,4,2,1,90,1,0
111991,500,4,2,1,90,1,0
112022,-100,4,2,2,5,0,0
112116,-100,4,2,2,5,0,0
114991,-100,4,2,2,5,0,0

[Colours]
Combo1 : 241,139,48
Combo2 : 247,89,156
Combo3 : 64,128,247
Combo4 : 156,225,72

[HitObjects]
48,262,1626,5,2,3:2:0:0:
40,242,1722,1,2,3:2:0:0:
39,217,1817,1,4,1:0:0:0:
103,333,2390,1,2,3:2:0:0:
89,349,2486,1,2,3:2:0:0:
68,363,2581,1,0,3:0:0:0:
140,254,3155,1,2,3:2:0:0:
160,258,3251,1,2,3:2:0:0:
183,269,3346,1,0,3:0:0:0:
344,334,3728,6,0,L|363:382,8,50,8|0|0|8|8|8|4|4|4,2:3|0:0|0:0|0:3|0:3|0:3|0:3|0:3|0:3,0:0:0:0:
324,291,4874,1,4,1:0:0:0:
437,59,5448,5,2,3:2:0:0:
437,59,5543,1,2,3:2:0:0:
437,59,5639,2,0,P|443:111|444:146,1,75,0|2,3:0|3:2,0:0:0:0:
340,43,6021,2,0,P|334:95|333:130,1,75,0|2,3:0|3:2,0:0:0:0:
236,80,6403,2,0,P|242:132|243:167,1,75,0|0,3:0|3:0,0:0:0:0:
139,64,6785,2,0,P|133:116|132:151,1,75,0|0,3:0|3:0,0:0:0:0:
48,192,7167,6,0,L|60:306,1,112.5,4|0,1:2|0:0,0:0:0:0:
50,325,7550,1,4,1:0:0:0:
210,245,8505,5,2,3:2:0:0:
210,245,8696,1,2,3:2:0:0:
210,245,9078,2,0,P|207:286|217:322,1,75,0|0,3:0|3:0,0:0:0:0:
354,225,9460,2,0,P|319:201|283:192,1,75,2|0,3:2|3:0,0:0:0:0:
306,364,9843,2,0,P|343:346|369:319,2,75,0|0|4,3:0|3:0|1:2,0:0:0:0:
223,324,10416,1,8,3:0:0:0:
223,324,10511,1,2,3:2:0:0:
223,324,10607,1,4,1:1:0:0:
215,34,11945,6,0,P|211:90|210:133,1,75,2|0,3:2|3:0,0:0:0:0:
303,73,12327,1,0,3:0:0:0:
297,163,12518,2,0,P|301:219|302:262,1,75,2|2,3:2|3:2,0:0:0:0:
208,213,12900,2,0,P|204:269|203:312,1,75,2|0,3:2|3:0,0:0:0:0:
301,337,13282,5,4,1:2:0:0:
79,154,13664,1,4,1:1:0:0:
341,42,14046,6,0,P|408:25|459:90,1,150,8|8,1:2|2:1,0:0:0:0:
486,173,14620,1,0,3:0:0:0:
486,173,14715,1,0,3:0:0:0:
486,173,14811,2,0,B|400:164|426:210|335:203,1,150,8|8,0:1|0:1,0:0:0:0:
271,124,15384,5,0,3:3:0:0:
243,128,15480,1,0,3:3:0:0:
215,131,15575,2,0,P|137:136|83:83,1,150,6|8,1:2|0:1,0:0:0:0:
3,64,16148,1,2,3:2:0:0:
3,64,16244,1,2,3:2:0:0:
3,64,16339,2,0,L|-4:155,1,75,4|0,0:1|0:0,0:0:0:0:
0,235,16722,2,0,B|105:228|65:267|167:262,1,150,4|8,1:2|0:1,0:0:0:0:
316,368,17677,5,0,3:0:0:0:
316,368,17773,1,0,3:0:0:0:
316,368,17868,2,0,P|352:353|389:319,1,75,0|2,3:0|3:2,0:0:0:0:
287,195,18250,2,0,P|288:245|298:280,1,75,2|2,3:2|3:2,0:0:0:0:
472,317,18632,1,0,3:0:0:0:
430,237,18824,1,2,3:2:0:0:
489,155,19015,2,0,P|488:105|478:70,1,75,0|0,3:3|3:3,0:0:0:0:
481,80,19397,1,4,1:2:0:0:
244,44,19779,6,0,P|304:102|293:179,1,150,4|10,1:1|0:1,0:0:0:0:
296,260,20352,2,0,P|292:302|290:343,1,75,0|8,0:0|0:1,0:0:0:0:
197,362,20734,1,0,3:0:0:0:
173,364,20830,1,0,3:0:0:0:
153,368,20925,2,0,P|93:310|104:233,1,150,10|8,3:1|0:1,0:0:0:0:
46,162,21499,1,0,3:0:0:0:
27,146,21595,1,0,3:0:0:0:
10,135,21690,2,0,P|8:51|70:4,1,150,10|8,3:1|0:1,0:0:0:0:
142,78,22263,1,0,3:0:0:0:
142,78,22359,1,0,3:0:0:0:
142,78,22454,2,0,L|227:74,1,75,10|0,3:1|0:0,0:0:0:0:
311,69,22836,6,0,B|305:128|305:128|320:161|320:161|313:239,1,150,4|8,1:2|0:1,0:0:0:0:
223,221,23410,2,0,L|139:226,1,75,0|8,0:0|0:1,0:0:0:0:
99,307,23792,1,0,3:0:0:0:
99,307,23887,1,0,3:0:0:0:
99,307,23983,2,0,P|143:352|232:338,1,150,2|10,3:1|0:1,0:0:0:0:
320,312,24556,1,0,3:0:0:0:
324,289,24652,1,0,0:0:0:0:
328,268,24747,2,0,P|331:230|340:185,1,75,10|0,2:1|3:0,0:0:0:0:
274,56,25129,2,0,P|271:94|262:139,1,75,10|0,3:1|3:0,0:0:0:0:
374,106,25511,5,4,1:2:0:0:
122,78,25894,1,4,1:0:0:0:
226,311,26276,6,0,P|165:348|99:332,1,112.5,8|2,1:2|0:0,0:0:0:0:
105,327,26658,1,2,1:2:0:0:
20,358,26849,2,0,P|13:312|6:235,1,112.5,2|2,0:0|0:0,0:0:0:0:
26,226,27231,2,0,P|24:182|19:142,1,75,0|0,0:0|1:0,0:0:0:0:
30,60,27613,5,0,0:0:0:0:
30,60,27709,1,2,0:3:0:0:
30,60,27804,2,0,P|91:60|148:108,1,112.5,0|2,1:2|0:0,0:0:0:0:
142,113,28187,1,2,1:2:0:0:
235,81,28378,2,0,P|241:145|248:214,1,112.5,2|2,0:0|0:0,0:0:0:0:
231,218,28760,2,0,P|235:277|241:306,1,75,0|0,0:0|0:0,0:0:0:0:
297,357,29142,1,0,0:0:0:0:
383,308,29333,6,0,B|456:305|434:333|515:326,2,112.5,0|2|2,1:2|0:0|0:0,0:0:0:0:
352,220,30097,2,0,L|342:177,2,37.5,0|2|0,1:0|0:0|0:0,0:0:0:0:
450,198,30480,1,0,1:0:0:0:
430,100,30671,5,0,0:0:0:0:
424,77,30766,1,0,0:0:0:0:
417,51,30862,2,0,P|361:33|316:109,1,150,0|2,1:0|2:2,0:0:0:0:
313,98,31435,1,4,1:2:0:0:
80,51,32008,2,0,L|177:46,1,75,4|0,1:1|1:0,0:0:0:0:
138,136,32390,6,0,P|77:180|19:172,1,112.5,4|2,2:2|0:0,0:0:0:0:
23,173,32773,1,0,1:2:0:0:
25,273,32964,2,0,P|77:282|140:299,1,112.5,2|2,0:2|0:0,0:0:0:0:
141,278,33346,2,0,P|179:289|210:308,1,75,0|0,0:0|0:0,0:0:0:0:
291,359,33728,5,0,0:0:0:0:
306,346,33824,1,0,0:0:0:0:
321,335,33919,2,0,P|386:353|453:323,1,112.5,0|2,1:1|0:0,0:0:0:0:
442,328,34301,1,0,1:2:0:0:
481,232,34492,2,0,P|438:231|363:244,1,112.5,2|2,0:2|0:0,0:0:0:0:
362,221,34874,2,0,P|324:219|269:206,1,75,0|0,0:0|1:0,0:0:0:0:
241,131,35257,1,0,0:0:0:0:
335,119,35448,6,0,P|351:75|323:-2,2,112.5,0|2|2,1:0|0:0|1:2,0:0:0:0:
241,131,36212,2,0,L|155:139,1,75,0|0,1:0|1:0,0:0:0:0:
206,225,36594,2,0,L|215:305,1,75,0|0,1:0|1:0,0:0:0:0:
142,359,36976,2,0,L|103:362,6,37.5,0|2|2|0|2|0|4,1:0|0:2|0:2|1:0|3:2|3:1|0:1,0:0:0:0:
374,349,39652,5,0,1:0:0:0:
468,364,39843,1,0,1:0:0:0:
482,272,40034,6,0,P|493:231|492:191,1,75,8|2,1:2|0:1,0:0:0:0:
395,178,40416,2,0,P|384:219|385:259,1,75,0|2,1:0|0:1,0:0:0:0:
374,349,40798,2,0,B|292:341|317:384|219:374,1,150,8|0,0:1|1:0,0:0:0:0:
172,303,41371,1,2,0:0:0:0:
164,207,41562,6,0,P|103:161|33:175,1,150,8|0,0:1|1:0,0:0:0:0:
42,269,42136,1,2,0:0:0:0:
42,269,42327,2,0,P|103:315|173:301,1,150,8|0,0:1|1:1,0:0:0:0:
251,252,42900,1,2,0:3:0:0:
235,146,43091,6,0,P|229:106|228:68,1,75,8|2,0:1|0:1,0:0:0:0:
316,40,43473,2,0,P|322:80|323:118,1,75,0|2,1:0|0:1,0:0:0:0:
339,205,43855,2,0,P|411:204|457:260,1,150,8|0,0:1|1:0,0:0:0:0:
448,352,44429,1,2,0:1:0:0:
361,333,44620,6,0,P|310:338|280:349,1,75,8|2,0:1|0:0,0:0:0:0:
205,371,45002,2,0,P|192:321|181:285,1,75,0|2,1:1|0:0,0:0:0:0:
166,209,45384,2,0,P|134:142|161:71,1,150,8|0,0:1|1:0,0:0:0:0:
236,13,45957,5,0,1:1:0:0:
236,13,46053,1,0,0:0:0:0:
236,13,46148,2,0,P|276:18|322:21,1,75,4|2,1:0|0:1,0:0:0:0:
349,112,46531,2,0,P|309:107|263:104,1,75,0|2,1:0|0:1,0:0:0:0:
299,195,46913,2,0,P|285:279|278:356,1,150,8|0,0:1|1:0,0:0:0:0:
188,372,47486,1,2,0:0:0:0:
192,282,47677,6,0,P|145:285|97:276,1,75,8|2,0:1|0:1,0:0:0:0:
1,203,48059,2,0,P|48:206|96:197,1,75,0|2,1:0|0:1,0:0:0:0:
193,74,48441,2,0,P|128:54|77:122,1,150,8|0,0:1|1:1,0:0:0:0:
76,202,49015,1,2,0:1:0:0:
161,168,49206,6,0,P|201:179|249:182,1,75,8|2,0:1|0:1,0:0:0:0:
284,102,49588,2,0,P|324:91|372:88,1,75,0|2,1:0|0:1,0:0:0:0:
436,32,49970,2,0,P|499:81|472:170,1,150,8|0,0:1|1:0,0:0:0:0:
418,199,50543,1,2,0:0:0:0:
476,290,50734,5,0,1:0:0:0:
476,290,50925,1,0,1:0:0:0:
390,336,51117,1,0,1:2:0:0:
390,336,51212,1,0,0:0:0:0:
390,336,51308,1,0,1:0:0:0:
297,368,51499,2,0,P|244:375|195:388,2,75,4|0|0,1:1|1:0|1:2,0:0:0:0:
313,271,52072,5,0,1:0:0:0:
313,271,52167,1,0,0:0:0:0:
313,271,52263,2,0,P|303:226|309:182,1,75,8|2,1:2|0:0,0:0:0:0:
322,102,52645,2,0,L|228:82,1,75,0|2,1:0|0:1,0:0:0:0:
168,33,53027,2,0,P|122:98|142:173,1,150,8|0,2:1|1:0,0:0:0:0:
107,251,53601,1,2,0:0:0:0:
14,273,53792,6,0,P|58:331|131:342,1,150,8|0,0:1|1:0,0:0:0:0:
203,272,54365,1,2,0:0:0:0:
203,272,54556,2,0,P|276:284|322:350,1,150,8|0,0:1|1:1,0:0:0:0:
417,367,55129,1,2,0:3:0:0:
439,275,55320,6,0,P|444:230|448:190,1,75,8|2,0:1|0:1,0:0:0:0:
379,46,55703,2,0,P|381:83|381:120,1,75,0|2,1:0|0:1,0:0:0:0:
284,88,56085,2,0,B|205:79|222:121|129:106,1,150,8|0,0:1|1:0,0:0:0:0:
50,69,56658,1,2,0:1:0:0:
52,163,56849,6,0,P|44:215|52:250,1,75,8|2,0:1|0:1,0:0:0:0:
24,322,57231,2,0,P|61:360|95:374,1,75,4|2,1:2|0:2,0:0:0:0:
168,319,57613,6,0,L|217:313,3,37.5,8|8|4|4,0:3|0:3|0:3|0:3,0:0:0:0:
235,351,57996,2,0,L|284:345,3,37.5,4|0|0|8,1:1|0:0|0:0|0:1,0:0:0:0:
286,269,58378,6,0,P|282:219|287:171,1,75,4|2,1:2|0:1,0:0:0:0:
188,151,58760,2,0,P|192:201|187:249,1,75,0|2,1:2|0:1,0:0:0:0:
101,275,59142,2,0,P|31:278|-22:204,1,150,8|0,0:1|1:0,0:0:0:0:
14,135,59715,5,2,0:0:0:0:
14,135,59906,2,0,P|64:131|97:122,1,75,8|2,0:1|0:1,0:0:0:0:
203,22,60288,2,0,P|153:26|120:35,1,75,0|2,1:2|0:0,0:0:0:0:
155,195,60671,2,0,B|250:184|215:235|305:224,1,150,8|0,0:1|0:0,0:0:0:0:
350,146,61244,5,2,0:1:0:0:
350,146,61435,2,0,P|363:98|370:56,1,75,8|2,0:1|0:1,0:0:0:0:
463,101,61817,2,0,P|450:149|443:191,1,75,0|2,1:0|0:1,0:0:0:0:
383,246,62199,2,0,P|325:307|323:386,1,150,8|0,0:1|1:0,0:0:0:0:
224,309,62773,1,2,0:2:0:0:
143,378,62964,5,0,1:0:0:0:
143,378,63155,1,0,1:0:0:0:
50,325,63346,1,0,1:2:0:0:
50,325,63441,1,0,0:0:0:0:
50,325,63537,1,0,1:0:0:0:
73,215,63728,2,0,P|68:180|56:120,2,75,4|0|4,1:2|1:0|1:1,0:0:0:0:
182,203,64301,1,0,1:0:0:0:
192,224,64397,1,0,0:0:0:0:
202,246,64492,6,0,B|231:254|257:249|257:249|236:287|241:331|279:369|344:352|372:324|371:279|346:246|331:233|331:233|374:222|410:157|371:106|371:106|287:121|280:185,1,600,8|4,1:2|1:2,0:0:0:0:
215,108,67550,6,0,B|209:37|116:2|116:2|100:75|139:112|139:112|93:74|15:66|-36:132|-28:200|-17:259|115:258|109:178|67:169,1,600,4|4,1:2|1:1,0:0:0:0:
85,169,69843,1,8,0:1:0:0:
18,278,70225,5,0,1:0:0:0:
112,260,70416,1,2,1:2:0:0:
135,353,70607,2,0,B|232:344|185:381|290:374,1,150,4|8,1:0|0:1,0:0:0:0:
352,304,71180,5,2,0:0:0:0:
352,304,71276,1,0,0:0:0:0:
352,304,71371,2,0,P|359:260|363:204,1,75,8|2,0:1|0:0,0:0:0:0:
450,196,71753,2,0,P|447:154|447:112,1,75,0|2,1:1|0:0,0:0:0:0:
439,94,72040,1,0,0:0:0:0:
431,67,72136,6,0,P|382:64|346:53,1,75,8|2,0:1|0:2,0:0:0:0:
258,45,72518,1,8,0:1:0:0:
228,128,72709,1,2,0:2:0:0:
293,197,72900,2,0,P|224:222|148:179,1,150,8|0,0:1|1:1,0:0:0:0:
131,105,73473,1,2,0:2:0:0:
28,56,73664,6,0,P|24:136|21:186,1,112.5,8|0,0:1|0:0,0:0:0:0:
37,182,74046,2,0,P|41:235|48:275,1,75,0|2,0:0|0:0,0:0:0:0:
27,346,74429,2,0,P|102:343|151:375,1,112.5,8|0,0:1|0:0,0:0:0:0:
146,344,74811,2,0,P|190:362|237:355,1,75,0|0,1:1|0:0,0:0:0:0:
237,347,75097,1,2,0:0:0:0:
252,333,75193,2,0,L|260:284,15,37.5,8|0|0|0|0|0|8|8|0|0|8|8|0|0|8|0,0:1|0:0|0:0|0:0|0:0|0:0|0:3|0:1|1:0|0:0|0:3|0:1|1:0|0:0|1:3|1:0,0:0:0:0:
242,232,77868,5,0,1:0:0:0:
280,147,78059,1,8,3:1:0:0:
201,98,78250,2,0,P|157:55|72:63,1,123.75000377655,12|0,3:2|0:0,0:0:0:0:
78,65,78632,2,0,P|70:129|67:166,1,82.5000025177003,0|2,1:2|3:1,0:0:0:0:
8,233,79015,2,0,B|101:227|64:280|178:271,1,165.000005035401,0|0,3:0|1:0,0:0:0:0:
236,335,79588,1,2,3:1:0:0:
253,241,79779,6,0,P|313:219|386:250,1,123.75000377655,8|0,3:1|0:0,0:0:0:0:
384,262,80161,2,0,P|431:274|489:283,1,82.5000025177003,0|2,1:2|3:1,0:0:0:0:
497,193,80543,2,0,P|528:133|482:29,1,165.000005035401,0|2,3:0|1:2,0:0:0:0:
406,24,81117,1,2,3:1:0:0:
394,116,81308,6,0,P|332:124|266:138,1,123.75000377655,8|0,3:1|0:0,0:0:0:0:
262,118,81690,2,0,P|217:127|161:146,1,82.5000025177003,0|2,1:2|3:1,0:0:0:0:
135,58,82072,2,0,P|54:33|10:106,1,165.000005035401,0|0,3:0|1:0,0:0:0:0:
40,173,82645,1,2,3:1:0:0:
5,266,82836,5,8,3:1:0:0:
104,262,83027,1,2,3:1:0:0:
104,262,83123,1,2,0:0:0:0:
104,262,83218,2,0,P|150:271|190:274,1,82.5000025177003,0|2,1:2|3:1,0:0:0:0:
267,325,83601,2,0,P|311:320|354:318,1,82.5000025177003,10|0,3:1|0:0,0:0:0:0:
471,276,83983,6,0,L|517:287,3,41.2500012588501,0|2|0|2,1:0|0:0|0:0|0:0,0:0:0:0:
448,284,84365,2,0,P|410:238|423:161,1,123.75000377655,8|0,1:2|0:0,0:0:0:0:
432,164,84747,2,0,P|446:122|448:60,1,82.5000025177003,0|2,1:0|3:1,0:0:0:0:
354,105,85129,2,0,P|272:115|175:141,1,165.000005035401,10|0,3:1|1:0,0:0:0:0:
127,64,85703,1,2,0:0:0:0:
97,153,85894,6,0,P|45:144|-14:192,1,123.75000377655,10|0,0:1|0:0,0:0:0:0:
0,212,86276,2,0,P|9:267|9:316,1,82.5000025177003,0|2,1:0|3:1,0:0:0:0:
78,356,86658,2,0,B|188:346|151:388|255:377,1,165.000005035401,10|0,3:1|1:0,0:0:0:0:
265,286,87231,5,0,0:0:0:0:
265,286,87327,1,0,0:0:0:0:
265,286,87422,2,0,P|261:237|263:181,1,82.5000025177003,8|2,3:1|3:2,0:0:0:0:
349,163,87804,2,0,P|353:212|351:268,1,82.5000025177003,0|2,1:0|3:1,0:0:0:0:
361,338,88187,1,8,3:1:0:0:
454,297,88378,1,2,0:2:0:0:
472,200,88569,2,0,P|489:197|512:195,3,27.5000008392334,0|2|0|2,1:0|0:0|0:0|1:0,0:0:0:0:
441,113,88951,5,0,1:0:0:0:
352,61,89142,2,0,L|346:27,3,27.5000008392334,2|0|2|0,0:0|0:0|0:0|1:0,0:0:0:0:
350,165,89524,1,2,1:0:0:0:
263,112,89715,2,0,L|257:78,3,27.5000008392334,0|2|2|0,1:0|0:0|0:0|0:0,0:0:0:0:
261,210,90097,2,0,P|219:207|179:181,1,82.5000025177003,0|0,1:0|1:0,0:0:0:0:
4,128,90480,6,0,P|45:173|54:253,1,123.75000377655,12|0,3:2|0:0,0:0:0:0:
79,236,90862,2,0,P|75:278|77:321,1,82.5000025177003,0|2,1:2|3:1,0:0:0:0:
155,369,91244,2,0,P|224:380|312:313,1,165.000005035401,2|0,3:2|1:0,0:0:0:0:
334,236,91817,1,2,3:1:0:0:
241,215,92008,6,0,P|238:148|235:74,1,123.75000377655,8|0,3:1|0:0,0:0:0:0:
257,81,92390,2,0,P|255:38|255:-6,1,82.5000025177003,0|2,1:2|3:1,0:0:0:0:
351,41,92773,2,0,P|451:42|487:107,1,165.000005035401,2|0,3:2|1:0,0:0:0:0:
500,189,93346,1,2,3:1:0:0:
411,227,93537,6,0,P|404:284|402:342,1,82.5000025177003,8|2,3:1|3:1,0:0:0:0:
314,354,93919,2,0,L|312:381,3,27.5000008392334,0|2|0|2,1:2|2:2|0:0|2:2,0:0:0:0:
215,330,94301,2,0,P|209:283|205:236,1,82.5000025177003,8|0,3:1|3:0,0:0:0:0:
205,248,94588,1,0,3:0:0:0:
205,248,94683,1,0,1:0:0:0:
123,197,94874,1,2,0:2:0:0:
95,289,95066,6,0,P|52:298|-2:295,1,82.5000025177003,8|2,3:1|3:1,0:0:0:0:
78,113,95448,2,0,P|121:104|175:107,1,82.5000025177003,0|2,1:2|3:1,0:0:0:0:
242,158,95830,2,0,P|308:167|380:99,1,165.000005035401,10|0,3:1|1:0,0:0:0:0:
377,105,96308,1,2,0:0:0:0:
377,105,96403,1,0,0:0:0:0:
377,105,96499,1,2,0:0:0:0:
391,118,96594,6,0,P|451:128|534:145,1,123.75000377655,8|0,1:2|0:0,0:0:0:0:
508,168,96976,2,0,P|501:216|500:259,1,82.5000025177003,0|2,1:0|3:1,0:0:0:0:
447,330,97359,2,0,B|347:317|380:362|259:347,1,165.000005035401,2|0,3:2|1:0,0:0:0:0:
278,255,97932,1,2,0:0:0:0:
202,311,98123,6,0,P|182:268|208:191,1,123.75000377655,10|0,0:1|0:0,0:0:0:0:
216,177,98505,2,0,P|225:128|220:90,1,82.5000025177003,0|2,1:0|3:1,0:0:0:0:
180,11,98887,2,0,L|8:28,2,165.000005035401,2|0|8,3:2|1:0|2:1,0:0:0:0:
221,95,99843,5,2,0:2:0:0:
129,121,100034,2,0,P|121:170|120:203,1,82.5000025177003,0|2,1:0|3:1,0:0:0:0:
96,296,100416,1,8,3:1:0:0:
193,291,100607,1,2,0:2:0:0:
193,291,100703,1,0,0:0:0:0:
193,291,100798,1,0,1:0:0:0:
286,313,100989,1,0,1:0:0:0:
361,376,101180,6,0,P|414:376|467:363,1,82.5000025177003,0|0,1:0|1:0,0:0:0:0:
479,251,101562,2,0,P|426:251|373:238,1,82.5000025177003,0|0,1:0|1:0,0:0:0:0:
397,245,101849,1,0,1:0:0:0:
403,254,101945,2,0,L|396:160,1,82.5000025177003,0|0,1:0|0:0,0:0:0:0:
386,37,102327,5,0,1:2:0:0:
386,37,102422,1,2,1:2:0:0:
386,37,102518,1,2,1:2:0:0:
386,37,102613,1,2,1:2:0:0:
386,37,102709,1,4,1:0:0:0:
463,108,103282,5,0,3:0:0:0:
487,113,103378,1,0,3:0:0:0:
512,107,103473,1,2,3:2:0:0:
369,140,104046,5,0,3:0:0:0:
352,158,104142,1,0,3:0:0:0:
345,182,104237,1,2,3:2:0:0:
168,50,104620,6,0,L|149:2,8,50,8|8|8|4|4|4|8|8|0,0:3|0:3|0:3|0:3|0:3|0:3|0:1|0:1|0:0,0:0:0:0:
182,94,105766,1,4,1:2:0:0:
16,282,106339,5,0,3:0:0:0:
16,282,106435,1,0,3:0:0:0:
16,282,106531,2,0,P|61:278|104:270,1,75,0|0,3:0|3:0,0:0:0:0:
184,240,106913,2,0,P|181:308|180:337,1,75,0|0,3:0|3:0,0:0:0:0:
276,367,107295,2,0,P|279:299|280:270,1,75,0|0,3:0|3:0,0:0:0:0:
430,221,107695,2,0,P|392:227|355:230,1,75,0|0,3:0|3:0,0:0:0:0:
278,166,108095,6,0,P|244:118|278:12,1,150,4|4,1:2|1:0,0:0:0:0:
491,137,109557,1,0,3:0:0:0:
491,137,109764,2,0,L|485:308,1,150,0|0,3:0|3:0,0:0:0:0:
410,349,110392,1,0,3:0:0:0:
396,259,110606,6,0,P|352:262|309:273,1,75,0|0,3:0|3:0,0:0:0:0:
271,353,111050,2,0,P|227:350|184:339,1,75,0|0,3:0|3:0,0:0:0:0:
161,257,111511,1,4,0:2:0:0:
61,294,111751,5,0,3:0:0:0:
61,294,111871,1,4,3:3:0:0:
61,294,111991,1,4,0:1:0:0:
256,192,112116,12,0,118991,0:0:0:0:
