osu file format v14

[General]
AudioFilename: audio.mp3
AudioLeadIn: 0
PreviewTime: 77868
Countdown: 0
SampleSet: Soft
StackLeniency: 0.7
Mode: 0
LetterboxInBreaks: 0
WidescreenStoryboard: 0

[Editor]
Bookmarks: 14046,26180,26276,64492,66021,83027,87040
DistanceSpacing: 1.15
BeatDivisor: 4
GridSize: 8
TimelineZoom: 1.9

[Metadata]
Title:AsiaN distractive
TitleUnicode:AsiaN distractive
Artist:Nekomata Gekidan
ArtistUnicode:猫叉劇団
Creator:Regou
Version:Dailycare's Normal
Source:beatmania IIDX 24 SINOBUZ
Tags:Pending cup #5 yf_bmp gary00737 Chaoslitz StarrStyx 09kami Frey Suzuki_1112 Dailycare 1112deng Master
BeatmapID:1413525
BeatmapSetID:657122

[Difficulty]
HPDrainRate:3
CircleSize:3.1
OverallDifficulty:3
ApproachRate:4.3
SliderMultiplier:0.95
SliderTickRate:1

[Events]
//Background and Video events
0,0,"3.jpg",0,0
//Break Periods
2,37749,38751
//Storyboard Layer 0 (Background)
//Storyboard Layer 1 (Fail)
//Storyboard Layer 2 (Pass)
//Storyboard Layer 3 (Foreground)
//Storyboard Sound Samples

[TimingPoints]
289,382.165605095541,4,2,41,60,1,0
40034,-100,4,2,41,80,0,0
77868,-100,4,2,41,90,0,0
78250,-100,4,2,41,90,0,1
102709,-100,4,2,41,90,0,0
107295,400,4,2,41,80,1,0
108095,428.571428571429,4,2,1,90,1,0
108523,413.793103448276,4,2,1,90,1,0
110178,428.571428571429,4,2,1,90,1,0
110606,444.444444444444,4,2,1,90,1,0
111050,461.538461538462,4,2,1,90,1,0
111511,480,4,2,41,80,1,0
111991,500,4,2,41,80,1,0
112491,-100,4,2,41,35,0,0
114991,-100,4,2,41,5,0,0

[Colours]
Combo1 : 241,139,48
Combo2 : 247,89,156
Combo3 : 64,128,247
Combo4 : 156,225,72

[HitObjects]
26,69,1817,6,0,P|95:56|163:114,1,142.5,6|2,0:1|0:0,0:0:0:0:
170,145,2581,2,0,P|208:137|316:106,1,142.5,8|2,0:1|0:0,0:0:0:0:
354,79,3346,2,0,L|339:236,1,142.5,4|2,0:0|0:0,0:0:0:0:
358,272,4110,1,6,0:0:0:0:
461,306,4492,1,4,0:0:0:0:
511,209,4874,6,0,P|529:155|440:62,1,190,6|2,0:1|0:0,0:0:0:0:
359,124,6021,2,0,L|305:130,1,47.5,4|0,0:0|0:0,0:0:0:0:
261,150,6403,2,0,P|265:96|258:35,2,95,8|4|10,0:0|0:0|0:0,0:0:0:0:
189,232,7550,6,0,P|132:254|7:140,1,237.5,4|2,0:0|0:0,0:0:0:0:
6,100,8696,1,4,0:0:0:0:
86,25,9078,2,0,P|119:25|135:31,1,47.5,2|2,0:0|0:0,0:0:0:0:
180,55,9460,2,0,L|280:42,2,95,4|4|10,0:0|0:0|0:0,0:0:0:0:
140,156,10607,1,6,0:1:0:0:
140,156,12518,6,0,P|193:165|239:178,1,95,8|8,0:0|0:0,0:0:0:0:
330,224,13282,1,8,0:1:0:0:
400,140,13664,1,4,0:0:0:0:
493,194,14046,6,0,P|516:264|480:323,1,142.5,8|2,0:0|0:0,0:0:0:0:
429,316,14811,2,0,P|379:370|310:369,1,142.5,8|2,0:0|0:0,0:0:0:0:
291,321,15575,2,0,P|218:305|185:245,1,142.5,8|2,0:0|0:0,0:0:0:0:
217,203,16339,1,8,0:0:0:0:
232,94,16722,6,0,P|163:49|50:68,1,190,6|0,0:1|0:0,0:0:0:0:
8,78,17677,1,0,0:0:0:0:
8,78,17868,2,0,P|19:123|26:179,1,95,10|2,0:0|0:0,0:0:0:0:
133,157,18632,1,10,0:0:0:0:
173,258,19015,2,0,L|163:321,2,47.5,2|0|0,0:0|0:0|0:0,0:0:0:0:
254,183,19779,6,0,P|291:175|415:256,1,190,12|0,0:0|0:0,0:0:0:0:
459,277,20734,1,2,0:0:0:0:
459,277,20925,2,0,P|468:228|499:135,1,142.5,12|2,0:0|0:0,0:0:0:0:
504,85,21690,2,0,P|433:96|362:98,1,142.5,12|2,0:0|0:0,0:0:0:0:
312,77,22454,1,12,0:0:0:0:
260,173,22836,6,0,P|201:224|83:207,1,190,12|0,0:1|0:0,0:0:0:0:
51,181,23792,1,2,0:0:0:0:
51,181,23983,2,0,P|63:229|83:324,1,142.5,12|2,0:0|0:0,0:0:0:0:
120,359,24747,6,0,P|163:338|230:347,1,95,6|6,0:0|0:0,0:0:0:0:
259,359,25320,2,0,L|316:349,1,47.5,6|10,0:0|0:0,0:0:0:0:
403,305,25894,1,0,0:0:0:0:
498,357,26276,6,0,P|514:313|469:223,1,142.5,8|2,0:0|0:0,0:0:0:0:
370,207,27231,2,0,L|315:219,1,47.5,4|2,0:0|0:1,0:0:0:0:
222,258,27804,2,0,P|149:243|70:229,2,142.5,8|2|2,0:0|0:0|0:1,0:0:0:0:
311,320,29333,6,0,P|330:259|286:173,1,142.5,8|2,0:0|0:0,0:0:0:0:
245,95,30288,2,0,L|290:81,1,47.5,4|6,0:0|0:1,0:0:0:0:
333,47,30671,1,2,0:0:0:0:
333,47,30862,2,0,P|403:62|476:75,2,142.5,4|2|2,0:0|0:0|0:0,0:0:0:0:
227,18,32390,6,0,P|177:10|97:58,1,142.5,8|2,0:0|0:0,0:0:0:0:
3,106,33346,2,0,P|8:137|12:159,1,47.5,4|2,0:0|0:0,0:0:0:0:
69,244,33919,2,0,P|54:311|43:385,2,142.5,8|2|2,0:0|0:0|0:0,0:0:0:0:
113,143,35448,6,0,P|177:140|232:198,1,142.5,8|8,0:0|0:0,0:0:0:0:
326,243,36403,2,0,P|333:215|343:184,1,47.5,10|12,0:0|0:0,0:0:0:0:
367,150,36785,1,12,0:0:0:0:
367,150,36976,2,0,L|356:64,2,71.25,10|2|6,0:0|0:0|0:1,0:0:0:0:
367,150,40034,5,8,0:0:0:0:
367,150,40225,2,0,P|319:156|237:98,1,142.5,0|8,0:0|0:0,0:0:0:0:
136,133,41180,2,0,P|106:126|86:123,1,47.5,2|0,0:0|0:0,0:0:0:0:
36,134,41562,2,0,P|1:166|9:273,1,142.5,8|0,0:0|0:0,0:0:0:0:
34,296,42327,2,0,B|145:272|96:344|216:315,1,190,8|8,0:0|0:0,0:0:0:0:
265,337,43282,6,0,P|268:286|273:220,1,95,0|0,0:0|0:0,0:0:0:0:
252,190,43855,1,8,0:0:0:0:
340,125,44238,2,0,L|394:134,1,47.5,2|0,0:0|0:0,0:0:0:0:
436,156,44620,2,0,P|426:95|423:54,2,95,8|2|8,0:0|0:0|0:0,0:0:0:0:
480,255,45766,1,2,0:0:0:0:
394,323,46148,5,8,0:0:0:0:
394,323,46339,2,0,P|337:286|250:295,1,142.5,0|8,0:0|0:0,0:0:0:0:
160,323,47295,2,0,P|155:295|151:260,1,47.5,2|0,0:0|0:0,0:0:0:0:
169,223,47677,2,0,P|114:242|40:200,1,142.5,8|0,0:0|0:0,0:0:0:0:
16,156,48441,1,8,0:0:0:0:
61,56,48824,2,0,L|127:45,1,47.5,2|0,0:0|0:0,0:0:0:0:
156,22,49206,5,8,0:0:0:0:
156,22,49397,2,0,L|134:184,1,142.5,0|8,0:0|0:0,0:0:0:0:
186,260,50352,2,0,P|233:265|288:232,1,95,2|8,0:0|0:0,0:0:0:0:
309,141,51117,1,8,0:0:0:0:
380,223,51499,2,0,L|436:232,2,47.5,10|2|2,0:0|0:0|0:0,0:0:0:0:
275,245,52263,5,8,0:0:0:0:
275,245,52454,2,0,P|205:256|130:274,1,142.5,0|8,0:0|0:0,0:0:0:0:
39,325,53410,2,0,P|33:297|27:275,1,47.5,2|0,0:0|0:0,0:0:0:0:
0,231,53792,2,0,P|-8:190|46:109,1,142.5,8|0,0:0|0:0,0:0:0:0:
81,70,54556,2,0,P|147:120|256:96,1,190,8|8,0:0|0:0,0:0:0:0:
290,69,55511,6,0,P|300:119|315:182,1,95,0|0,0:0|0:0,0:0:0:0:
301,216,56085,1,8,0:0:0:0:
365,303,56467,2,0,L|419:292,1,47.5,2|0,0:0|0:0,0:0:0:0:
462,273,56849,2,0,P|456:317|449:375,2,95,8|2|8,0:0|0:0|0:0,0:0:0:0:
511,175,57996,1,2,0:0:0:0:
436,94,58378,5,8,0:0:0:0:
436,94,58569,2,0,P|385:81|305:129,1,142.5,0|8,0:0|0:0,0:0:0:0:
211,170,59524,2,0,P|216:202|219:231,1,47.5,2|0,0:0|0:0,0:0:0:0:
238,267,59906,2,0,P|184:259|95:248,1,142.5,8|0,0:0|0:0,0:0:0:0:
41,248,60671,1,8,0:0:0:0:
8,143,61053,2,0,L|15:91,1,47.5,2|0,0:0|0:0,0:0:0:0:
55,59,61435,5,8,0:0:0:0:
55,59,61626,2,0,P|102:94|201:88,1,142.5,0|8,0:0|0:0,0:0:0:0:
272,31,62581,1,2,0:0:0:0:
287,139,62964,2,0,P|280:173|273:234,1,95,8|10,0:0|0:0,0:0:0:0:
305,337,63728,2,0,P|325:332|350:324,1,47.5,8|2,0:0|0:0,0:0:0:0:
397,295,64110,2,0,L|446:308,1,47.5,10|0,0:0|0:0,0:0:0:0:
489,277,64492,6,0,B|531:224|541:112|477:26|371:54|339:122|385:193|430:167,1,380,10|8,0:0|0:0,0:0:0:0:
423,169,67550,6,0,B|346:257|242:222|183:153|234:40|364:43|373:111|324:137,1,380,8|10,0:0|0:0,0:0:0:0:
154,243,69843,2,0,P|104:237|55:260,1,95,10|2,0:0|0:0,0:0:0:0:
23,290,70416,1,2,0:0:0:0:
23,290,70607,6,0,P|37:216|47:136,1,142.5,4|0,0:0|0:0,0:0:0:0:
84,111,71371,2,0,P|78:74|114:19,1,95,4|2,0:0|0:1,0:0:0:0:
212,7,72136,2,0,P|252:15|322:24,2,95,4|2|4,0:0|0:1|0:0,0:0:0:0:
171,108,73282,1,2,0:1:0:0:
253,179,73664,6,0,P|312:135|433:170,1,190,2|2,0:0|0:0,0:0:0:0:
457,259,74811,1,6,0:0:0:0:
348,247,75193,2,0,P|289:291|168:256,1,190,2|2,0:0|0:0,0:0:0:0:
127,256,76148,1,2,0:0:0:0:
127,256,76339,2,0,L|61:269,1,47.5,6|6,0:0|0:0,0:0:0:0:
385,128,77868,2,0,L|451:115,1,47.5,2|2,0:0|0:0,0:0:0:0:
475,86,78250,6,0,P|497:143|497:180,1,95,12|8,0:0|0:0,0:0:0:0:
509,229,78824,2,0,P|495:257|475:278,1,47.5,8|4,0:0|0:1,0:0:0:0:
377,247,79397,1,2,0:0:0:0:
394,354,79779,6,0,P|333:344|301:326,1,95,12|8,0:0|0:0,0:0:0:0:
254,312,80353,2,0,P|236:285|228:258,1,47.5,8|0,0:0|0:0,0:0:0:0:
304,189,80926,1,2,0:0:0:0:
202,150,81308,6,0,P|240:102|272:83,1,95,12|8,0:0|0:0,0:0:0:0:
309,49,81882,2,0,P|340:47|368:53,1,47.5,8|0,0:0|0:0,0:0:0:0:
390,154,82454,2,0,L|382:206,1,47.5,2|2,0:0|0:0,0:0:0:0:
365,252,82836,6,0,P|418:246|475:242,2,95,12|8|2,0:0|0:0|0:1,0:0:0:0:
255,243,83983,2,0,L|263:295,1,47.5,10|0,0:0|0:0,0:0:0:0:
225,330,84365,6,0,P|198:335|123:296,1,95,12|8,0:0|0:0,0:0:0:0:
81,310,84938,2,0,P|66:287|63:257,1,47.5,8|4,0:0|0:1,0:0:0:0:
132,183,85511,1,2,0:0:0:0:
33,135,85894,6,0,P|42:109|113:63,1,95,12|8,0:0|0:0,0:0:0:0:
122,21,86467,2,0,P|149:19|176:31,1,47.5,8|2,0:0|0:1,0:0:0:0:
206,128,87040,1,12,0:0:0:0:
297,66,87422,5,2,0:0:0:0:
297,66,87613,2,0,P|314:86|318:171,1,95,2|0,0:0|0:0,0:0:0:0:
351,200,88187,2,0,P|338:224|265:262,1,95,2|10,0:0|0:0,0:0:0:0:
231,242,88760,1,0,0:0:0:0:
180,263,88951,6,0,P|135:251|71:251,2,95,2|4|10,0:0|0:0|0:0,0:0:0:0:
235,356,90097,1,10,0:0:0:0:
335,311,90480,6,0,P|359:271|357:217,1,95,12|8,0:0|0:0,0:0:0:0:
392,180,91053,2,0,P|378:147|361:131,1,47.5,8|4,0:0|0:1,0:0:0:0:
264,163,91626,1,2,0:0:0:0:
280,55,92008,6,0,P|233:54|187:82,1,95,12|8,0:0|0:0,0:0:0:0:
138,71,92581,2,0,P|116:99|111:122,1,47.5,8|2,0:0|0:1,0:0:0:0:
187,190,93154,1,2,0:0:0:0:
85,230,93537,6,0,P|107:270|155:296,1,95,12|8,0:0|0:0,0:0:0:0:
170,345,94110,2,0,P|205:349|227:342,1,47.5,8|4,0:0|0:0,0:0:0:0:
248,243,94683,2,0,L|257:188,1,47.5,2|2,0:0|0:0,0:0:0:0:
248,141,95066,6,0,P|286:151|345:162,2,95,12|8|2,0:0|0:0|0:1,0:0:0:0:
142,167,96212,2,0,L|133:112,1,47.5,10|2,0:0|0:0,0:0:0:0:
106,72,96594,6,0,P|147:67|201:35,1,95,12|8,0:0|0:0,0:0:0:0:
241,15,97167,2,0,P|268:20|307:19,1,47.5,8|4,0:0|0:1,0:0:0:0:
376,85,97741,1,2,0:0:0:0:
465,147,98123,6,0,P|448:185|449:247,1,95,12|8,0:0|0:0,0:0:0:0:
446,293,98696,2,0,P|428:313|409:348,1,47.5,8|2,0:0|0:1,0:0:0:0:
318,375,99270,1,12,0:0:0:0:
229,310,99652,5,2,0:0:0:0:
229,310,99843,2,0,L|252:198,1,95,2|2,0:0|0:0,0:0:0:0:
217,171,100416,2,0,L|208:123,1,47.5,8|8,0:1|0:1,0:0:0:0:
258,101,100798,2,0,L|267:53,1,47.5,10|2,0:0|0:0,0:0:0:0:
223,20,101180,2,0,P|158:17|84:66,2,142.5,10|8|10,0:1|0:1|0:0,0:0:0:0:
328,37,102709,5,12,0:0:0:0:
353,332,105766,5,12,0:0:0:0:
84,205,108523,5,12,0:0:0:0:
256,192,111991,5,6,0:0:0:0:
256,192,112116,12,0,119991,0:0:0:0:
