osu file format v14

[General]
AudioFilename: audio.mp3
AudioLeadIn: 0
PreviewTime: 77868
Countdown: 0
SampleSet: Soft
StackLeniency: 0.2
Mode: 0
LetterboxInBreaks: 0
WidescreenStoryboard: 1

[Editor]
Bookmarks: 17295,26276,40034,52263,64492,78250,102709,120491
DistanceSpacing: 0.2
BeatDivisor: 8
GridSize: 4
TimelineZoom: 2.1

[Metadata]
Title:AsiaN distractive
TitleUnicode:AsiaN distractive
Artist:Nekomata Gekidan
ArtistUnicode:猫叉劇団
Creator:Regou
Version:Chaoz's Insane (Winner!)
Source:beatmania IIDX 24 SINOBUZ
Tags:Pending cup #5 yf_bmp gary00737 Chaoslitz StarrStyx 09kami Frey Suzuki_1112 Dailycare 1112deng Master
BeatmapID:1411708
BeatmapSetID:657122

[Difficulty]
HPDrainRate:5
CircleSize:4.5
OverallDifficulty:8
ApproachRate:9
SliderMultiplier:1.8
SliderTickRate:1

[Events]
//Background and Video events
0,0,"bg.jpg",0,0
//Break Periods
//Storyboard Layer 0 (Background)
//Storyboard Layer 1 (Fail)
//Storyboard Layer 2 (Pass)
//Storyboard Layer 3 (Foreground)
//Storyboard Sound Samples

[TimingPoints]
289,382.165605095541,4,2,31,80,1,0
1244,-111.111111111111,4,2,31,75,0,0
1435,-125,4,2,31,70,0,0
1626,-142.857142857143,4,2,31,65,0,0
1817,-142.857142857143,4,2,31,80,0,0
2390,-142.857142857143,4,2,34,80,0,0
3537,-142.857142857143,4,2,31,10,0,0
3728,-142.857142857143,4,2,31,80,0,0
4110,-142.857142857143,4,2,31,75,0,0
4492,-142.857142857143,4,2,31,70,0,0
5448,-142.857142857143,4,2,34,80,0,0
7167,-100,4,2,32,90,0,0
7550,-166.666666666667,4,2,32,80,0,0
8505,-166.666666666667,4,2,34,80,0,0
10225,-100,4,2,32,90,0,0
10416,-100,4,2,31,90,0,0
10607,-200,4,2,32,80,0,0
11945,-142.857142857143,4,2,34,80,0,0
12709,-142.857142857143,4,2,34,80,0,0
13473,-100,4,2,31,80,0,0
13855,-200,4,2,31,80,0,0
14046,-100,4,2,31,80,0,0
15097,-100,4,2,32,80,0,0
15480,-100,4,2,31,80,0,0
15766,-100,4,2,31,80,0,0
15862,-100,4,2,32,80,0,0
16244,-100,4,2,31,80,0,0
16339,-100,4,2,31,80,0,0
16626,-100,4,2,32,80,0,0
16722,-100,4,2,35,80,0,0
17104,-100,4,2,31,80,0,0
17295,-100,4,2,35,80,0,0
17677,-100,4,2,31,80,0,0
18155,-100,4,2,32,80,0,0
18728,-100,4,2,31,80,0,0
19015,-100,4,2,32,80,0,0
19206,-100,4,2,32,80,0,0
19397,-83.3333333333333,4,2,32,90,0,0
19779,-100,4,2,32,80,0,0
20161,-100,4,2,31,70,0,0
21212,-100,4,2,32,70,0,0
21499,-83.3333333333333,4,2,31,75,0,0
21976,-83.3333333333333,4,2,32,75,0,0
22263,-76.9230769230769,4,2,31,80,0,0
22836,-71.4285714285714,4,2,35,85,0,0
23027,-71.4285714285714,4,2,32,85,0,0
23218,-100,4,2,31,85,0,0
23792,-66.6666666666667,4,2,32,90,0,0
23983,-66.6666666666667,4,2,35,90,0,0
24174,-66.6666666666667,4,2,32,90,0,0
24556,-66.6666666666667,4,2,35,90,0,0
24620,-66.6666666666667,4,2,31,90,0,0
24747,-66.6666666666667,4,2,32,90,0,0
24938,-62.5,4,2,31,95,0,0
25129,-58.8235294117647,4,2,35,95,0,0
25320,-62.5,4,2,31,95,0,0
25511,-62.5,4,2,33,95,0,0
26276,-100,4,2,31,80,0,0
26849,-100,4,2,32,80,0,0
28091,-100,4,2,31,80,0,0
28378,-100,4,2,32,80,0,0
29620,-100,4,2,31,80,0,0
29906,-100,4,2,32,80,0,0
30480,-100,4,2,31,80,0,0
30957,-100,4,2,35,80,0,0
31053,-100,4,2,31,80,0,0
31244,-125,4,2,31,80,0,0
31435,-76.9230769230769,4,2,35,80,0,0
31626,-100,4,2,31,80,0,0
31722,-100,4,2,33,80,0,0
32008,-76.9230769230769,4,2,33,80,0,0
32390,-100,4,2,32,80,0,0
32677,-100,4,2,32,80,0,0
32964,-100,4,2,32,80,0,0
34206,-100,4,2,31,80,0,0
34492,-100,4,2,32,80,0,0
35448,-83.3333333333333,4,2,32,80,0,0
35639,-83.3333333333333,4,2,31,80,0,0
36021,-83.3333333333333,4,2,32,80,0,0
36594,-83.3333333333333,4,2,31,80,0,0
37167,-83.3333333333333,4,2,32,80,0,0
37359,-83.3333333333333,4,2,35,80,0,0
37454,-83.3333333333333,4,2,32,80,0,0
37550,-166.666666666667,4,2,31,70,0,0
38123,-142.857142857143,4,2,31,70,0,0
38505,-200,4,2,32,70,0,0
39078,-142.857142857143,4,2,35,70,0,0
39652,-142.857142857143,4,2,33,85,0,0
40034,-100,4,2,31,80,0,0
40225,-100,4,2,32,80,0,0
41562,-83.3333333333333,4,2,32,80,0,0
41658,-83.3333333333333,4,2,35,80,0,0
41753,-83.3333333333333,4,2,32,80,0,0
41945,-100,4,2,32,80,0,0
42136,-100,4,2,35,80,0,0
42518,-100,4,2,32,80,0,0
42709,-100,4,2,35,80,0,0
42900,-100,4,2,32,80,0,0
43664,-100,4,2,35,80,0,0
43855,-83.3333333333333,4,2,32,80,0,0
44238,-100,4,2,32,80,0,0
45193,-100,4,2,35,80,0,0
45384,-83.3333333333333,4,2,32,80,0,0
45480,-83.3333333333333,4,2,31,80,0,0
45575,-83.3333333333333,4,2,32,80,0,0
45766,-100,4,2,35,80,0,0
45957,-100,4,2,32,80,0,0
46913,-83.3333333333333,4,2,32,80,0,0
47008,-83.3333333333333,4,2,35,80,0,0
47104,-83.3333333333333,4,2,32,80,0,0
47295,-100,4,2,32,80,0,0
47486,-100,4,2,35,80,0,0
47677,-66.6666666666667,4,2,35,90,0,0
47820,-66.6666666666667,4,2,35,10,0,0
47868,-71.4285714285714,4,2,35,85,0,0
48011,-71.4285714285714,4,2,35,10,0,0
48059,-76.9230769230769,4,2,35,80,0,0
48203,-76.9230769230769,4,2,35,10,0,0
48250,-83.3333333333333,4,2,35,75,0,0
48394,-83.3333333333333,4,2,35,10,0,0
48441,-90.9090909090909,4,2,35,70,0,0
48824,-100,4,2,35,70,0,0
49015,-100,4,2,32,70,0,0
49779,-100,4,2,35,70,0,0
49970,-83.3333333333333,4,2,35,70,0,0
50161,-83.3333333333333,4,2,32,70,0,0
50352,-100,4,2,35,70,0,0
50543,-100,4,2,32,70,0,0
50925,-100,4,2,35,70,0,0
51117,-100,4,2,32,70,0,0
51212,-100,4,2,35,70,0,0
51308,-100,4,2,32,70,0,0
51499,-100,4,2,33,85,0,0
51690,-100,4,2,32,85,0,0
51881,-76.9230769230769,4,2,33,85,0,0
52263,-90.9090909090909,4,2,31,80,0,0
52454,-90.9090909090909,4,2,32,80,0,0
53791,-100,4,2,32,80,0,0
53792,-76.9230769230769,4,2,32,80,0,0
53887,-100,4,2,35,80,0,0
53982,-100,4,2,32,80,0,0
54174,-90.9090909090909,4,2,32,80,0,0
54365,-90.9090909090909,4,2,35,80,0,0
54747,-90.9090909090909,4,2,32,80,0,0
54938,-90.9090909090909,4,2,35,80,0,0
55129,-90.9090909090909,4,2,32,80,0,0
55893,-90.9090909090909,4,2,35,80,0,0
56084,-90.9090909090909,4,2,32,80,0,0
56085,-76.9230769230769,4,2,32,80,0,0
56467,-90.9090909090909,4,2,32,80,0,0
57422,-90.9090909090909,4,2,35,80,0,0
57613,-76.9230769230769,4,2,32,80,0,0
57709,-76.9230769230769,4,2,31,80,0,0
57804,-76.9230769230769,4,2,32,80,0,0
57995,-90.9090909090909,4,2,35,80,0,0
57996,-90.9090909090909,4,2,32,80,0,0
58186,-90.9090909090909,4,2,32,80,0,0
59142,-76.9230769230769,4,2,32,80,0,0
59237,-90.9090909090909,4,2,35,80,0,0
59333,-90.9090909090909,4,2,32,80,0,0
59524,-90.9090909090909,4,2,32,80,0,0
59715,-90.9090909090909,4,2,35,80,0,0
59906,-62.5,4,2,35,90,0,0
60049,-90.9090909090909,4,2,35,10,0,0
60097,-66.6666666666667,4,2,35,85,0,0
60240,-90.9090909090909,4,2,35,10,0,0
60288,-71.4285714285714,4,2,35,80,0,0
60432,-90.9090909090909,4,2,35,10,0,0
60480,-76.9230769230769,4,2,35,75,0,0
60623,-90.9090909090909,4,2,35,10,0,0
60670,-90.9090909090909,4,2,35,70,0,0
60671,-83.3333333333333,4,2,35,70,0,0
61053,-90.9090909090909,4,2,35,70,0,0
61244,-90.9090909090909,4,2,32,70,0,0
62008,-90.9090909090909,4,2,35,70,0,0
62199,-76.9230769230769,4,2,35,70,0,0
62390,-90.9090909090909,4,2,32,70,0,0
62581,-90.9090909090909,4,2,35,70,0,0
62772,-90.9090909090909,4,2,32,70,0,0
62964,-90.9090909090909,4,2,33,70,0,0
63154,-90.9090909090909,4,2,35,70,0,0
63346,-90.9090909090909,4,2,33,70,0,0
63441,-90.9090909090909,4,2,35,70,0,0
63537,-90.9090909090909,4,2,32,70,0,0
63728,-90.9090909090909,4,2,33,85,0,0
63919,-90.9090909090909,4,2,32,85,0,0
64110,-76.9230769230769,4,2,33,85,0,0
64492,-125,4,2,31,60,0,0
64540,-125,4,2,35,60,0,0
64588,-142.857142857143,4,2,32,60,0,0
65830,-142.857142857143,4,2,35,60,0,0
66021,-142.857142857143,4,2,32,60,0,0
66403,-142.857142857143,4,2,35,60,0,0
66785,-142.857142857143,4,2,32,60,0,0
67550,-125,4,2,35,60,0,0
67645,-142.857142857143,4,2,32,60,0,0
68887,-142.857142857143,4,2,35,60,0,0
69078,-142.857142857143,4,2,32,60,0,0
69843,-142.857142857143,4,2,35,60,0,0
70225,-100,4,2,33,60,0,0
70607,-111.111111111111,4,2,35,60,0,0
70703,-125,4,2,32,60,0,0
71753,-125,4,2,33,60,0,0
71945,-125,4,2,32,60,0,0
72518,-125,4,2,33,60,0,0
72709,-125,4,2,32,60,0,0
72900,-125,4,2,33,60,0,0
73664,-125,4,2,32,60,0,0
74620,-125,4,2,32,60,0,0
74811,-125,4,2,32,60,0,0
75097,-125,4,2,32,60,0,0
75193,-100,4,2,32,60,0,0
75957,-100,4,2,33,60,0,0
76148,-83.3333333333333,4,2,32,60,0,0
76339,-83.3333333333333,4,2,33,80,0,0
76531,-83.3333333333333,4,2,32,70,0,0
77486,-125,4,2,33,70,0,0
77773,-125,4,2,32,70,0,0
77868,-125,4,2,33,70,0,0
78250,-83.3333333333333,4,2,31,100,0,1
78441,-83.3333333333333,4,2,32,100,0,1
78505,-83.3333333333333,4,2,35,100,0,1
78569,-83.3333333333333,4,2,33,100,0,1
79015,-83.3333333333333,4,2,32,100,0,1
79397,-83.3333333333333,4,2,33,100,0,1
79588,-83.3333333333333,4,2,35,100,0,1
79970,-83.3333333333333,4,2,32,100,0,1
80034,-83.3333333333333,4,2,35,100,0,1
80097,-83.3333333333333,4,2,33,100,0,1
80543,-83.3333333333333,4,2,35,100,0,1
80925,-83.3333333333333,4,2,33,100,0,1
81308,-83.3333333333333,4,2,35,100,0,1
81499,-83.3333333333333,4,2,32,100,0,1
81562,-83.3333333333333,4,2,35,100,0,1
81626,-83.3333333333333,4,2,33,100,0,1
82072,-83.3333333333333,4,2,35,100,0,1
82454,-83.3333333333333,4,2,33,100,0,1
82836,-83.3333333333333,4,2,32,100,0,1
83027,-83.3333333333333,4,2,33,100,0,1
83218,-83.3333333333333,4,2,32,100,0,1
83410,-83.3333333333333,4,2,33,100,0,1
83601,-142.857142857143,4,2,32,100,0,1
83983,-100,4,2,33,100,0,1
84365,-83.3333333333333,4,2,35,100,0,1
84556,-83.3333333333333,4,2,32,100,0,1
84620,-83.3333333333333,4,2,35,100,0,1
84683,-83.3333333333333,4,2,33,100,0,1
85129,-83.3333333333333,4,2,35,100,0,1
85511,-83.3333333333333,4,2,33,100,0,1
85703,-83.3333333333333,4,2,35,100,0,1
86085,-83.3333333333333,4,2,32,100,0,1
86148,-83.3333333333333,4,2,35,100,0,1
86212,-83.3333333333333,4,2,33,100,0,1
86658,-83.3333333333333,4,2,35,100,0,1
87040,-83.3333333333333,4,2,33,100,0,1
87422,-83.3333333333333,4,2,32,100,0,1
87804,-83.3333333333333,4,2,33,100,0,1
87996,-83.3333333333333,4,2,35,100,0,1
88187,-83.3333333333333,4,2,32,100,0,1
88378,-83.3333333333333,4,2,35,100,0,1
88569,-83.3333333333333,4,2,33,100,0,1
88632,-83.3333333333333,4,2,35,100,0,1
88696,-83.3333333333333,4,2,32,100,0,1
88760,-142.857142857143,4,2,32,100,0,1
88951,-83.3333333333333,4,2,32,100,0,1
89206,-83.3333333333333,4,2,35,100,0,1
89269,-83.3333333333333,4,2,33,100,0,1
89524,-83.3333333333333,4,2,32,100,0,1
89779,-83.3333333333333,4,2,35,100,0,1
89843,-83.3333333333333,4,2,33,100,0,1
90288,-83.3333333333333,4,2,31,100,0,1
90384,-83.3333333333333,4,2,31,100,0,0
90480,-83.3333333333333,4,2,31,100,0,1
90671,-83.3333333333333,4,2,32,100,0,1
90734,-83.3333333333333,4,2,35,100,0,1
90798,-83.3333333333333,4,2,33,100,0,1
91244,-83.3333333333333,4,2,35,100,0,1
91626,-83.3333333333333,4,2,33,100,0,1
91817,-83.3333333333333,4,2,35,100,0,1
92199,-83.3333333333333,4,2,32,100,0,1
92263,-83.3333333333333,4,2,35,100,0,1
92327,-83.3333333333333,4,2,33,100,0,1
92773,-83.3333333333333,4,2,35,100,0,1
93155,-83.3333333333333,4,2,33,100,0,1
93537,-83.3333333333333,4,2,35,100,0,1
93919,-83.3333333333333,4,2,33,100,0,1
93983,-83.3333333333333,4,2,35,100,0,1
94588,-83.3333333333333,4,2,33,100,0,1
95066,-83.3333333333333,4,2,32,100,0,1
95257,-83.3333333333333,4,2,33,100,0,1
95448,-83.3333333333333,4,2,32,100,0,1
95639,-83.3333333333333,4,2,33,100,0,1
95830,-142.857142857143,4,2,32,100,0,1
96212,-100,4,2,33,100,0,1
96594,-83.3333333333333,4,2,35,100,0,1
96785,-83.3333333333333,4,2,32,100,0,1
96849,-83.3333333333333,4,2,35,100,0,1
96913,-83.3333333333333,4,2,33,100,0,1
97359,-83.3333333333333,4,2,35,100,0,1
97741,-83.3333333333333,4,2,33,100,0,1
97932,-83.3333333333333,4,2,35,100,0,1
98314,-83.3333333333333,4,2,32,100,0,1
98378,-83.3333333333333,4,2,35,100,0,1
98441,-83.3333333333333,4,2,33,100,0,1
98887,-83.3333333333333,4,2,35,100,0,1
99269,-83.3333333333333,4,2,33,100,0,1
99652,-83.3333333333333,4,2,32,100,0,1
100034,-83.3333333333333,4,2,33,100,0,1
100225,-83.3333333333333,4,2,35,100,0,1
100798,-83.3333333333333,4,2,33,100,0,1
100862,-83.3333333333333,4,2,35,100,0,1
100989,-142.857142857143,4,2,33,100,0,1
101180,-83.3333333333333,4,2,35,100,0,1
101562,-83.3333333333333,4,2,33,100,0,1
101753,-83.3333333333333,4,2,32,100,0,1
101849,-83.3333333333333,4,2,31,100,0,1
102327,-83.3333333333333,4,2,33,100,0,1
102422,-83.3333333333333,4,2,32,100,0,1
102518,-83.3333333333333,4,2,33,100,0,1
102613,-83.3333333333333,4,2,35,100,0,1
102709,-142.857142857143,4,2,31,100,0,1
103282,-142.857142857143,4,2,34,70,0,0
104429,-142.857142857143,4,2,33,10,0,0
104620,-142.857142857143,4,2,31,70,0,0
105002,-142.857142857143,4,2,31,65,0,0
105384,-142.857142857143,4,2,31,60,0,0
106339,-142.857142857143,4,2,34,70,0,0
107295,400,4,2,34,70,1,0
108095,428.571428571429,4,2,31,70,1,0
108095,-111.111111111111,4,2,32,80,0,0
108523,413.793103448276,4,2,32,70,1,0
108523,-166.666666666667,4,2,32,70,0,0
109557,-166.666666666667,4,2,34,70,0,0
110178,428.571428571429,4,2,34,70,1,0
110178,-142.857142857143,4,2,34,70,0,0
110606,444.444444444444,4,2,34,70,1,0
111050,461.538461538462,4,2,34,65,1,0
111511,480,4,2,34,60,1,0
111511,-125,4,2,32,60,0,0
111991,500,4,2,32,50,1,0
111991,-322,4,2,32,50,0,0
113991,-322,4,2,32,30,0,0
115991,-322,4,2,32,20,0,0
117991,-322,4,2,32,15,0,0
119491,-322,4,2,32,13,0,0
120491,-322,4,2,32,10,0,0

[Colours]
Combo1 : 255,100,100
Combo2 : 69,226,77
Combo3 : 31,189,241
Combo4 : 255,128,0
Combo5 : 248,84,141
Combo6 : 255,0,0
Combo7 : 255,50,50

[HitObjects]
177,128,1053,6,0,L|182:175,1,45,8|0,0:3|0:0,0:0:0:0:
169,182,1244,2,0,L|174:229,1,40.4999987640381,4|0,0:3|0:0,0:0:0:0:
162,235,1435,2,0,L|166:270,1,36,8|0,0:0|0:0,0:0:0:0:
126,343,1626,5,0,0:0:0:0:
126,343,1722,1,0,0:0:0:0:
126,343,1817,2,0,P|40:346|33:261,1,188.999994232178,4|8,0:1|0:0,0:0:0:0:
89,206,2486,1,10,0:0:0:0:
89,206,2581,2,0,B|178:172|182:244|272:209,1,188.999994232178,10|8,0:0|0:0,0:0:0:0:
284,200,3250,1,10,0:0:0:0:
284,200,3346,2,0,P|275:230|280:261,1,62.9999980773926,10|0,0:0|0:0,0:0:0:0:
395,355,3728,37,8,0:3:0:0:
463,328,3855,1,8,0:3:0:0:
474,255,3983,1,8,0:3:0:0:
417,209,4110,5,4,0:3:0:0:
348,235,4238,1,4,0:3:0:0:
336,307,4365,1,4,0:3:0:0:
405,282,4492,5,8,0:0:0:0:
405,282,4620,1,8,0:0:0:0:
405,282,4747,1,8,0:0:0:0:
405,282,4874,1,12,0:0:0:0:
310,80,5448,6,0,L|304:49,2,31.4999990386963,8|0|8,0:0|0:0|0:0,0:0:0:0:
300,192,5830,1,8,0:0:0:0:
413,202,6021,1,10,0:0:0:0:
422,89,6212,1,10,0:0:0:0:
418,209,6403,5,10,0:0:0:0:
429,84,6594,1,10,0:0:0:0:
304,73,6785,1,10,0:0:0:0:
293,198,6976,1,8,0:0:0:0:
435,75,7167,6,0,L|440:120,1,45,8|0,0:1|0:0,0:0:0:0:
418,209,7359,22,0,L|384:213,2,30
436,212,7550,38,0,P|480:325|353:338,1,269.999991760254,10|8,0:3|0:0,0:0:0:0:
256,300,8696,1,8,0:0:0:0:
244,376,9078,5,8,0:0:0:0:
193,251,9269,1,8,0:0:0:0:
327,270,9460,1,10,0:0:0:0:
256,300,9652,1,10,0:0:0:0:
261,304,9747,1,0,0:0:0:0:
266,308,9843,1,8,0:0:0:0:
244,376,10034,1,10,0:0:0:0:
84,329,10225,6,0,L|79:284,1,45,8|0,0:1|0:0,0:0:0:0:
36,216,10416,1,2,0:0:0:0:
36,216,10511,1,0,0:0:0:0:
36,216,10607,6,0,B|137:168|143:273|221:265|257:167|218:102|124:130|121:171|134:192,1,315,6|8,0:3|0:0,0:0:0:0:
196,249,12136,1,8,0:0:0:0:
292,263,12327,1,8,0:0:0:0:
379,207,12518,1,8,0:0:0:0:
406,99,12709,2,0,L|403:63,1,31.4999990386963,10|0,0:0|0:0,0:0:0:0:
395,112,12900,53,8,0:0:0:0:
469,173,13091,1,8,0:0:0:0:
305,146,13282,5,12,0:0:0:0:
379,207,13473,1,0,3:0:0:0:
378,215,13569,1,0,3:0:0:0:
377,224,13664,2,0,L|372:268,1,45,8|0,0:0|0:0,0:0:0:0:
452,256,13855,6,0,L|456:218,1,22.5,8|2,0:0|0:0,0:0:0:0:
305,146,14046,6,0,L|292:280,1,135,12|0,0:1|0:0,0:0:0:0:
342,343,14429,1,8,0:0:0:0:
219,209,14620,1,0,0:0:0:0:
192,212,14715,1,2,0:0:0:0:
165,215,14811,1,8,0:0:0:0:
38,300,15002,1,0,0:0:0:0:
60,302,15097,1,2,0:0:0:0:
82,304,15193,1,8,0:0:0:0:
214,363,15384,53,2,0:0:0:0:
208,370,15479,1,2,0:0:0:0:
202,377,15575,2,0,L|210:287,1,90,6|0,0:0|0:0,0:0:0:0:
219,209,15862,1,2,0:0:0:0:
192,212,15957,1,8,0:0:0:0:
49,126,16148,5,2,0:0:0:0:
53,118,16244,1,2,0:0:0:0:
57,110,16339,2,0,L|65:199,1,90,8|0,0:0|0:0,0:0:0:0:
56,225,16626,1,2,0:0:0:0:
88,200,16721,5,8,3:0:0:0:
127,197,16817,1,8,3:0:0:0:
165,215,16912,1,8,3:0:0:0:
277,321,17104,1,8,0:0:0:0:
178,138,17295,1,8,3:0:0:0:
216,156,17390,1,8,3:0:0:0:
255,153,17486,1,8,3:0:0:0:
392,67,17677,5,0,0:0:0:0:
388,59,17773,1,2,0:0:0:0:
384,51,17868,2,0,L|376:140,1,90,8|0,0:0|0:0,0:0:0:0:
438,188,18155,1,2,0:0:0:0:
438,188,18250,2,0,L|432:232,1,45,8|0,0:0|0:0,0:0:0:0:
493,280,18441,2,0,L|487:324,1,45,2|0,0:0|0:0,0:0:0:0:
414,366,18632,53,10,0:0:0:0:
391,345,18728,1,0,0:0:0:0:
361,334,18824,1,2,0:0:0:0:
330,334,18919,1,2,0:0:0:0:
301,346,19015,1,10,0:0:0:0:
155,239,19206,1,2,0:0:0:0:
224,376,19397,6,0,L|233:258,1,107.999996704102,8|0,0:1|0:0,0:0:0:0:
155,239,19683,1,0,0:0:0:0:
228,257,19779,6,0,L|237:143,1,90,10|0,0:3|3:0,0:0:0:0:
217,92,20066,1,0,0:0:0:0:
217,92,20161,1,8,0:0:0:0:
98,236,20352,2,0,L|142:232,1,45,10|0,0:3|0:0,0:0:0:0:
155,239,20543,1,8,0:0:0:0:
309,199,20734,5,0,3:0:0:0:
309,199,20829,1,0,0:0:0:0:
309,199,20925,2,0,B|355:195|355:195|406:230,1,90,10|0,0:0|0:0,0:0:0:0:
400,229,21212,2,0,L|444:225,1,45,2|8,0:0|0:0,0:0:0:0:
437,342,21499,53,0,3:0:0:0:
437,342,21594,1,0,0:0:0:0:
437,342,21690,2,0,P|388:368|338:345,1,107.999996704102,10|0,0:0|0:0,0:0:0:0:
333,335,21976,2,0,P|327:300|343:265,1,53.9999983520508,2|8,0:0|0:0,0:0:0:0:
421,141,22263,5,0,3:0:0:0:
421,141,22359,1,0,0:0:0:0:
421,141,22454,2,0,P|443:83|412:35,1,116.999994644165,10|0,0:0|0:0,0:0:0:0:
402,30,22741,1,0,0:0:0:0:
402,30,22836,6,0,P|365:27|338:39,1,62.9999980773926,10|0,0:0|0:0,0:0:0:0:
276,96,23027,1,2,0:0:0:0:
277,109,23122,1,0,0:0:0:0:
278,121,23218,1,8,0:0:0:0:
309,199,23410,1,0,3:0:0:0:
155,239,23601,2,0,L|110:234,1,45,10|0,0:0|0:0,0:0:0:0:
69,74,23792,5,2,3:2:0:0:
69,74,23887,1,0,0:0:0:0:
69,74,23983,2,0,B|77:142|77:142|35:199,1,135.000005149842,10|2,0:0|0:0,0:0:0:0:
26,212,24269,1,0,0:0:0:0:
26,212,24365,2,0,L|36:294,1,67.5000025749208,8|0,0:0|0:0,0:0:0:0:
88,349,24556,5,2,0:0:0:0:
105,349,24620,1,2,0:0:0:0:
123,352,24684,1,2,0:0:0:0:
140,360,24747,2,0,P|172:369|205:364,1,67.5000025749208,10|0,0:0|0:0,0:0:0:0:
334,282,24938,38,0,P|342:248|335:213,1,72,2|0,0:0|0:0,0:0:0:0:
167,217,25129,6,0,P|163:254|175:291,1,76.5000014591217,10|0,0:0|0:0,0:0:0:0:
307,357,25320,6,0,P|342:361|377:349,1,72,2|0,0:0|0:0,0:0:0:0:
468,185,25511,5,8,0:0:0:0:
390,143,25703,1,8,0:1:0:0:
334,212,25894,1,8,0:0:0:0:
256,170,26086,1,8,0:1:0:0:
101,323,26276,54,0,B|109:231|109:231|63:191,1,135,12|2,0:1|0:0,0:0:0:0:
65,193,26658,1,8,0:0:0:0:
128,36,26849,2,0,L|119:125,1,90,2|8,0:0|0:0,0:0:0:0:
139,149,27136,1,2,0:0:0:0:
167,162,27232,1,2,3:2:0:0:
198,161,27327,1,0,0:0:0:0:
226,147,27423,1,8,0:0:0:0:
388,196,27613,1,0,3:0:0:0:
388,196,27709,1,0,0:0:0:0:
388,196,27804,6,0,B|296:202|296:202|261:247,1,135,2|2,0:0|0:0,0:0:0:0:
262,247,28187,1,8,0:0:0:0:
120,320,28378,2,0,L|210:313,1,90,2|8,0:0|0:0,0:0:0:0:
236,329,28664,1,2,0:0:0:0:
267,326,28759,1,2,3:2:0:0:
299,324,28855,1,0,0:0:0:0:
330,321,28950,1,8,0:0:0:0:
479,365,29142,1,0,3:0:0:0:
479,365,29238,1,0,0:0:0:0:
479,365,29333,6,0,B|446:337|446:337|454:245,1,135,2|2,0:0|0:0,0:0:0:0:
457,231,29715,1,8,0:0:0:0:
474,55,29906,2,0,L|464:156,1,90,2|8,0:0|0:0,0:0:0:0:
491,163,30193,1,2,0:0:0:0:
457,154,30288,1,2,3:2:0:0:
427,161,30384,1,0,0:0:0:0:
402,179,30480,5,8,0:0:0:0:
372,198,30575,1,0,0:0:0:0:
337,201,30671,1,0,3:0:0:0:
305,184,30766,1,0,0:0:0:0:
286,154,30862,53,8,0:0:0:0:
294,198,30957,1,2,0:0:0:0:
274,237,31053,1,2,0:0:0:0:
235,257,31148,1,8,0:0:0:0:
191,249,31244,6,0,L|147:252,1,36,0|0,0:0|0:0,0:0:0:0:
46,346,31435,6,0,B|65:351|65:351|85:344|85:344|160:338,1,116.999994644165,6|0,0:0|3:0,0:0:0:0:
178,262,31722,2,0,L|113:267,1,45,8|0,0:1|0:0,0:0:0:0:
38,169,31913,1,0,3:0:0:0:
3,230,32008,6,0,P|29:239|59:236,1,58.4999973220826,4|0,0:0|0:0,0:0:0:0:
73,108,32199,2,0,P|47:99|17:102,1,58.4999973220826,8|0,0:1|0:0,0:0:0:0:
147,180,32390,54,0,P|192:132|178:69,1,135,10|2,0:0|0:0,0:0:0:0:
168,60,32773,1,8,0:0:0:0:
313,22,32964,2,0,L|306:122,1,90,2|8,0:0|0:0,0:0:0:0:
328,132,33250,1,2,0:0:0:0:
358,142,33346,1,2,3:2:0:0:
389,139,33441,1,0,0:0:0:0:
416,122,33537,1,8,0:0:0:0:
512,233,33728,1,0,3:0:0:0:
512,233,33824,1,0,0:0:0:0:
512,233,33919,6,0,P|447:208|392:245,1,135,2|2,0:0|0:0,0:0:0:0:
389,252,34301,1,8,0:0:0:0:
280,361,34492,2,0,L|287:261,1,90,2|8,0:0|0:0,0:0:0:0:
265,251,34778,1,2,0:0:0:0:
235,241,34874,1,2,3:2:0:0:
204,244,34969,1,0,0:0:0:0:
177,261,35065,1,8,0:0:0:0:
0,222,35257,1,0,3:0:0:0:
0,222,35352,1,0,0:0:0:0:
0,222,35448,6,0,B|65:213|65:213|104:231,1,107.999996704102,10|8,3:2|0:1,0:0:0:0:
177,261,35734,1,2,0:0:0:0:
177,261,35830,2,0,L|172:207,1,53.9999983520508,8|0,0:1|0:0,0:0:0:0:
157,33,36021,2,0,L|161:86,1,53.9999983520508,2|0,0:0|0:0,0:0:0:0:
101,142,36212,5,8,0:0:0:0:
131,162,36307,1,2,0:0:0:0:
168,168,36403,1,2,3:2:0:0:
203,156,36498,1,0,0:0:0:0:
230,130,36595,53,8,0:1:0:0:
266,107,36690,1,0,0:0:0:0:
312,106,36786,1,2,3:2:0:0:
346,126,36881,1,0,0:0:0:0:
368,161,36977,5,8,0:1:0:0:
355,111,37071,1,0,0:0:0:0:
382,65,37167,1,2,0:0:0:0:
432,52,37262,1,4,0:3:0:0:
478,77,37359,5,10,0:0:0:0:
472,152,37454,1,2,0:0:0:0:
466,227,37550,2,0,B|462:277|462:277|470:292|470:292|460:306|460:306|454:368,1,134.999995880127,4|0,0:0|0:0,0:0:0:0:
460,365,38123,6,0,L|365:357,1,94.499997116089,0|0,3:0|0:0,0:0:0:0:
291,353,38505,6,0,L|293:367,5,15,2|2|2|2|2|2,0:0|0:0|0:0|0:0|0:0|0:0,0:0:0:0:
289,339,38887,1,2,0:0:0:0:
346,248,39078,38,0,L|342:280,1,31.4999990386963,8|8,3:0|0:3,0:0:0:0:
306,179,39269,2,0,L|302:148,3,31.4999990386963,8|0|0|0,3:0|0:0|3:0|0:0,0:0:0:0:
299,126,39652,5,8,0:0:0:0:
309,32,39843,1,8,0:1:0:0:
206,179,40034,5,12,0:1:0:0:
206,179,40225,2,0,L|117:187,1,90,2|8,0:0|0:0,0:0:0:0:
41,236,40607,1,2,0:0:0:0:
29,60,40798,2,0,B|45:103|45:103|36:147,1,90,8|2,0:0|0:0,0:0:0:0:
22,148,41085,1,0,0:0:0:0:
8,150,41180,1,8,0:0:0:0:
113,49,41371,1,2,0:0:0:0:
206,179,41562,6,0,L|199:254,1,53.9999983520508,8|2,0:0|0:0,0:0:0:0:
191,346,41753,1,2,0:0:0:0:
190,357,41849,1,0,0:0:0:0:
189,368,41945,54,0,L|194:311,1,45,8|0,0:0|0:0,0:0:0:0:
201,232,42136,1,2,0:0:0:0:
390,297,42327,2,0,L|301:289,1,90,8|2,0:0|0:0,0:0:0:0:
288,287,42613,1,0,0:0:0:0:
275,285,42709,1,10,0:0:0:0:
117,269,42900,1,2,0:0:0:0:
214,88,43091,5,8,0:0:0:0:
371,183,43282,2,0,L|304:189,1,45,2|0,0:0|0:0,0:0:0:0:
312,188,43473,1,8,0:0:0:0:
268,38,43664,38,0,L|272:7,2,30,2|0|0,3:2|3:0|3:0,0:0:0:0:
214,88,43855,38,0,P|234:104|260:110,1,53.9999983520508,8|0,0:0|0:0,0:0:0:0:
382,100,44046,1,2,0:0:0:0:
393,99,44142,1,0,0:0:0:0:
404,98,44238,6,0,L|347:103,1,45,8|0,0:0|0:0,0:0:0:0:
261,110,44429,1,2,0:0:0:0:
300,288,44620,5,8,0:0:0:0:
300,288,44811,2,0,L|410:278,1,90,2|8,0:0|0:0,0:0:0:0:
403,279,45097,1,0,0:0:0:0:
403,279,45193,2,0,L|397:342,1,45,2|0,0:0|0:0,0:0:0:0:
501,379,45384,5,8,3:2:0:0:
481,341,45480,1,2,3:3:0:0:
482,298,45575,2,8,P|492:273|512:254,1,53.9999983520508,2|0,0:0|0:0,0:0:0:0:
423,185,45766,53,10,0:0:0:0:
389,199,45862,1,0,0:0:0:0:
354,198,45957,2,0,P|333:189|317:173,1,45,2|0,0:0|0:0,0:0:0:0:
268,38,46148,5,12,0:0:0:0:
268,38,46339,1,2,0:0:0:0:
265,60,46434,1,0,0:0:0:0:
263,82,46530,1,8,0:0:0:0:
245,238,46722,1,2,0:0:0:0:
121,113,46913,6,0,P|147:105|174:107,1,53.9999983520508,8|2,0:0|0:0,0:0:0:0:
255,159,47104,1,2,0:0:0:0:
266,161,47199,1,0,0:0:0:0:
276,165,47295,6,0,P|254:159|231:160,1,45,10|0,0:0|0:0,0:0:0:0:
156,183,47486,1,2,0:0:0:0:
182,344,47677,54,0,P|227:366|276:356,1,101.250003862381,10|0,0:0|0:0,0:0:0:0:
286,349,47868,6,0,P|326:326|372:333,1,94.499997116089,2|0,0:0|0:0,0:0:0:0:
382,339,48059,6,0,P|437:354|479:334,1,87.749995983124,10|0,0:0|0:0,0:0:0:0:
473,339,48250,6,0,P|494:306|495:261,1,80.9999975280763,2|0,0:0|0:0,0:0:0:0:
489,257,48441,54,0,L|496:143,1,99.0000030212403,10|0,0:0|0:0,0:0:0:0:
356,38,48824,6,0,L|353:85,1,45,10|0,0:0|0:0,0:0:0:0:
364,97,49015,2,0,L|361:144,1,45,10|0,0:0|0:0,0:0:0:0:
378,221,49206,5,8,0:0:0:0:
223,136,49397,2,0,L|290:130,1,45,2|0,0:0|0:0,0:0:0:0:
282,131,49588,1,8,0:0:0:0:
238,291,49779,1,2,0:0:0:0:
145,118,49970,6,0,B|141:145|141:145|150:169,1,53.9999983520508,10|0,0:0|0:0,0:0:0:0:
239,213,50161,1,2,0:0:0:0:
250,212,50257,1,0,0:0:0:0:
260,211,50352,54,0,L|216:216,1,45,10|0,0:0|0:0,0:0:0:0:
141,248,50543,1,2,0:0:0:0:
216,371,50734,5,10,0:0:0:0:
280,131,50925,1,2,0:0:0:0:
238,291,51117,1,10,0:0:0:0:
249,251,51212,1,2,0:0:0:0:
260,211,51308,1,2,0:0:0:0:
301,49,51499,6,0,L|256:53,1,45,8|0,0:0|0:0,0:0:0:0:
171,62,51690,2,0,L|126:66,1,45,8|0,0:0|0:0,0:0:0:0:
356,43,51881,6,0,B|328:37|328:37|301:49,1,58.4999973220826,8|0,0:0|0:0,0:0:0:0:
126,65,52072,2,0,B|97:75|97:75|69:69,1,58.4999973220826,8|0,0:0|0:0,0:0:0:0:
0,208,52263,53,12,0:1:0:0:
0,208,52454,2,0,P|43:185|91:193,1,99.0000030212403,2|8,0:0|0:0,0:0:0:0:
172,231,52836,1,2,0:0:0:0:
104,380,53027,2,0,L|98:282,1,99.0000030212403,8|2,0:0|0:0,0:0:0:0:
109,290,53314,1,0,0:0:0:0:
120,298,53410,1,8,0:0:0:0:
215,367,53601,1,2,0:0:0:0:
177,172,53792,6,0,L|172:231,1,58.4999973220826,8|2,0:0|0:0,0:0:0:0:
260,292,53983,1,2,0:0:0:0:
271,288,54079,1,0,0:0:0:0:
283,285,54174,6,0,B|259:293|259:293|235:288,1,49.5000015106202,8|0,0:0|0:0,0:0:0:0:
255,209,54365,1,2,0:0:0:0:
467,236,54556,2,0,P|424:214|376:221,1,99.0000030212403,8|2,0:0|0:0,0:0:0:0:
363,230,54843,1,0,0:0:0:0:
353,240,54938,1,10,0:0:0:0:
311,361,55129,1,2,0:0:0:0:
325,153,55320,5,8,0:0:0:0:
170,222,55511,2,0,L|231:217,1,49.5000015106202,2|0,0:0|0:0,0:0:0:0:
233,217,55703,1,8,0:0:0:0:
302,81,55894,6,0,L|297:37,2,33.0000010070801,2|0|0,3:2|3:0|3:0,0:0:0:0:
325,153,56085,38,0,P|297:157|269:149,1,58.4999973220826,8|0,0:0|0:0,0:0:0:0:
168,111,56275,1,2,0:0:0:0:
156,113,56371,1,0,0:0:0:0:
146,118,56467,6,0,P|169:111|194:113,1,49.5000015106202,8|0,0:0|0:0,0:0:0:0:
268,149,56658,1,2,0:0:0:0:
432,117,56849,5,8,0:0:0:0:
432,117,57040,2,0,L|421:215,1,99.0000030212403,2|8,0:0|0:0,0:0:0:0:
414,228,57327,1,0,0:0:0:0:
414,228,57422,2,0,P|436:238|460:241,1,49.5000015106202,2|0,0:0|0:0,0:0:0:0:
482,372,57613,5,8,3:2:0:0:
456,340,57708,1,2,3:3:0:0:
418,326,57804,2,8,P|389:328|363:341,1,58.4999973220826,2|0,0:0|0:0,0:0:0:0:
277,285,57996,53,10,0:0:0:0:
249,305,58091,1,0,0:0:0:0:
215,311,58187,2,0,P|190:306|169:293,1,49.5000015106202,2|0,0:0|0:0,0:0:0:0:
82,192,58378,5,12,0:0:0:0:
82,192,58569,1,2,0:0:0:0:
80,216,58664,1,0,0:0:0:0:
78,241,58760,1,8,0:0:0:0:
28,116,58951,1,2,0:0:0:0:
12,329,59142,6,0,P|40:325|70:321,1,58.4999973220826,8|2,0:0|0:0,0:0:0:0:
173,268,59333,1,2,0:0:0:0:
170,255,59429,1,0,0:0:0:0:
167,245,59525,6,0,P|172:268|169:293,1,49.5000015106202,10|0,0:0|0:0,0:0:0:0:
138,369,59715,1,2,0:0:0:0:
123,181,59906,54,0,P|174:167|221:189,1,108,10|0,0:0|0:0,0:0:0:0:
230,198,60097,6,0,P|274:218|322:205,1,101.250003862381,2|0,0:0|0:0,0:0:0:0:
333,199,60288,6,0,P|389:198|430:234,1,94.499997116089,10|0,0:0|0:0,0:0:0:0:
426,227,60480,6,0,P|441:268|431:311,1,87.749995983124,2|0,0:0|0:0,0:0:0:0:
425,320,60671,54,0,L|301:327,1,107.999996704102,10|0,0:0|0:0,0:0:0:0:
138,369,61053,6,0,L|187:366,1,49.5000015106202,10|0,0:0|0:0,0:0:0:0:
203,377,61244,2,0,L|252:374,1,49.5000015106202,10|0,0:0|0:0,0:0:0:0:
317,326,61435,5,8,0:0:0:0:
230,198,61626,2,0,L|225:259,1,49.5000015106202,2|0,0:0|0:0,0:0:0:0:
225,261,61817,1,8,0:0:0:0:
281,129,62008,1,2,0:0:0:0:
147,226,62199,6,0,P|117:228|88:231,1,58.4999973220826,10|0,0:0|0:0,0:0:0:0:
0,188,62390,1,2,0:0:0:0:
3,176,62486,1,0,0:0:0:0:
6,164,62581,54,0,B|0:188|0:188|7:212,1,49.5000015106202,10|0,0:0|0:0,0:0:0:0:
30,292,62773,1,2,0:0:0:0:
230,198,62964,5,10,0:0:0:0:
49,72,63155,1,2,0:0:0:0:
88,230,63346,1,10,0:0:0:0:
127,225,63441,1,2,0:0:0:0:
162,243,63537,1,2,0:0:0:0:
256,369,63728,6,0,L|325:363,1,49.5000015106202,8|0,0:0|0:0,0:0:0:0:
394,358,63919,2,0,L|463:352,1,49.5000015106202,8|0,0:0|0:0,0:0:0:0:
200,373,64110,6,0,B|227:362|227:362|256:369,1,58.4999973220826,8|0,0:0|0:0,0:0:0:0:
394,358,64301,1,8,0:0:0:0:
418,355,64396,1,8,0:0:0:0:
443,353,64492,54,0,L|472:368,1,18,4|2,0:1|0:0,0:0:0:0:
443,353,64588,2,0,L|450:255,1,94.499997116089,2|0,0:0|0:0,0:0:0:0:
377,209,65066,2,0,L|345:211,2,31.4999990386963,2|0|0,0:0|0:0|0:0,0:0:0:0:
450,258,65448,1,2,0:0:0:0:
457,170,65639,1,0,0:0:0:0:
463,82,65830,1,2,0:0:0:0:
463,82,65925,2,0,L|435:84,1,15.7499995193482,0|2,0:0|0:0,0:0:0:0:
431,71,66021,5,12,0:0:0:0:
351,34,66212,1,2,0:0:0:0:
269,66,66404,1,2,0:0:0:0:
232,145,66595,1,0,0:0:0:0:
263,228,66785,5,2,0:0:0:0:
262,244,66977,1,0,0:0:0:0:
261,259,67168,1,2,0:0:0:0:
256,341,67359,22,0,L|254:381,2,20.9999993591309
186,296,67550,38,0,L|162:277,1,18,12|2,0:0|0:0,0:0:0:0:
186,296,67645,2,0,L|85:292,1,94.499997116089,2|0,0:0|0:0,0:0:0:0:
32,358,68123,2,0,L|0:356,2,31.4999990386963,2|0|0,0:0|0:0|0:0,0:0:0:0:
91,292,68505,1,2,0:0:0:0:
18,241,68696,1,0,0:0:0:0:
77,175,68887,1,2,0:0:0:0:
77,175,68983,2,0,L|75:146,1,15.7499995193482,0|2,0:0|0:0,0:0:0:0:
64,140,69078,5,12,0:0:0:0:
30,58,69269,1,2,0:0:0:0:
98,1,69460,1,0,0:0:0:0:
173,48,69652,1,2,0:0:0:0:
152,134,69843,2,0,B|162:167|162:167|155:227,1,94.499997116089,2|0,0:0|0:0,0:0:0:0:
153,238,70225,6,0,L|197:234,1,45,8|0,0:0|0:0,0:0:0:0:
77,175,70416,1,8,0:1:0:0:
139,311,70607,6,0,L|145:347,1,20.2499993820191,12|2,0:0|0:0,0:0:0:0:
139,311,70703,2,0,L|269:300,1,108,2|0,0:0|0:0,0:0:0:0:
365,291,71180,1,2,0:0:0:0:
347,292,71276,1,0,0:0:0:0:
329,294,71371,1,0,0:0:0:0:
246,301,71562,1,2,0:0:0:0:
294,369,71753,1,8,0:0:0:0:
280,225,71945,1,2,0:0:0:0:
280,225,72040,2,0,L|277:192,1,18,0|2,0:0|0:0,0:0:0:0:
289,187,72136,53,10,0:0:0:0:
367,146,72327,1,2,3:2:0:0:
367,146,72422,1,8,0:0:0:0:
367,146,72518,1,8,0:1:0:0:
451,172,72709,1,0,3:0:0:0:
451,172,72804,1,8,0:0:0:0:
451,172,72900,1,8,0:1:0:0:
492,251,73091,1,2,0:0:0:0:
465,335,73282,1,8,0:0:0:0:
387,375,73473,1,2,0:0:0:0:
303,349,73664,6,0,L|231:353,1,72,10|0,0:0|0:0,0:0:0:0:
220,353,73950,1,0,3:0:0:0:
209,354,74046,1,8,0:0:0:0:
51,374,74238,37,2,0:0:0:0:
50,363,74301,1,0,0:0:0:0:
49,351,74365,1,0,0:0:0:0:
49,339,74429,1,8,0:0:0:0:
43,233,74620,2,0,L|41:205,2,24,2|0|0,0:0|0:0|0:0,0:0:0:0:
44,252,74811,1,10,0:0:0:0:
129,352,75002,5,8,0:0:0:0:
129,352,75097,2,0,L|130:364,2,12,2|2|2,0:0|0:0|0:0,0:0:0:0:
127,333,75193,22,0,L|123:286,1,45,10|0,0:0|0:0,0:0:0:0:
113,158,75384,1,0,3:0:0:0:
113,158,75480,1,0,0:0:0:0:
113,158,75575,2,0,L|116:202,1,45,8|0,0:0|0:0,0:0:0:0:
44,252,75766,1,0,0:0:0:0:
195,239,75957,1,8,0:0:0:0:
109,104,76148,6,0,L|113:158,1,53.9999983520508,8|0,0:0|0:0,0:0:0:0:
44,252,76339,5,8,0:0:0:0:
123,288,76435,1,8,0:0:0:0:
195,239,76530,1,8,0:0:0:0:
195,239,77486,5,0,3:0:0:0:
195,239,77581,2,0,L|243:235,2,36,2|0|8,3:0|0:0|0:0,0:0:0:0:
123,288,77868,1,8,0:0:0:0:
44,252,78059,1,8,0:1:0:0:
109,104,78250,53,12,0:1:0:0:
195,96,78441,53,2,0:0:0:0:
212,94,78504,1,2,0:0:0:0:
230,92,78568,1,2,0:0:0:0:
248,91,78632,1,10,0:0:0:0:
342,201,78824,37,2,0:0:0:0:
381,35,79015,5,10,0:0:0:0:
416,77,79110,1,2,0:0:0:0:
389,123,79206,1,2,0:0:0:0:
336,111,79301,1,2,0:0:0:0:
331,57,79397,1,10,0:0:0:0:
476,146,79588,1,2,0:0:0:0:
382,279,79779,5,10,0:0:0:0:
296,271,79970,21,2,0:0:0:0:
279,269,80033,1,2,0:0:0:0:
261,267,80097,1,2,0:0:0:0:
243,266,80161,1,10,0:0:0:0:
149,376,80352,69,2,0:0:0:0:
110,210,80544,5,10,0:0:0:0:
75,252,80639,1,2,0:0:0:0:
102,298,80735,1,2,0:0:0:0:
155,286,80830,1,2,0:0:0:0:
160,232,80926,1,10,0:0:0:0:
15,321,81117,1,2,0:0:0:0:
168,142,81308,53,10,0:0:0:0:
240,184,81499,53,2,0:0:0:0:
242,201,81562,1,2,0:0:0:0:
244,219,81626,1,2,0:0:0:0:
245,237,81690,1,10,0:0:0:0:
255,382,81881,37,2,0:0:0:0:
385,272,82072,5,10,0:0:0:0:
332,260,82167,1,2,0:0:0:0:
304,305,82263,1,2,0:0:0:0:
338,347,82358,1,2,0:0:0:0:
388,328,82454,1,10,0:0:0:0:
245,237,82645,1,2,0:0:0:0:
473,295,82836,5,10,0:0:0:0:
378,182,83027,1,8,0:0:0:0:
379,172,83122,1,2,0:0:0:0:
380,161,83218,2,0,L|386:94,1,53.9999983520508,10|0,0:0|0:0,0:0:0:0:
348,33,83410,1,10,0:0:0:0:
256,84,83601,6,0,L|256:121,3,31.4999990386963,10|8|0|8,0:0|0:0|3:0|0:0,0:0:0:0:
256,84,83983,53,10,0:0:0:0:
230,47,84078,1,0,0:0:0:0:
191,27,84174,1,10,0:0:0:0:
146,28,84269,1,0,0:0:0:0:
108,51,84365,5,14,0:0:0:0:
53,118,84556,37,2,0:0:0:0:
54,135,84620,1,2,0:0:0:0:
56,153,84683,1,2,0:0:0:0:
57,171,84747,1,10,0:0:0:0:
39,315,84938,53,2,0:0:0:0:
188,235,85129,5,10,0:0:0:0:
181,288,85225,1,2,0:0:0:0:
126,298,85320,1,2,0:0:0:0:
102,250,85415,1,2,0:0:0:0:
140,210,85511,1,10,0:0:0:0:
169,379,85703,1,2,2:0:0:0:
203,143,85894,5,10,2:0:0:0:
271,198,86085,5,2,0:0:0:0:
288,196,86148,1,2,0:0:0:0:
306,194,86212,1,2,0:0:0:0:
324,193,86276,1,10,0:0:0:0:
426,298,86467,85,2,2:0:0:0:
455,129,86657,53,10,0:0:0:0:
407,154,86753,1,2,0:0:0:0:
414,207,86849,1,2,0:0:0:0:
469,217,86945,1,2,0:0:0:0:
493,169,87040,2,0,B|480:143|480:143|489:59,1,107.999996704102,10|0,0:0|0:0,0:0:0:0:
339,19,87422,6,0,B|347:97|347:97|334:123,1,107.999996704102,8|2,0:0|0:0,0:0:0:0:
327,137,87708,1,0,0:0:0:0:
320,152,87804,1,10,0:0:0:0:
256,80,87996,1,2,0:0:0:0:
107,108,88187,1,10,0:0:0:0:
103,144,88283,1,0,0:0:0:0:
127,173,88378,1,2,0:0:0:0:
164,175,88474,1,0,0:0:0:0:
192,151,88569,38,0,L|188:116,2,35.9999989013672,10|2|2,0:0|0:0|0:0,0:0:0:0:
256,192,88760,2,0,L|252:243,1,31.4999990386963,2|0,0:0|0:0,0:0:0:0:
165,353,88951,38,0,L|161:299,1,53.9999983520508,10|0,0:0|0:0,0:0:0:0:
335,209,89142,70,0,L|337:173,2,35.9999989013672,2|2|2,0:0|0:0|0:0,0:0:0:0:
333,230,89333,2,0,L|327:313,1,53.9999983520508,10|0,0:0|0:0,0:0:0:0:
245,367,89524,38,0,L|241:313,1,53.9999983520508,10|0,0:0|0:0,0:0:0:0:
415,193,89715,70,0,L|418:158,2,35.9999989013672,10|2|2,0:0|0:0|0:0,0:0:0:0:
413,215,89906,2,0,L|408:283,1,53.9999983520508,10|0,0:0|0:0,0:0:0:0:
503,376,90097,37,10,0:1:0:0:
455,367,90192,1,0,0:0:0:0:
407,359,90288,5,10,0:0:0:0:
444,351,90383,1,0,0:0:0:0:
481,343,90480,53,12,0:1:0:0:
407,359,90671,53,0,0:0:0:0:
389,357,90734,1,2,0:0:0:0:
371,355,90799,1,2,0:0:0:0:
354,353,90862,1,10,0:0:0:0:
256,239,91053,37,2,0:0:0:0:
195,369,91244,5,2,0:0:0:0:
201,315,91339,1,2,0:0:0:0:
208,261,91435,1,2,0:0:0:0:
214,208,91530,1,2,0:0:0:0:
256,239,91626,1,10,0:0:0:0:
112,305,91817,1,2,0:0:0:0:
227,101,92008,5,10,0:0:0:0:
296,153,92199,21,2,0:0:0:0:
314,151,92262,1,2,0:0:0:0:
332,149,92327,1,2,0:0:0:0:
349,147,92390,1,10,0:0:0:0:
437,7,92581,69,2,0:0:0:0:
307,68,92773,5,2,0:0:0:0:
361,62,92868,1,2,0:0:0:0:
415,55,92964,1,2,0:0:0:0:
468,49,93059,1,2,0:0:0:0:
437,7,93155,1,10,0:0:0:0:
371,151,93346,1,2,0:0:0:0:
506,301,93537,53,10,0:0:0:0:
282,234,93728,2,0,L|335:228,1,53.9999983520508,2|0,0:0|0:0,0:0:0:0:
420,221,93919,53,10,0:0:0:0:
423,239,93983,1,2,0:0:0:0:
417,260,94046,1,2,0:0:0:0:
420,277,94110,2,0,P|416:303|413:330,1,53.9999983520508,2|0,0:0|0:0,0:0:0:0:
335,364,94301,54,0,B|309:343|309:343|234:351,1,107.999996704102,8|2,0:0|0:0,0:0:0:0:
162,328,94588,1,2,0:0:0:0:
89,304,94683,2,0,L|142:298,1,53.9999983520508,8|0,0:0|0:0,0:0:0:0:
15,364,94874,2,0,B|5:338|5:338|9:313,1,53.9999983520508,2|0,0:0|0:0,0:0:0:0:
42,240,95066,5,10,0:0:0:0:
56,86,95257,1,8,0:0:0:0:
62,101,95352,1,2,0:0:0:0:
69,116,95448,2,0,B|79:142|79:142|75:167,1,53.9999983520508,10|0,0:0|0:0,0:0:0:0:
42,240,95639,1,10,0:0:0:0:
155,170,95830,70,0,L|198:165,3,31.4999990386963,10|8|0|8,0:0|0:0|3:0|0:0,0:0:0:0:
155,169,96212,5,10,0:0:0:0:
176,131,96307,1,0,0:0:0:0:
216,112,96403,1,10,0:0:0:0:
259,121,96498,1,0,0:0:0:0:
289,154,96594,5,14,0:0:0:0:
322,236,96785,21,2,0:0:0:0:
321,253,96849,1,2,0:0:0:0:
319,271,96912,1,2,0:0:0:0:
318,289,96976,1,10,0:0:0:0:
165,304,97167,69,2,0:0:0:0:
338,369,97358,5,2,0:0:0:0:
287,373,97454,1,2,0:0:0:0:
251,336,97550,1,2,0:0:0:0:
216,300,97646,1,2,0:0:0:0:
165,304,97741,1,10,0:0:0:0:
34,374,97932,1,2,0:0:0:0:
0,161,98123,53,10,0:0:0:0:
76,202,98314,53,2,0:0:0:0:
93,201,98378,1,2,0:0:0:0:
111,199,98441,1,2,0:0:0:0:
129,198,98504,1,10,0:0:0:0:
144,45,98696,37,2,0:0:0:0:
209,218,98886,5,2,0:0:0:0:
213,167,98982,1,2,0:0:0:0:
176,131,99078,1,2,0:0:0:0:
140,96,99175,1,2,0:0:0:0:
144,45,99269,2,0,B|229:36|229:36|213:60,1,107.999996704102,10|0,0:0|0:0,0:0:0:0:
129,198,99652,6,0,L|21:208,1,107.999996704102,8|2,0:0|0:0,0:0:0:0:
35,216,99938,1,0,0:0:0:0:
49,224,100034,1,8,0:0:0:0:
66,121,100225,1,2,0:0:0:0:
209,218,100416,1,10,0:0:0:0:
233,246,100511,1,0,0:0:0:0:
240,282,100607,1,2,0:0:0:0:
229,318,100702,1,0,0:0:0:0:
202,343,100798,22,0,L|166:346,2,35.9999989013672,10|2|0,0:0|0:0|0:0,0:0:0:0:
267,378,100989,2,0,L|298:375,1,31.4999990386963,2|0,0:0|0:0,0:0:0:0:
448,338,101180,37,10,0:0:0:0:
463,353,101276,1,0,0:0:0:0:
478,368,101371,5,8,0:0:0:0:
426,362,101466,1,0,0:0:0:0:
374,356,101562,2,0,L|382:299,1,53.9999983520508,8|0,0:0|0:0,0:0:0:0:
396,184,101753,1,8,0:0:0:0:
398,168,101849,1,2,0:0:0:0:
400,152,101945,6,0,L|394:206,1,53.9999983520508,2|0,0:0|0:0,0:0:0:0:
382,302,102136,1,8,0:0:0:0:
198,177,102327,5,8,0:0:0:0:
251,132,102422,1,2,0:0:0:0:
311,169,102518,1,8,0:1:0:0:
294,237,102613,1,2,0:0:0:0:
224,242,102709,54,0,B|131:215|134:287|41:263,1,188.999994232178,4|8,0:1|0:0,0:0:0:0:
0,199,103378,1,10,0:0:0:0:
0,199,103473,2,0,P|2:140|123:122,1,188.999994232178,10|8,0:0|0:0,0:0:0:0:
124,120,104142,1,8,0:0:0:0:
124,120,104238,2,0,P|155:126|185:115,1,62.9999980773926,10|0,0:0|0:0,0:0:0:0:
299,19,104620,53,8,0:3:0:0:
367,46,104747,1,8,0:3:0:0:
378,119,104875,1,8,0:3:0:0:
321,165,105002,5,4,0:3:0:0:
252,139,105130,1,4,0:3:0:0:
240,67,105257,1,4,0:3:0:0:
309,92,105384,5,8,0:0:0:0:
309,92,105512,1,8,0:0:0:0:
309,92,105639,1,8,0:0:0:0:
309,92,105766,1,12,0:0:0:0:
455,190,106339,6,0,L|486:186,2,31.4999990386963,8|0|8,0:0|0:0|0:0,0:0:0:0:
382,141,106722,1,8,0:0:0:0:
376,228,106913,1,8,0:0:0:0:
370,315,107104,1,10,0:0:0:0:
443,364,107295,5,8,0:0:0:0:
360,323,107495,1,10,0:0:0:0:
297,382,107695,1,10,0:0:0:0:
225,348,107895,1,8,0:0:0:0:
116,377,108095,6,0,L|74:372,1,40.4999987640381,8|0,0:1|0:0,0:0:0:0:
48,290,108309,22,0,L|74:286,2,26.9999991760254
30,296,108523,38,0,P|33:175|154:183,1,269.999991760254,10|8,0:3|0:0,0:0:0:0:
190,266,109764,1,8,0:0:0:0:
322,118,110178,5,8,0:0:0:0:
256,192,110392,38,0,L|261:229,2,20.9999993591309,10|0|2,0:0|0:0|0:0,0:0:0:0:
256,192,110606,69,8,0:0:0:0:
307,269,110828,1,8,0:0:0:0:
372,214,111050,5,10,0:0:0:0:
392,249,111280,1,8,0:0:0:0:
468,232,111511,54,0,L|521:238,1,36,8|0,0:1|0:0,0:0:0:0:
392,249,111751,5,2,0:0:0:0:
392,249,111871,1,0,0:0:0:0:
392,249,111991,6,0,B|376:259|354:267|247:290|244:253|205:187|151:79|111:182|59:256|93:277|161:332|216:290|225:216|247:210|256:191|256:191|294:130|316:85|377:97|410:128|403:187|378:231|289:266|280:122|241:120|156:111|117:137,1,950.310559006211,6|0,0:3|0:0,0:0:0:0:
