osu file format v14

[General]
AudioFilename: audio.mp3
AudioLeadIn: 0
PreviewTime: 77868
Countdown: 0
SampleSet: Soft
StackLeniency: 0.3
Mode: 0
LetterboxInBreaks: 0
WidescreenStoryboard: 0

[Editor]
DistanceSpacing: 0.5
BeatDivisor: 4
GridSize: 8
TimelineZoom: 1

[Metadata]
Title:AsiaN distractive
TitleUnicode:AsiaN distractive
Artist:Nekomata Gekidan
ArtistUnicode:猫叉劇団
Creator:Regou
Version:1112's Another
Source:beatmania IIDX 24 SINOBUZ
Tags:Pending cup #5 yf_bmp gary00737 Chaoslitz StarrStyx 09kami Frey Suzuki_1112 Dailycare 1112deng Master
BeatmapID:1413524
BeatmapSetID:657122

[Difficulty]
HPDrainRate:6
CircleSize:5
OverallDifficulty:8
ApproachRate:9
SliderMultiplier:1.93
SliderTickRate:1

[Events]
//Background and Video events
0,0,"1112.jpg",0,0
//Break Periods
//Storyboard Layer 0 (Background)
//Storyboard Layer 1 (Fail)
//Storyboard Layer 2 (Pass)
//Storyboard Layer 3 (Foreground)
//Storyboard Sound Samples

[TimingPoints]
289,382.165605095541,4,2,87,85,1,0
1817,-133.333333333333,4,2,87,85,0,0
7167,-66.6666666666667,4,2,87,85,0,0
7550,-333.333333333333,4,2,87,85,0,0
9460,-133.333333333333,4,2,87,85,0,0
10225,-66.6666666666667,4,2,87,85,0,0
10607,-333.333333333333,4,2,87,85,0,0
12136,-133.333333333333,4,2,87,85,0,0
13282,-50,4,2,87,85,0,0
13473,-149.253731343284,4,2,87,85,0,0
14046,-100,4,2,87,85,0,0
22454,-66.6666666666667,4,2,87,85,0,0
22836,-100,4,2,87,85,0,0
25511,-66.6666666666667,4,2,87,85,0,0
26276,-83.3333333333333,4,2,87,85,0,0
29715,-80.6451612903226,4,2,87,85,0,0
30480,-83.3333333333333,4,2,87,85,0,0
31435,-66.6666666666667,4,2,87,85,0,0
32390,-83.3333333333333,4,2,87,85,0,0
37550,-133.333333333333,4,2,87,85,0,0
38123,-200,4,2,87,85,0,0
39652,-66.6666666666667,4,2,87,85,0,0
40034,-83.3333333333333,4,2,87,85,0,0
64492,-133.333333333333,4,2,87,85,0,0
65066,-133.333333333333,4,2,89,85,0,0
70607,-100,4,2,87,85,0,0
77486,-100,4,2,89,85,0,0
78250,-66.6666666666667,4,2,87,85,0,1
87040,-100,4,2,87,85,0,1
87422,-66.6666666666667,4,2,87,85,0,1
102709,-133.333333333333,4,2,87,85,0,0
107295,400,4,2,87,85,1,0
108095,428.571428571429,4,2,87,85,1,0
108523,413.793103448276,4,2,87,85,1,0
108523,-200,4,2,87,85,0,0
110178,428.571428571429,4,2,87,85,1,0
110606,444.444444444444,4,2,87,85,1,0
111050,461.538461538462,4,2,87,85,1,0
111511,480,4,2,87,85,1,0
111991,500,4,2,87,85,1,0
111991,-333.333333333333,4,2,87,85,0,0
112116,-333.333333333333,4,2,78,5,0,0

[Colours]
Combo1 : 255,253,170
Combo2 : 255,170,255
Combo3 : 170,255,255
Combo4 : 185,255,170

[HitObjects]
51,53,1053,5,2,0:0:0:0:
68,44,1148,1,2,0:0:0:0:
85,36,1244,2,0,L|77:104,1,48.25,2|2,0:0|0:0,0:0:0:0:
74,179,1435,1,2,0:0:0:0:
57,170,1530,1,2,0:0:0:0:
40,162,1626,2,0,L|45:209,1,48.25,2|2,0:0|0:0,0:0:0:0:
21,293,1817,6,0,B|66:287|66:287|120:312|120:312|171:307,1,144.750005521775,12|0,1:0|0:0,0:0:0:0:
239,325,2390,1,0,0:0:0:0:
247,340,2486,1,0,0:0:0:0:
256,356,2581,2,0,B|287:297|287:297|251:210,1,144.750005521775,0|2,0:0|3:0,0:0:0:0:
191,144,3155,1,0,2:0:0:0:
183,129,3251,1,0,3:0:0:0:
174,113,3346,2,0,B|148:157|148:157|169:227,1,108.562504141331,0|0,0:0|3:0,0:0:0:0:
257,224,3728,6,0,L|333:215,2,48.2500018405915,2|2|2,0:0|0:0|0:0,0:0:0:0:
243,291,4110,2,0,L|167:282,2,48.2500018405915,2|2|2,0:0|0:0|0:0,0:0:0:0:
256,356,4492,2,0,L|332:347,2,48.2500018405915,2|2|2,0:0|0:0|0:0,0:0:0:0:
340,289,4874,6,0,B|440:262|388:337|501:300,1,144.750005521775,12|0,1:0|0:0,0:0:0:0:
465,210,5448,1,0,0:0:0:0:
473,199,5543,1,0,0:0:0:0:
480,188,5639,5,2,1:0:0:0:
393,224,5830,1,0,0:0:0:0:
416,97,6021,1,2,1:0:0:0:
272,154,6212,1,0,0:0:0:0:
188,42,6403,6,0,L|281:50,1,72.3750027608873,2|0,1:0|0:0,0:0:0:0:
116,124,6785,2,0,L|204:106,1,72.3750027608873,2|0,1:0|0:0,0:0:0:0:
27,109,7167,6,0,P|-7:179|39:271,1,144.750005521775,8|0,1:0|0:0,0:0:0:0:
98,256,7454,1,0,0:0:0:0:
98,256,7550,6,0,P|131:193|116:124,1,144.749995582581,4|0,1:0|0:0,0:0:0:0:
80,57,8696,2,0,L|144:45,1,57.8999982330323,4|0,0:0|0:0,0:0:0:0:
185,108,9269,1,0,0:0:0:0:
209,33,9460,6,0,L|301:17,1,72.3750027608873,4|0,0:0|0:0,0:0:0:0:
366,55,9747,1,0,0:0:0:0:
366,55,9843,2,0,P|379:97|353:147,1,72.3750027608873,4|0,0:0|0:0,0:0:0:0:
267,180,10225,6,0,P|349:161|456:166,1,144.750005521775,8|0,0:1|0:0,0:0:0:0:
465,214,10511,1,0,0:0:0:0:
465,214,10607,6,0,P|373:209|256:175,1,202.649993815613,4|0,1:0|0:0,0:0:0:0:
197,211,12136,2,0,L|205:292,1,72.3750027608873,2|0,1:0|0:0,0:0:0:0:
119,190,12518,2,0,P|122:237|128:283,1,72.3750027608873,2|0,1:0|0:0,0:0:0:0:
48,168,12900,2,0,P|46:226|63:263,1,72.3750027608873,2|0,1:0|0:0,0:0:0:0:
270,275,13282,6,0,P|273:219|254:144,1,96.5,8|0,1:0|0:0,0:0:0:0:
266,179,13664,6,0,P|263:235|273:282,1,96.9824954125101,2|0,0:0|0:0,0:0:0:0:
209,352,14046,6,0,L|367:343,1,144.75,12|0,1:0|0:0,0:0:0:0:
375,338,14429,2,0,P|394:273|376:230,1,96.5,8|0,0:0|0:0,0:0:0:0:
298,53,14811,6,0,B|304:91|304:91|314:104|314:104|324:163,1,96.5,6|0,0:0|0:0,0:0:0:0:
348,166,15097,2,0,B|342:128|342:128|332:115|332:115|322:56,1,96.5,4|0,0:0|0:0,0:0:0:0:
325,36,15384,1,4,0:0:0:0:
237,26,15480,1,0,0:0:0:0:
183,95,15575,6,0,P|254:74|340:76,1,144.75,8|0,1:0|0:0,0:0:0:0:
361,70,15957,2,0,L|346:177,1,96.5,8|0,0:0|0:0,0:0:0:0:
411,200,16244,1,0,0:0:0:0:
365,254,16339,2,0,P|298:229|241:230,1,96.5,2|0,0:0|0:0,0:0:0:0:
204,244,16626,1,0,0:0:0:0:
204,244,16722,6,0,B|155:255|155:255|104:244|104:244|29:261,1,144.75,4|0,1:0|0:0,0:0:0:0:
71,348,17104,6,0,P|61:290|63:248,1,96.5,8|0,0:0|0:0,0:0:0:0:
112,42,17486,2,0,P|132:113|163:151,1,96.5
240,123,17773,1,0,0:0:0:0:
240,123,17868,2,0,L|122:132,1,96.5,8|0,0:0|0:0,0:0:0:0:
126,87,18155,1,0,0:0:0:0:
112,42,18250,2,0,L|230:33,1,96.5,2|0,0:0|0:0,0:0:0:0:
143,130,18632,5,8,0:0:0:0:
130,152,18728,1,0,0:0:0:0:
133,173,18824,1,8,0:0:0:0:
121,191,18919,1,0,0:0:0:0:
119,214,19015,2,0,B|85:185|85:185|56:101,1,96.5
26,267,19397,2,0,B|67:300|67:300|61:359|122:383,1,144.75,8|0,1:0|0:0,0:0:0:0:
244,292,19779,6,0,L|128:307,1,96.5,4|0,1:0|0:0,0:0:0:0:
306,366,20161,2,0,P|334:315|381:288,1,96.5,12|0,0:0|0:0,0:0:0:0:
389,194,20543,2,0,P|416:253|461:293,1,96.5,2|0,0:0|0:0,0:0:0:0:
477,144,20830,1,0,0:0:0:0:
477,144,20925,2,0,P|499:204|496:264,1,96.5,8|0,0:0|0:0,0:0:0:0:
437,275,21212,1,0,0:0:0:0:
437,275,21308,6,0,L|305:263,1,96.5,2|0,0:0|0:0,0:0:0:0:
233,285,21594,1,0,0:0:0:0:
233,285,21690,2,0,L|94:268,1,96.5,8|0,0:0|0:0,0:0:0:0:
6,171,22072,2,0,L|145:188,1,96.5,2|0,0:0|0:0,0:0:0:0:
186,188,22359,1,0,0:0:0:0:
186,188,22454,6,0,P|255:140|181:28,1,217.125008282662,8|0,1:0|0:0,0:0:0:0:
210,33,22836,6,0,P|259:72|329:58,1,96.5,4|4,1:0|0:0,0:0:0:0:
280,173,23218,2,0,P|341:167|382:108,1,96.5,8|4,0:0|0:0,0:0:0:0:
369,45,23505,1,0,0:0:0:0:
291,73,23601,6,0,P|347:82|380:154,1,96.5,2|0,0:0|0:0,0:0:0:0:
371,222,23887,1,0,0:0:0:0:
371,222,23983,2,0,L|492:195,1,96.5,12|0,0:0|0:0,0:0:0:0:
286,303,24365,2,0,L|420:324,1,96.5,12|0,0:0|0:0,0:0:0:0:
254,240,24652,1,0,0:0:0:0:
254,240,24747,6,0,L|318:226,1,48.25,6|0,0:0|0:0,0:0:0:0:
153,313,24938,2,0,L|216:324,1,48.25,12|0,0:0|0:0,0:0:0:0:
115,244,25129,6,0,L|179:230,1,48.25,6|0,0:0|0:0,0:0:0:0:
14,317,25320,2,0,L|77:328,1,48.25,12|0,0:0|0:0,0:0:0:0:
162,233,25511,6,0,P|156:143|170:38,1,144.750005521775,2|0,3:0|0:0,0:0:0:0:
23,15,25894,2,0,P|29:105|15:210,1,144.750005521775,2|0,3:0|0:0,0:0:0:0:
91,202,26180,1,0,0:0:0:0:
162,233,26276,6,0,L|316:216,1,115.799996466065,12|0,1:0|0:0,0:0:0:0:
278,162,26562,1,0,0:0:0:0:
278,162,26658,2,0,P|274:200|283:244,1,57.8999982330323,8|0,0:0|0:0,0:0:0:0:
294,307,26849,2,0,P|304:343|326:381,1,57.8999982330323
475,231,27040,5,2,0:0:0:0:
475,231,27136,2,0,L|348:252,1,115.799996466065
278,162,27422,2,0,L|436:135,1,115.799996466065,8|0,0:0|0:0,0:0:0:0:
465,102,27709,1,0,0:0:0:0:
396,60,27804,5,2,0:0:0:0:
396,60,27900,2,0,P|349:68|322:77,1,57.8999982330323
100,111,28091,1,0,0:0:0:0:
100,111,28187,2,0,P|167:140|237:149,1,115.799996466065,8|0,0:0|0:0,0:0:0:0:
176,314,28569,5,2,0:0:0:0:
264,348,28664,2,0,P|257:305|232:205,1,115.799996466065
101,203,28951,1,8,0:0:0:0:
167,239,29046,1,0,0:0:0:0:
241,235,29142,1,0,0:0:0:0:
306,194,29238,1,0,0:0:0:0:
387,248,29333,6,0,L|365:78,1,115.799996466065,6|0,0:0|0:0,0:0:0:0:
435,21,29620,2,0,L|457:191,1,115.799996466065,4|0,0:0|0:0,0:0:0:0:
387,248,29906,2,0,P|365:167|382:112,1,119.659995252747,12|0,0:0|0:0,0:0:0:0:
435,21,30193,2,0,P|457:102|440:157,1,119.659995252747,4|0,0:0|0:0,0:0:0:0:
371,133,30480,2,0,P|268:117|210:116,1,115.799996466065,6|0,0:0|0:0,0:0:0:0:
187,103,30766,1,0,0:0:0:0:
187,103,30862,5,2,0:0:0:0:
143,161,30957,1,2,0:0:0:0:
191,219,31053,1,2,0:0:0:0:
258,190,31148,1,2,0:0:0:0:
257,116,31244,1,2,0:0:0:0:
17,271,31435,6,0,B|65:265|121:237|121:237|79:278|60:336,1,217.125008282662,8|0,1:0|0:0,0:0:0:0:
269,275,32008,2,0,B|229:323|237:373|237:373|288:366|331:318,1,217.125008282662,8|0,3:0|0:0,0:0:0:0:
351,208,32390,6,0,P|373:242|445:269,1,115.799996466065,12|0,1:0|0:0,0:0:0:0:
351,208,32677,1,0,0:0:0:0:
351,208,32773,2,0,P|311:214|242:178,1,115.799996466065,8|0,0:0|0:0,0:0:0:0:
163,37,33154,1,2,0:0:0:0:
60,74,33250,2,0,P|115:71|168:29,1,115.799996466065
308,70,33537,2,0,P|250:73|205:107,1,115.799996466065,8|0,0:0|0:0,0:0:0:0:
161,208,33919,6,0,P|139:242|67:269,1,115.799996466065,2|0,0:0|0:0,0:0:0:0:
161,208,34206,1,0,0:0:0:0:
161,208,34302,2,0,P|200:214|269:178,1,115.799996466065,8|0,0:0|0:0,0:0:0:0:
349,37,34683,1,2,0:0:0:0:
452,74,34779,2,0,P|397:71|344:29,1,115.799996466065
204,70,35066,2,0,P|261:73|306:107,1,115.799996466065,8|0,0:0|0:0,0:0:0:0:
483,162,35448,6,0,L|470:66,1,57.8999982330323,6|0,0:0|0:0,0:0:0:0:
452,74,35639,1,0,0:0:0:0:
400,217,35830,2,0,L|387:121,1,57.8999982330323,12|0,0:0|0:0,0:0:0:0:
370,129,36021,1,0,0:0:0:0:
311,286,36212,2,0,L|298:190,1,57.8999982330323,6|0,0:0|0:0,0:0:0:0:
279,196,36403,2,0,L|292:292,1,57.8999982330323
220,363,36594,2,0,L|207:267,1,57.8999982330323,12|0,0:0|0:0,0:0:0:0:
190,275,36785,1,0,0:0:0:0:
57,93,36976,5,2,0:0:0:0:
78,96,37072,1,2,0:0:0:0:
99,107,37167,1,2,0:0:0:0:
114,124,37263,1,2,0:0:0:0:
123,146,37359,1,8,0:0:0:0:
37,93,37454,1,2,0:0:0:0:
114,35,37550,6,0,B|83:53|89:99|89:99|92:146|38:166,1,144.750005521775,8|0,1:0|0:0,0:0:0:0:
79,296,38123,6,0,P|116:270|144:266,1,72.375,2|0,3:0|0:0,0:0:0:0:
142,266,38505,2,0,L|139:291,5,16.0833333333333,4|4|4|4|4|4,0:0|0:0|0:0|0:0|0:0|0:0,0:0:0:0:
142,266,38887,2,0,P|181:281|214:281,1,72.375,2|0,3:0|0:0,0:0:0:0:
211,281,39269,2,0,P|248:255|276:251,1,72.375,2|0,3:0|0:0,0:0:0:0:
274,251,39652,6,0,P|312:265|345:265,1,72.375,2|0,3:0|0:0,0:0:0:0:
343,266,39843,2,0,P|380:240|408:236,1,72.375,2|0,3:0|0:0,0:0:0:0:
406,236,40034,6,0,P|411:150|401:102,1,115.799996466065,12|0,1:0|0:0,0:0:0:0:
376,61,40320,1,0,0:0:0:0:
309,66,40416,2,0,L|186:69,1,115.799996466065,8|0,0:0|0:0,0:0:0:0:
74,130,40798,2,0,B|51:94|51:94|69:12,2,115.799996466065,2|0|8,0:0|0:0|0:0,0:0:0:0:
173,164,41371,1,0,0:0:0:0:
115,252,41562,6,0,P|89:251|61:261,2,57.8999982330323,2|0|0,0:0|0:0|0:0,0:0:0:0:
198,260,41849,1,0,0:0:0:0:
156,307,41945,2,0,P|90:329|33:328,1,115.799996466065,8|0,0:0|0:0,0:0:0:0:
198,260,42327,2,0,B|232:245|232:245|365:252,1,115.799996466065,2|0,0:0|0:0,0:0:0:0:
457,345,42709,2,0,B|423:360|423:360|290:353,1,115.799996466065,8|0,0:0|0:0,0:0:0:0:
310,249,43091,5,2,0:0:0:0:
375,137,43282,1,0,0:0:0:0:
438,253,43473,1,8,0:0:0:0:
296,175,43664,2,0,P|256:165|190:157,1,57.8999982330323
106,134,43855,6,0,P|146:144|212:152,2,57.8999982330323
258,60,44238,2,0,B|227:88|227:88|246:204,1,115.799996466065,8|0,0:0|0:0,0:0:0:0:
153,252,44620,6,0,P|76:233|16:236,2,115.799996466065,2|2|8,0:0|3:0|0:0,0:0:0:0:
256,286,45193,2,0,P|248:325|242:351,1,57.8999982330323,2|0,3:0|0:0,0:0:0:0:
317,367,45384,5,2,0:0:0:0:
324,349,45480,1,0,0:0:0:0:
329,329,45575,1,4,0:0:0:0:
328,309,45671,1,0,0:0:0:0:
317,367,45766,5,8,0:0:0:0:
341,328,45862,1,0,0:0:0:0:
347,283,45957,1,4,0:0:0:0:
339,234,46053,1,0,0:0:0:0:
274,184,46148,6,0,B|302:204|302:204|419:220,2,115.799996466065,12|0|8,1:0|0:0|0:0,0:0:0:0:
246,11,46722,2,0,L|256:92,1,57.8999982330323
159,141,46913,6,0,P|136:148|95:149,2,57.8999982330323,2|0|0,0:0|0:0|0:0,0:0:0:0:
182,78,47199,1,0,0:0:0:0:
253,68,47295,1,8,0:0:0:0:
383,50,47486,2,0,L|371:133,1,57.8999982330323
456,127,47677,6,0,P|446:225|446:287,1,115.799996466065,2|0,0:0|0:0,0:0:0:0:
360,379,48059,2,0,P|350:313|353:237,1,115.799996466065,8|0,0:0|0:0,0:0:0:0:
157,291,48441,2,0,P|236:271|292:268,1,115.799996466065,2|0,0:0|0:0,0:0:0:0:
165,368,48824,2,0,P|68:352|15:350,1,115.799996466065,8|0,0:0|0:0,0:0:0:0:
43,184,49206,6,0,B|12:219|12:219|28:331,2,115.799996466065,2|0|8,0:0|0:0|0:0,0:0:0:0:
36,112,49779,6,0,B|5:77|5:77|21:-35,1,115.799996466065,0|2,0:0|0:0,0:0:0:0:
86,34,50066,1,0,0:0:0:0:
154,57,50161,1,0,0:0:0:0:
210,215,50352,2,0,L|267:219,1,57.8999982330323,8|0,0:0|0:0,0:0:0:0:
179,142,50543,2,0,L|236:147,1,57.8999982330323
350,223,50734,6,0,B|366:168|366:168|346:71,1,115.799996466065,2|8,0:0|0:0,0:0:0:0:
216,45,51117,1,8,0:0:0:0:
238,42,51213,1,8,0:0:0:0:
259,39,51308,1,2,0:0:0:0:
72,74,51499,6,0,B|52:128|52:128|81:227,1,115.799996466065,12|0,1:0|0:0,0:0:0:0:
8,211,51785,1,0,0:0:0:0:
8,211,51881,2,0,B|50:211|50:211|78:233|78:233|153:236,1,115.799996466065,12|0,1:0|0:0,0:0:0:0:
170,177,52167,1,0,0:0:0:0:
170,177,52263,6,0,P|161:239|180:330,1,115.799996466065,12|0,1:0|0:0,0:0:0:0:
216,348,52550,1,0,0:0:0:0:
283,319,52645,2,0,L|435:309,1,115.799996466065,8|0,0:0|0:0,0:0:0:0:
484,246,53027,6,0,B|506:212|506:212|496:69,1,173.699994699097,2|0,0:0|0:0,0:0:0:0:
390,48,53410,2,0,P|440:77|501:79,1,115.799996466065,8|0,0:0|0:0,0:0:0:0:
271,133,53792,6,0,P|298:123|331:118,2,57.8999982330323,2|0|0,0:0|0:0|0:0,0:0:0:0:
220,187,54078,1,0,0:0:0:0:
261,247,54174,2,0,P|315:233|392:180,1,115.799996466065,8|0,0:0|0:0,0:0:0:0:
327,119,54556,6,0,B|305:84|305:84|235:57,1,115.799996466065,2|0,0:0|0:0,0:0:0:0:
192,229,54938,2,0,B|170:263|170:263|100:290,1,115.799996466065,8|0,0:0|0:0,0:0:0:0:
63,195,55320,5,2,0:0:0:0:
120,358,55511,2,0,B|190:331|190:331|234:336,2,115.799996466065,0|8|0,0:0|0:0|0:0,0:0:0:0:
303,277,56085,2,0,B|329:298|329:298|378:314|455:268,1,115.799996466065,2|0,0:0|0:0,0:0:0:0:
475,225,56371,1,0,0:0:0:0:
399,175,56467,2,0,L|413:335,1,115.799996466065,8|0,0:0|0:0,0:0:0:0:
436,112,56849,6,0,P|392:100|326:157,1,115.799996466065,2|2,0:0|3:0,0:0:0:0:
196,64,57231,2,0,P|152:99|97:89,1,115.799996466065,8|2,0:0|3:0,0:0:0:0:
54,201,57613,5,2,0:0:0:0:
104,244,57709,1,0,0:0:0:0:
172,236,57804,1,4,0:0:0:0:
228,275,57900,1,0,0:0:0:0:
294,263,57996,2,0,L|306:351,1,57.8999982330323,8|0,0:0|0:0,0:0:0:0:
336,179,58187,1,4,0:0:0:0:
336,179,58378,6,0,P|407:165|484:124,1,115.799996466065,12|0,1:0|0:0,0:0:0:0:
298,42,58760,2,0,P|227:56|150:97,1,115.799996466065,8|0,0:0|0:0,0:0:0:0:
88,157,59142,2,0,L|81:92,2,57.8999982330323,2|0|0,0:0|0:0|0:0,0:0:0:0:
20,189,59429,1,0,0:0:0:0:
45,255,59524,2,0,P|107:221|172:205,1,115.799996466065,8|0,0:0|0:0,0:0:0:0:
264,363,59906,6,0,P|244:278|211:226,1,115.799996466065,2|0,0:0|0:0,0:0:0:0:
286,82,60288,2,0,P|300:188|326:225,1,115.799996466065,8|0,0:0|0:0,0:0:0:0:
363,304,60671,2,0,P|404:240|457:198,1,115.799996466065,2|0,0:0|0:0,0:0:0:0:
419,88,61053,2,0,P|471:146|519:173,1,115.799996466065,8|0,0:0|0:0,0:0:0:0:
328,10,61435,6,0,B|255:6|255:6|189:33,1,115.799996466065,2|0,0:0|0:0,0:0:0:0:
235,71,61722,1,0,0:0:0:0:
259,116,61817,2,0,B|219:132|219:132|146:128,1,115.799996466065,8|0,0:0|0:0,0:0:0:0:
36,242,62199,2,0,P|71:239|105:216,1,57.8999982330323,2|0,0:0|0:0,0:0:0:0:
151,198,62390,2,0,P|215:223|241:218,1,57.8999982330323
288,255,62581,2,0,L|271:396,1,115.799996466065,8|0,0:0|0:0,0:0:0:0:
350,344,62868,1,0,0:0:0:0:
423,315,62964,6,0,L|430:235,1,57.8999982330323,8|0,0:0|0:0,0:0:0:0:
348,155,63155,2,0,L|411:196,1,57.8999982330323,2|0,0:0|0:0,0:0:0:0:
274,149,63346,1,8,0:0:0:0:
241,156,63441,1,8,0:0:0:0:
211,163,63537,1,2,0:0:0:0:
151,357,63728,6,0,B|102:300|117:247|117:247|157:184,1,173.699994699097,8|0,1:0|0:0,0:0:0:0:
214,66,64110,2,0,B|240:87|240:87|242:135|178:199,1,115.799996466065,8|0,1:0|0:0,0:0:0:0:
138,93,64397,1,0,0:0:0:0:
154,22,64492,5,8,3:0:0:0:
287,124,65066,2,0,P|310:143|339:153,1,36.1875013804436,2|0,0:0|0:0,0:0:0:0:
371,118,65257,6,0,B|365:155|365:155|381:219,1,72.3750027608873,2|0,0:0|0:0,0:0:0:0:
441,249,65639,2,0,B|449:282|449:282|443:319,1,72.3750027608873,2|0,0:0|0:0,0:0:0:0:
391,369,65925,1,0,0:0:0:0:
391,369,66021,6,0,L|293:365,1,72.3750027608873,0|0,1:0|0:0,0:0:0:0:
246,278,66403,2,0,L|167:273,1,72.3750027608873
23,358,66785,2,0,B|76:359|76:359|122:337|122:337|185:341,1,144.750005521775,2|2,0:0|0:0,0:0:0:0:
124,326,67263,1,0,0:0:0:0:
103,290,67359,1,2,0:0:0:0:
103,249,67454,1,0,0:0:0:0:
123,215,67550,1,4,0:0:0:0:
123,215,68123,6,0,L|59:232,1,36.1875013804436,2|0,0:0|0:0,0:0:0:0:
122,143,68314,2,0,P|162:151|192:206,1,72.3750027608873,2|0,0:0|0:0,0:0:0:0:
264,142,68696,2,0,P|290:166|325:171,1,72.3750027608873,2|0,0:0|0:0,0:0:0:0:
320,96,68983,1,0,0:0:0:0:
320,96,69078,6,0,L|258:146,1,72.3750027608873,0|0,1:0|0:0,0:0:0:0:
261,231,69460,2,0,L|334:278,1,72.3750027608873
320,96,69843,2,0,L|197:193,1,144.750005521775,0|0,1:0|1:0,0:0:0:0:
154,246,70416,1,0,1:0:0:0:
207,305,70607,6,0,B|298:293|298:293|249:334,1,144.75,12|0,1:0|0:0,0:0:0:0:
141,363,70989,2,0,B|71:374|71:374|115:336,1,96.5,8|0,0:0|0:0,0:0:0:0:
283,198,71371,2,0,L|299:305,1,96.5,2|0,0:0|0:0,0:0:0:0:
420,348,71753,2,0,L|380:239,1,96.5,8|0,0:0|0:0,0:0:0:0:
358,175,72040,1,0,0:0:0:0:
283,198,72136,6,0,L|161:242,1,96.5,2|0,0:0|0:0,0:0:0:0:
295,12,72518,2,0,L|328:110,1,96.5,8|0,0:0|0:0,0:0:0:0:
197,117,72900,2,0,B|83:116|152:42|-4:47,1,193,2|8,0:0|0:0,0:0:0:0:
11,148,73473,1,8,0:0:0:0:
5,261,73664,6,0,P|26:325|30:394,1,96.5,6|0,0:0|0:0,0:0:0:0:
58,325,73951,1,0,0:0:0:0:
84,295,74046,2,0,P|109:345|143:388,1,96.5,12|0,0:0|0:0,0:0:0:0:
179,353,74333,1,0,0:0:0:0:
220,324,74429,2,0,P|305:328|399:312,1,144.75,6|0,0:0|0:0,0:0:0:0:
407,367,74811,2,0,P|404:312|414:256,1,96.5,12|0,0:0|0:0,0:0:0:0:
485,58,75193,5,12,1:0:0:0:
483,248,75384,2,0,L|478:168,1,48.25,8|0,0:0|0:0,0:0:0:0:
418,147,75575,1,2,0:0:0:0:
351,239,75766,2,0,L|346:159,1,48.25,8|0,0:0|0:0,0:0:0:0:
286,138,75957,1,4,1:0:0:0:
223,218,76148,2,0,L|218:138,1,48.25,2|0,0:0|0:0,0:0:0:0:
158,117,76339,1,10,0:0:0:0:
126,156,76435,1,0,0:0:0:0:
95,193,76531,2,0,L|90:113,1,48.25,10|10,0:0|0:0,0:0:0:0:
91,144,77486,5,8,0:0:0:0:
93,167,77581,1,8,0:0:0:0:
95,191,77677,1,8,0:0:0:0:
96,215,77773,1,8,0:0:0:0:
97,240,77868,2,8,L|64:289,1,48.25
154,294,78059,2,8,L|162:348,1,48.25
210,236,78250,6,0,P|275:290|371:307,1,144.750005521775,12|0,1:0|0:0,0:0:0:0:
345,290,78505,1,0,0:0:0:0:
357,271,78569,1,0,0:0:0:0:
368,253,78632,2,0,P|303:199|207:182,1,144.750005521775,8|0,0:0|0:0,0:0:0:0:
84,169,79015,6,0,P|168:224|250:238,1,144.750005521775
14,366,79397,2,0,P|115:301|177:287,1,144.750005521775,8|0,0:0|0:0,0:0:0:0:
210,236,79779,6,0,P|275:290|371:307,1,144.750005521775,2|0,0:0|0:0,0:0:0:0:
346,288,80034,1,0,0:0:0:0:
358,269,80098,1,0,0:0:0:0:
369,251,80161,2,0,P|304:197|208:180,1,144.750005521775,8|0,0:0|0:0,0:0:0:0:
84,169,80543,6,0,P|168:224|250:238,1,144.750005521775
14,366,80926,2,0,P|115:301|177:287,1,144.750005521775,8|0,0:0|0:0,0:0:0:0:
206,332,81212,1,0,0:0:0:0:
276,369,81308,6,0,L|451:336,1,144.750005521775,2|0,0:0|0:0,0:0:0:0:
441,313,81562,1,0,0:0:0:0:
459,278,81626,1,0,0:0:0:0:
476,248,81690,2,0,L|279:282,1,144.750005521775,8|0,0:0|0:0,0:0:0:0:
233,41,82072,2,0,B|287:53|308:83|308:83|239:110|250:207,1,217.125008282662,2|0,0:0|0:0,0:0:0:0:
267,272,82454,1,8,0:0:0:0:
411,243,82645,1,0,0:0:0:0:
267,272,82836,5,2,0:0:0:0:
151,195,83027,2,0,L|184:278,1,72.3750027608873,8|0,0:0|0:0,0:0:0:0:
211,334,83218,1,2,0:0:0:0:
162,352,83314,1,0,0:0:0:0:
127,312,83410,1,8,0:0:0:0:
239,99,83601,5,2,0:0:0:0:
278,166,83696,1,0,0:0:0:0:
226,230,83792,1,8,0:0:0:0:
151,195,83887,1,0,0:0:0:0:
159,114,83983,6,0,L|91:57,1,72.3750027608873,8|0,0:0|0:0,0:0:0:0:
278,166,84174,2,8,L|411:158,1,72.3750027608873
477,114,84365,6,0,B|382:125|382:125|331:182,1,144.750005521775,12|0,1:0|0:0,0:0:0:0:
323,204,84620,1,0,0:0:0:0:
327,252,84683,1,0,0:0:0:0:
360,286,84747,2,0,B|396:245|375:180|375:180|317:138,1,144.750005521775,8|0,0:0|0:0,0:0:0:0:
228,340,85129,2,0,B|294:331|294:331|321:378|390:366,1,144.750005521775,2|0,0:0|0:0,0:0:0:0:
442,311,85511,1,8,0:0:0:0:
304,230,85703,1,0,0:0:0:0:
477,114,85894,6,0,B|382:125|382:125|331:182,1,144.750005521775,2|0,0:0|0:0,0:0:0:0:
323,204,86149,1,0,0:0:0:0:
327,252,86212,1,0,0:0:0:0:
360,286,86276,2,0,B|396:245|375:180|375:180|317:138,1,144.750005521775,8|0,0:0|0:0,0:0:0:0:
228,340,86658,2,0,B|294:331|294:331|321:378|390:366,1,144.750005521775,2|0,0:0|0:0,0:0:0:0:
432,296,87040,2,0,L|264:209,1,144.75,8|0,0:0|0:0,0:0:0:0:
263,147,87422,6,0,P|290:250|280:323,1,144.750005521775,2|0,0:0|0:0,0:0:0:0:
145,367,87804,2,0,P|181:270|191:190,1,144.750005521775,8|0,0:0|0:0,0:0:0:0:
59,92,88187,2,0,P|87:189|91:270,1,144.750005521775,2|0,0:0|0:0,0:0:0:0:
232,62,88569,1,8,0:0:0:0:
222,65,88632,1,0,0:0:0:0:
212,65,88696,1,0,0:0:0:0:
204,63,88760,1,0,0:0:0:0:
188,229,88951,6,0,P|228:203|295:218,1,72.3750027608873,2|0,0:0|0:0,0:0:0:0:
340,275,89142,1,8,0:0:0:0:
335,292,89206,1,0,0:0:0:0:
331,307,89269,1,0,0:0:0:0:
326,324,89333,1,2,0:0:0:0:
454,315,89524,6,0,P|451:350|465:384,1,72.3750027608873,8|0,0:0|0:0,0:0:0:0:
422,174,89715,1,2,0:0:0:0:
404,190,89779,1,0,0:0:0:0:
383,195,89843,1,0,0:0:0:0:
360,192,89906,1,8,0:0:0:0:
323,22,90097,6,0,P|350:48|376:105,1,72.3750027608873,8|0,0:0|0:0,0:0:0:0:
196,87,90288,2,0,P|246:72|305:82,1,72.3750027608873,8|0,0:0|0:0,0:0:0:0:
201,292,90480,6,0,B|179:273|179:273|151:103,1,144.750005521775,12|2,1:0|3:0,0:0:0:0:
142,136,90734,1,0,0:0:0:0:
121,112,90798,1,0,0:0:0:0:
103,88,90862,2,0,B|81:107|81:107|53:277,1,144.750005521775,8|2,0:0|3:0,0:0:0:0:
73,337,91244,2,0,P|117:371|218:381,1,144.750005521775,2|2,0:0|3:0,0:0:0:0:
253,340,91531,1,0,0:0:0:0:
321,337,91626,2,0,P|392:343|451:384,1,144.750005521775,8|2,0:0|3:0,0:0:0:0:
341,83,92008,6,0,B|363:102|363:102|391:272,1,144.750005521775,2|2,0:0|3:0,0:0:0:0:
400,239,92262,1,0,0:0:0:0:
421,263,92326,1,0,0:0:0:0:
439,287,92390,2,0,B|461:268|461:268|489:98,1,144.750005521775,8|2,0:0|3:0,0:0:0:0:
422,47,92772,2,0,P|378:13|277:3,1,144.750005521775,2|2,0:0|3:0,0:0:0:0:
265,68,93059,1,0,0:0:0:0:
195,94,93154,2,0,P|123:87|64:46,1,144.750005521775,8|2,0:0|0:3,0:0:0:0:
34,252,93537,6,0,P|53:173|16:74,1,144.750005521775,2|2,0:0|3:0,0:0:0:0:
155,205,93919,1,8,0:0:0:0:
160,217,93983,1,0,0:0:0:0:
168,227,94046,1,0,0:0:0:0:
177,235,94110,1,2,3:0:0:0:
305,323,94301,6,0,P|254:315|140:346,1,144.750005521775,2|2,0:0|3:0,0:0:0:0:
163,333,94588,1,0,0:0:0:0:
169,339,94683,2,0,P|255:309|317:238,1,144.750005521775,8|2,0:0|3:0,0:0:0:0:
295,67,95066,6,0,P|307:118|302:177,1,72.3750027608873,2|0,0:0|0:0,0:0:0:0:
235,119,95257,1,12,0:0:0:0:
160,100,95352,1,0,0:0:0:0:
86,77,95448,2,0,P|75:128|100:266,1,144.750005521775,2|12,0:0|0:0,0:0:0:0:
96,339,95830,5,2,0:0:0:0:
112,326,95925,1,0,0:0:0:0:
124,308,96021,1,12,0:0:0:0:
131,288,96117,1,0,0:0:0:0:
79,292,96212,5,12,0:0:0:0:
112,326,96308,1,0,0:0:0:0:
154,352,96403,1,12,0:0:0:0:
195,368,96499,1,0,0:0:0:0:
240,377,96594,6,0,B|344:358|344:358|313:330,1,144.750005521775,12|2,1:0|3:0,0:0:0:0:
305,308,96849,1,0,0:0:0:0:
331,316,96913,1,0,0:0:0:0:
358,313,96976,2,0,B|314:222|314:222|324:158,1,144.750005521775,8|2,0:0|3:0,0:0:0:0:
178,187,97359,2,0,P|227:195|346:166,1,144.750005521775,2|2,0:0|3:0,0:0:0:0:
351,113,97645,1,0,0:0:0:0:
302,61,97741,2,0,P|253:53|134:82,1,144.750005521775,8|2,0:0|3:0,0:0:0:0:
272,377,98123,6,0,B|168:358|168:358|199:330,1,144.750005521775,2|2,0:0|3:0,0:0:0:0:
207,308,98378,1,0,0:0:0:0:
181,316,98442,1,0,0:0:0:0:
154,313,98505,2,0,B|198:222|198:222|188:158,1,144.750005521775,8|2,0:0|3:0,0:0:0:0:
334,187,98888,2,0,P|285:195|166:166,1,144.750005521775,2|2,0:0|3:0,0:0:0:0:
161,113,99174,1,0,0:0:0:0:
208,55,99270,2,0,P|257:47|376:76,1,144.750005521775,8|2,0:0|3:0,0:0:0:0:
367,272,99652,5,2,0:0:0:0:
295,321,99843,2,0,P|246:329|127:300,2,144.750005521775,2|8|2,3:0|0:0|3:0,0:0:0:0:
461,279,100416,6,0,P|441:232|411:188,1,72.3750027608873,2|0,0:0|0:0,0:0:0:0:
336,168,100607,2,0,P|291:150|220:162,1,72.3750027608873,2|0,3:0|0:0,0:0:0:0:
173,161,100798,2,0,P|108:183|41:273,1,144.750005521775,8|2,0:0|3:0,0:0:0:0:
191,353,101180,5,2,0:0:0:0:
173,161,101371,2,0,L|162:202,3,36.1875013804436,8|8|8|8,0:0|0:0|0:0|0:0,0:0:0:0:
163,141,101562,2,0,P|178:195|243:275,1,144.750005521775,8|8,0:0|1:0,0:0:0:0:
397,239,101945,1,2,0:0:0:0:
231,266,102136,1,8,0:0:0:0:
306,45,102327,5,8,3:0:0:0:
370,91,102422,1,0,1:0:0:0:
274,161,102518,1,2,1:0:0:0:
347,160,102613,1,2,1:0:0:0:
244,94,102709,6,0,B|165:93|165:93|108:151,1,144.750005521775,12|0,1:0|0:0,0:0:0:0:
73,230,103282,1,0,0:0:0:0:
77,247,103378,1,0,0:0:0:0:
81,263,103473,2,0,B|160:262|160:262|217:320,1,144.750005521775,4|0,0:0|0:0,0:0:0:0:
321,349,104046,1,0,0:0:0:0:
327,331,104142,1,0,0:0:0:0:
333,313,104238,5,2,3:0:0:0:
333,313,104620,2,0,P|358:324|390:322,2,48.2500018405915,2|2|2,0:0|0:0|0:0,0:0:0:0:
328,234,105002,2,0,P|357:221|378:191,2,48.2500018405915,2|2|2,0:0|0:0|0:0,0:0:0:0:
275,175,105384,2,0,P|289:149|289:118,2,48.2500018405915,2|2|2,0:0|0:0|0:0,0:0:0:0:
181,178,105766,6,0,B|111:193|111:193|22:171,1,144.750005521775,8|0,1:0|0:0,0:0:0:0:
31,52,106339,1,0,0:0:0:0:
35,72,106435,1,0,0:0:0:0:
39,92,106531,2,0,L|141:83,1,72.3750027608873,4|0,0:0|0:0,0:0:0:0:
195,78,106913,1,4,0:0:0:0:
283,72,107104,1,0,0:0:0:0:
371,65,107295,6,0,P|392:97|395:173,1,96.5,4|0,0:0|0:0,0:0:0:0:
485,196,107695,2,0,P|464:228|461:304,1,96.5,4|0,0:0|0:0,0:0:0:0:
395,357,108095,6,0,L|228:349,1,144.75,2|0,0:0|0:0,0:0:0:0:
188,324,108523,6,0,P|128:336|2:295,1,193,12|0,1:0|0:0,0:0:0:0:
69,249,109557,1,0,0:0:0:0:
34,184,109764,1,2,0:3:0:0:
34,184,110178,5,0,0:0:0:0:
102,138,110392,1,0,0:0:0:0:
169,187,110606,2,0,L|270:168,1,96.5,4|0,0:0|0:0,0:0:0:0:
333,113,111050,2,0,L|355:228,1,96.5,2|0,3:0|0:0,0:0:0:0:
427,306,111511,6,0,L|343:318,1,48.25,2|0,0:0|0:0,0:0:0:0:
298,330,111751,1,8,0:0:0:0:
298,330,111871,1,8,0:0:0:0:
298,330,111991,6,0,B|283:290|283:191|284:122|333:51|333:51|348:83|347:132|322:216|306:242|250:244|229:312|229:312|230:238|181:222|152:116|204:37|204:37|218:83|224:136|217:189|193:266|148:307,1,1157.99996466065,12|0,1:0|0:0,0:0:0:0:
