osu file format v14

[General]
AudioFilename: audio.mp3
AudioLeadIn: 0
PreviewTime: 957
Countdown: 1
SampleSet: Normal
StackLeniency: 0.2
Mode: 0
LetterboxInBreaks: 0
WidescreenStoryboard: 0

[Editor]
Bookmarks: 1053,14046,26276,40034,52263,64492,78250,90480,102709,111991
DistanceSpacing: 3.2
BeatDivisor: 8
GridSize: 8
TimelineZoom: 4.899998

[Metadata]
Title:AsiaN distractive
TitleUnicode:AsiaN distractive
Artist:Nekomata Gekidan
ArtistUnicode:猫叉劇団
Creator:Kaifin
Version:Transcend
Source:beatmania IIDX 24 SINOBUZ
Tags:Pending cup #5 Garden ailv Xilver Xilver15 melloe Elsa Valentine xLolicore- z1085684963
BeatmapID:1412281
BeatmapSetID:667446

[Difficulty]
HPDrainRate:6
CircleSize:4
OverallDifficulty:9.5
ApproachRate:9.8
SliderMultiplier:2.4
SliderTickRate:1

[Events]
//Background and Video events
0,0,"meguminwallpaper.png",0,0
//Break Periods
2,2017,3155
2,5074,6594
2,7750,9652
2,102909,104046
2,105966,107495
2,108708,110828
//Storyboard Layer 0 (Background)
//Storyboard Layer 1 (Fail)
//Storyboard Layer 2 (Pass)
//Storyboard Layer 3 (Foreground)
//Storyboard Sound Samples

[TimingPoints]
289,382.165605095541,4,1,1,50,1,0
1053,-100,4,3,1,50,0,0
1626,-100,4,3,1,70,0,0
1817,-100,4,3,1,70,0,0
11753,-100,4,3,1,5,0,0
11945,-100,4,2,1,70,0,0
12709,-66.6666666666667,4,2,1,70,0,0
13282,-50,4,3,1,70,0,0
14046,-100,4,3,1,70,0,0
15575,-66.6666666666667,4,3,1,70,0,0
16722,-66.6666666666667,4,3,1,70,0,0
19779,-100,4,3,1,70,0,0
20161,-66.6666666666667,4,3,1,70,0,0
21117,-100,4,3,1,70,0,0
24747,-66.6666666666667,4,3,1,70,0,0
25511,-25,4,3,1,70,0,0
25703,-400,4,3,1,70,0,0
25894,-25,4,3,1,70,0,0
26085,-400,4,3,1,70,0,0
26562,-1000,4,3,1,70,0,0
26610,-1000,4,3,1,15,0,0
26658,-1000,4,3,1,70,0,0
27183,-1000,4,3,1,15,0,0
27231,-400,4,3,1,70,0,0
28139,-400,4,3,1,15,0,0
28187,-400,4,3,1,70,0,0
28712,-400,4,3,1,15,0,0
28760,-400,4,3,1,70,0,0
28951,-200,4,3,1,70,0,0
29333,-400,4,3,1,70,0,0
29667,-400,4,3,1,15,0,0
29715,-400,4,3,1,70,0,0
30241,-400,4,3,1,15,0,0
30288,-400,4,3,1,70,0,0
32008,-100,4,3,1,70,0,0
32677,-400,4,3,1,70,0,0
32725,-400,4,3,1,15,0,0
32773,-400,4,3,1,70,0,0
33298,-400,4,3,1,15,0,0
33346,-400,4,3,1,70,0,0
34253,-400,4,3,1,15,0,0
34301,-400,4,3,1,70,0,0
34827,-400,4,3,1,15,0,0
34874,-400,4,3,1,70,0,0
35066,-200,4,3,1,70,0,0
37550,-1600,4,3,1,70,0,0
37645,-1600,4,3,1,5,0,0
38410,-1600,4,3,1,40,0,0
38505,-1600,4,3,1,70,0,0
38887,-100,4,3,1,70,0,0
39269,-200,4,3,1,70,0,0
39460,-303.030303030303,4,3,1,70,0,0
39652,-50,4,3,1,70,0,0
40034,-100,4,3,1,70,0,0
40225,-66.6666666666667,4,3,1,70,0,0
40798,-200,4,3,1,70,0,0
41180,-50,4,3,1,70,0,0
41562,-50,4,3,1,70,0,0
41849,-200,4,3,1,70,0,0
42136,-100,4,3,1,70,0,0
42709,-50,4,3,1,70,0,0
43282,-100,4,3,1,70,0,0
43473,-66.6666666666667,4,3,1,70,0,0
43855,-200,4,3,1,70,0,0
44238,-50,4,3,1,70,0,0
44620,-66.6666666666667,4,3,1,70,0,0
45002,-50,4,3,1,70,0,0
46148,-100,4,3,1,70,0,0
46339,-66.6666666666667,4,3,1,70,0,0
46722,-100,4,3,1,70,0,0
46913,-50,4,3,1,70,0,0
47868,-66.6666666666667,4,3,1,70,0,0
48059,-100,4,3,1,70,0,0
48250,-200,4,3,1,70,0,0
48441,-400,4,3,1,70,0,0
48824,-50,4,3,1,70,0,0
49015,-66.6666666666667,4,3,1,70,0,0
49206,-100,4,3,1,70,0,0
49970,-300,4,3,1,70,0,0
50734,-66.6666666666667,4,3,1,70,0,0
51499,-25,4,3,1,70,0,0
51690,-400,4,3,1,70,0,0
51881,-25,4,3,1,70,0,0
52263,-50,4,3,1,70,0,0
52454,-66.6666666666667,4,3,1,70,0,0
53027,-200,4,3,1,70,0,0
53410,-66.6666666666667,4,3,1,70,0,0
53792,-50,4,3,1,70,0,0
54078,-200,4,3,1,70,0,0
54365,-100,4,3,1,70,0,0
54938,-50,4,3,1,70,0,0
55511,-100,4,3,1,70,0,0
55703,-66.6666666666667,4,3,1,70,0,0
56085,-200,4,3,1,70,0,0
56467,-66.6666666666667,4,3,1,70,0,0
56849,-100,4,3,1,70,0,0
57231,-50,4,3,1,70,0,0
58378,-100,4,3,1,70,0,0
58569,-66.6666666666667,4,3,1,70,0,0
58951,-100,4,3,1,70,0,0
59142,-50,4,3,1,70,0,0
60097,-66.6666666666667,4,3,1,70,0,0
60288,-100,4,3,1,70,0,0
60480,-200,4,3,1,70,0,0
60671,-400,4,3,1,70,0,0
61053,-50,4,3,1,70,0,0
61435,-100,4,3,1,70,0,0
62199,-300,4,3,1,70,0,0
62964,-37.5,4,3,1,70,0,0
63155,-100,4,3,1,70,0,0
63346,-37.5,4,3,1,70,0,0
63537,-100,4,3,1,70,0,0
63728,-25,4,3,1,70,0,0
64301,-50,4,3,1,70,0,0
65830,-50,4,3,1,5,0,0
66021,-50,4,3,1,70,0,0
67359,-50,4,3,1,5,0,0
67550,-50,4,3,1,70,0,0
68887,-50,4,3,1,5,0,0
69078,-50,4,3,1,70,0,0
69652,-50,4,3,1,5,0,0
69843,-50,4,3,1,70,0,0
70129,-50,4,3,1,5,0,0
70225,-50,4,3,1,70,0,0
70607,-100,4,3,1,70,0,0
78250,-37.5,4,3,1,70,0,1
78632,-50,4,3,1,70,0,1
79015,-100,4,3,1,70,0,1
79397,-50,4,3,1,70,0,1
79779,-37.5,4,3,1,70,0,1
80161,-50,4,3,1,70,0,1
80543,-100,4,3,1,70,0,1
80925,-50,4,3,1,70,0,1
81308,-37.5,4,3,1,70,0,1
81690,-50,4,3,1,70,0,1
82072,-100,4,3,1,70,0,1
82454,-50,4,3,1,70,0,1
82835,-66.6666666666667,4,3,1,70,0,1
83601,-100,4,3,1,70,0,1
84365,-37.5,4,3,1,70,0,1
84747,-50,4,3,1,70,0,1
85129,-100,4,3,1,70,0,1
85511,-50,4,3,1,70,0,1
85894,-37.5,4,3,1,70,0,1
86276,-50,4,3,1,70,0,1
86658,-100,4,3,1,70,0,1
87613,-66.6666666666667,4,3,1,70,0,1
90288,-200,4,3,1,70,0,1
90480,-37.5,4,3,1,70,0,1
90862,-50,4,3,1,70,0,1
91244,-100,4,3,1,70,0,1
91626,-50,4,3,1,70,0,1
92008,-37.5,4,3,1,70,0,1
92390,-50,4,3,1,70,0,1
92773,-100,4,3,1,70,0,1
93155,-50,4,3,1,70,0,1
93537,-37.5,4,3,1,70,0,1
94110,-50,4,3,1,70,0,1
95066,-100,4,3,1,70,0,1
95448,-66.6666666666667,4,3,1,70,0,1
95830,-100,4,3,1,70,0,1
96594,-37.5,4,3,1,70,0,1
96976,-50,4,3,1,70,0,1
97359,-100,4,3,1,70,0,1
97741,-50,4,3,1,70,0,1
98123,-37.5,4,3,1,70,0,1
98505,-50,4,3,1,70,0,1
98887,-100,4,3,1,70,0,1
99843,-66.6666666666667,4,3,1,70,0,1
101180,-100,4,3,1,70,0,1
102709,-100,4,3,1,70,0,0
107295,400,4,3,1,50,1,0
108095,413.793103448276,4,3,1,50,1,0
108508,417.536534446764,4,3,1,50,1,0
110178,428.571428571429,4,3,1,50,1,0
110606,451.127819548872,4,3,1,50,1,0
111057,461.538461538462,4,3,1,50,1,0
111518,461.538461538462,4,3,1,50,1,0
111979,500,4,3,1,50,1,0
112229,-100,4,3,1,5,0,0

[Colours]
Combo1 : 255,224,132
Combo2 : 255,133,74
Combo3 : 255,174,136
Combo4 : 255,159,159

[HitObjects]
45,31,1053,5,8,0:0:0:0:
62,27,1148,1,8,0:0:0:0:
146,59,1244,5,8,0:0:0:0:
129,63,1339,1,8,0:0:0:0:
28,112,1435,5,8,0:0:0:0:
45,108,1530,1,8,0:0:0:0:
235,184,1626,5,8,0:0:0:0:
150,164,1721,1,8,0:0:0:0:
309,103,1817,5,12,1:1:0:0:
309,103,3728,6,0,L|295:-2,2,80,8|8|8,0:0|0:0|0:0,0:0:0:0:
400,172,4110,5,8,0:0:0:0:
295,217,4238,1,8,0:0:0:0:
309,103,4365,1,8,0:0:0:0:
400,172,4492,5,8,0:0:0:0:
452,194,4620,1,8,0:0:0:0:
445,137,4747,1,8,0:0:0:0:
295,217,4874,5,12,1:1:0:0:
295,217,7167,5,12,1:1:0:0:
445,297,7359,1,8,0:0:0:0:
445,302,7422,1,8,0:0:0:0:
445,307,7486,1,8,0:0:0:0:
445,312,7550,5,12,1:1:0:0:
445,312,10225,5,8,0:0:0:0:
366,324,10320,1,8,0:0:0:0:
287,336,10416,1,8,0:0:0:0:
208,348,10511,1,8,0:0:0:0:
129,360,10607,5,12,1:1:0:0:
256,192,10703,12,0,11753,0:0:0:0:
129,360,11945,5,0,0:0:0:0:
287,336,12136,1,0,0:0:0:0:
445,312,12327,1,0,0:0:0:0:
129,360,12518,5,0,0:0:0:0:
111,73,12709,6,0,P|137:96|134:60,1,90.0000034332277
62,140,12900,6,0,P|41:100|41:55,1,90.0000034332277
216,57,13091,2,0,P|215:101|195:141,1,90.0000034332277
8,233,13282,6,0,L|218:205,1,120,8|0,0:1|0:0,0:0:0:0:
326,296,13473,5,0,0:0:0:0:
330,325,13569,1,0,0:0:0:0:
445,312,13664,6,0,L|235:284,1,120,8|0,0:1|0:0,0:0:0:0:
126,217,13855,5,0,0:0:0:0:
113,307,13951,1,0,0:0:0:0:
8,233,14046,6,0,L|218:205,1,120,14|0,0:0|0:0,0:0:0:0:
199,207,14333,1,0,0:0:0:0:
390,181,14429,6,0,L|180:209,1,120,8|0,0:0|0:0,0:0:0:0:
199,207,14715,1,2,0:0:0:0:
142,336,14811,6,0,L|114:126,1,120,8|0,0:0|0:0,0:0:0:0:
116,145,15097,1,0,0:0:0:0:
255,77,15193,6,0,L|283:287,1,120,8|0,0:0|0:0,0:0:0:0:
281,268,15479,1,0,0:0:0:0:
41,139,15575,6,0,P|97:71|180:105,1,180.000006866455,10|0,0:0|0:0,0:0:0:0:
199,207,15862,1,0,0:0:0:0:
223,317,15957,6,0,P|304:341|357:275,1,180.000006866455,8|0,0:0|0:0,0:0:0:0:
390,181,16244,1,0,0:0:0:0:
41,139,16339,6,0,L|69:349,1,180.000006866455,10|0,0:0|0:0,0:0:0:0:
199,207,16626,1,0,0:0:0:0:
416,372,16722,5,8,0:0:0:0:
474,328,16913,1,2,0:0:0:0:
451,260,17104,1,8,0:0:0:0:
379,262,17295,1,2,0:0:0:0:
357,331,17486,1,8,0:0:0:0:
474,328,17677,5,2,0:0:0:0:
379,262,17773,1,2,0:0:0:0:
416,372,17868,1,8,0:0:0:0:
451,260,18059,5,2,0:0:0:0:
357,331,18250,1,8,0:0:0:0:
474,328,18441,1,2,0:0:0:0:
379,262,18632,5,8,0:0:0:0:
317,262,18728,1,8,0:0:0:0:
256,263,18823,1,8,0:0:0:0:
194,262,18919,1,8,0:0:0:0:
133,262,19014,5,8,0:0:0:0:
61,260,19206,1,2,0:0:0:0:
38,328,19397,1,8,0:0:0:0:
96,372,19588,5,2,0:0:0:0:
155,331,19684,1,2,0:0:0:0:
140,202,19779,6,0,L|133:262,1,60,10|0,0:1|0:0,0:0:0:0:
29,129,19970,5,2,0:0:0:0:
91,129,20066,1,0,0:0:0:0:
152,128,20161,6,0,P|191:148|215:197,1,90.0000034332277,8|0,0:0|0:0,0:0:0:0:
96,372,20352,5,2,0:0:0:0:
29,129,20543,5,8,0:0:0:0:
483,129,20734,5,2,0:0:0:0:
421,129,20830,1,0,0:0:0:0:
360,128,20925,6,0,P|321:148|297:197,1,90.0000034332277,10|0,0:1|0:0,0:0:0:0:
379,261,21117,2,0,L|372:202,1,60,2|0,0:0|0:0,0:0:0:0:
416,372,21308,5,8,0:0:0:0:
29,129,21499,5,2,0:0:0:0:
213,187,21594,1,0,0:0:0:0:
141,201,21690,6,0,L|82:194,1,60,10|0,0:1|0:0,0:0:0:0:
38,328,21881,2,0,L|45:268,1,60,2|0,0:0|0:0,0:0:0:0:
29,129,22072,5,8,0:0:0:0:
483,129,22263,5,2,0:0:0:0:
298,187,22358,1,0,0:0:0:0:
466,268,22454,6,0,L|474:328,1,60,10|0,0:1|0:0,0:0:0:0:
371,201,22645,2,0,L|430:194,1,60,2|0,0:0|0:0,0:0:0:0:
297,382,22836,5,8,0:0:0:0:
297,382,23027,1,2,0:0:0:0:
215,2,23218,5,8,0:0:0:0:
215,2,23409,1,2,0:0:0:0:
276,287,23601,5,8,0:0:0:0:
236,97,23792,5,2,0:0:0:0:
256,192,23887,1,0,0:0:0:0:
276,287,23983,5,10,0:1:0:0:
236,97,24174,1,2,0:0:0:0:
215,382,24365,5,8,0:1:0:0:
297,2,24556,5,2,0:0:0:0:
297,2,24620,1,0,0:0:0:0:
297,2,24683,1,0,0:0:0:0:
297,2,24747,6,0,P|310:44|316:89,1,90.0000034332277,8|0,0:1|0:0,0:0:0:0:
215,382,24938,2,0,P|201:339|195:294,1,90.0000034332277,2|0,0:0|0:0,0:0:0:0:
236,97,25129,6,0,P|222:139|216:184,1,90.0000034332277,8|0,0:1|0:0,0:0:0:0:
276,287,25320,2,0,P|289:244|295:199,1,90.0000034332277,2|0,0:0|0:0,0:0:0:0:
57,230,25511,6,2,L|355:191,1,240,6|0,0:1|0:0,0:0:0:0:
294,198,25703,6,0,L|296:216,1,15,2|0,0:0|0:0,0:0:0:0:
433,325,25894,6,2,L|135:286,1,240,6|0,0:1|0:0,0:0:0:0:
195,293,26085,6,0,L|192:311,1,15,2|0,0:0|0:0,0:0:0:0:
352,331,26276,5,2,0:1:0:0:
352,331,26562,2,0,L|352:328,1,3,2|0,0:0|0:0,0:0:0:0:
383,47,26658,5,0,0:0:0:0:
383,47,26849,5,2,0:0:0:0:
383,47,27136,2,0,L|382:51,1,3,2|0,0:0|0:0,0:0:0:0:
352,331,27231,6,0,L|353:313,1,15
427,140,27422,5,2,0:1:0:0:
391,205,27517,1,0,0:0:0:0:
442,259,27613,1,0,0:0:0:0:
510,229,27708,1,0,0:0:0:0:
502,155,27804,5,2,0:1:0:0:
502,155,28091,2,0,L|493:154,1,7.5,2|0,0:0|0:0,0:0:0:0:
218,124,28186,5,2,0:0:0:0:
218,124,28377,5,2,0:0:0:0:
218,124,28664,2,0,L|227:124,1,7.5,2|0,0:0|0:0,0:0:0:0:
502,155,28759,6,0,L|484:153,1,15,2|0,0:0|0:0,0:0:0:0:
352,316,28951,6,0,L|356:280,1,30,2|0,0:1|0:0,0:0:0:0:
461,361,29142,2,0,L|457:331,1,30
160,331,29333,5,2,0:1:0:0:
160,331,29619,2,0,L|159:322,1,7.5,2|0,0:0|0:0,0:0:0:0:
129,47,29715,5,2,0:0:0:0:
129,47,29906,5,2,0:0:0:0:
129,47,30193,2,0,L|130:56,1,7.5,2|0,0:0|0:0,0:0:0:0:
160,331,30288,6,0,L|159:313,1,15,2|0,0:0|0:0,0:0:0:0:
85,140,30480,5,10,0:1:0:0:
121,205,30575,1,0,0:0:0:0:
70,259,30671,1,2,0:0:0:0:
2,229,30766,1,0,0:0:0:0:
10,155,30862,5,10,0:1:0:0:
121,205,30957,1,0,0:0:0:0:
2,229,31053,1,2,0:0:0:0:
85,140,31148,1,8,0:0:0:0:
70,259,31244,5,0,0:0:0:0:
73,270,31339,1,0,0:0:0:0:
180,212,31435,6,0,L|113:204,1,60,6|2,0:1|0:0,0:0:0:0:
27,357,32008,6,0,L|94:349,1,60,2|0,0:1|0:0,0:0:0:0:
175,338,32199,2,0,L|242:330,1,60,2|0,0:0|0:0,0:0:0:0:
323,319,32390,5,2,0:1:0:0:
323,319,32677,2,0,L|314:318,1,7.5,2|0,0:0|0:0,0:0:0:0:
2,229,32773,5,2,0:0:0:0:
2,229,32964,5,2,0:0:0:0:
2,229,33250,2,0,L|11:228,1,7.5,2|0,0:0|0:0,0:0:0:0:
395,156,33346,6,0,L|397:172,1,15,2|0,0:0|0:0,0:0:0:0:
142,338,33537,5,2,0:1:0:0:
151,263,33632,1,0,0:0:0:0:
239,293,33728,5,2,0:0:0:0:
234,330,33823,1,0,0:0:0:0:
323,319,33919,5,2,0:1:0:0:
323,319,34206,2,0,L|322:310,1,7.5,2|0,0:0|0:0,0:0:0:0:
214,38,34302,5,2,0:0:0:0:
214,38,34493,5,2,0:0:0:0:
214,38,34779,2,0,L|213:46,1,7.5,2|0,0:0|0:0,0:0:0:0:
158,367,34874,6,0,L|174:365,1,15,2|0,0:0|0:0,0:0:0:0:
323,319,35066,6,0,L|291:315,1,30,2|0,0:1|0:0,0:0:0:0:
158,367,35257,2,0,L|190:363,1,30
394,363,35448,5,10,0:1:0:0:
256,248,35639,1,2,0:0:0:0:
90,336,35830,5,8,0:1:0:0:
256,232,36021,1,2,0:0:0:0:
444,305,36212,5,8,0:1:0:0:
256,216,36403,1,2,0:0:0:0:
50,271,36594,5,10,0:1:0:0:
256,200,36785,1,2,0:0:0:0:
275,90,36976,5,10,0:1:0:0:
256,200,37072,1,0,0:0:0:0:
215,40,37167,5,2,0:0:0:0:
256,200,37263,1,8,0:0:0:0:
354,83,37359,5,0,0:0:0:0:
169,164,37454,1,0,0:0:0:0:
421,195,37550,6,0,L|410:142,1,54,6|0,0:1|0:0,0:0:0:0:
354,83,38505,5,10,0:0:0:0:
354,83,38569,1,2,0:0:0:0:
354,83,38632,1,2,0:0:0:0:
354,83,38696,1,2,0:0:0:0:
354,83,38760,1,2,0:0:0:0:
354,83,38823,1,2,0:0:0:0:
354,83,38887,6,0,L|345:43,5,40,10|0|0|0|0|0,0:0|0:0|0:0|0:0|0:0|0:0,0:0:0:0:
410,142,39269,6,0,L|416:171,1,20,8|0,0:0|0:0,0:0:0:0:
469,219,39460,2,0,L|475:248,1,19.7999999395752,2|0,0:0|0:0,0:0:0:0:
474,239,39652,6,0,P|407:255|350:232,1,120,8|0,0:0|0:0,0:0:0:0:
292,170,39843,2,0,P|235:153|178:169,1,120,2|0,0:0|0:0,0:0:0:0:
75,379,40034,6,0,L|134:376,1,60,12|0,0:1|0:0,0:0:0:0:
19,255,40225,6,0,P|2:295|0:340,1,90.0000034332277,2|0,0:0|0:0,0:0:0:0:
178,168,40416,2,0,P|194:208|196:253,1,90.0000034332277,8|0,0:1|0:0,0:0:0:0:
1,341,40607,6,0,P|1:296|19:255,1,90.0000034332277,2|0,0:0|0:0,0:0:0:0:
103,130,40798,6,0,L|43:132,1,60,8|2,0:1|0:0,0:0:0:0:
173,84,41085,1,0,0:0:0:0:
315,249,41180,6,0,L|195:254,1,120,8|0,0:1|0:0,0:0:0:0:
416,186,41371,2,0,L|421:305,1,120,2|0,0:0|0:0,0:0:0:0:
201,373,41562,6,0,L|195:253,1,120,10|0,0:1|0:0,0:0:0:0:
361,97,41753,1,2,0:0:0:0:
312,189,41849,6,0,L|315:249,1,60,2|0,0:1|0:0,0:0:0:0:
501,347,42136,6,0,L|499:288,1,60,2|0,0:0|0:0,0:0:0:0:
303,104,42327,6,0,P|332:107|360:97,1,60,8|0,0:1|0:0,0:0:0:0:
229,66,42518,2,0,L|226:126,1,60,2|0,0:0|0:0,0:0:0:0:
424,241,42709,6,0,P|370:265|314:248,1,120,8|0,0:1|0:0,0:0:0:0:
492,167,42900,2,0,L|498:287,1,120,2|0,0:0|0:0,0:0:0:0:
215,362,43091,5,12,0:1:0:0:
215,362,43282,2,0,L|275:359,1,60,2|0,0:0|0:0,0:0:0:0:
372,297,43473,6,0,B|396:339|396:339|384:378,1,90.0000034332277,8|0,0:1|0:0,0:0:0:0:
259,191,43664,2,0,B|235:233|235:233|246:272,1,90.0000034332277,2|0,0:0|0:0,0:0:0:0:
416,163,43855,6,0,L|356:160,1,60,8|2,0:1|0:0,0:0:0:0:
492,167,44142,1,0,0:0:0:0:
259,191,44238,6,0,L|265:65,1,120,8|0,0:1|0:0,0:0:0:0:
498,47,44429,2,0,L|491:172,1,120,2|0,0:0|0:0,0:0:0:0:
166,208,44620,6,0,P|132:207|162:192,1,90.0000034332277,10|0,0:1|0:0,0:0:0:0:
255,207,44811,2,0,P|288:206|258:191,1,90.0000034332277,2|0,0:0|0:1,0:0:0:0:
82,145,45002,6,0,P|62:200|77:257,1,120,8|0,0:1|0:0,0:0:0:0:
344,254,45193,2,0,P|359:196|339:141,1,120,2|0,0:0|0:0,0:0:0:0:
163,72,45384,5,10,0:1:0:0:
163,100,45480,1,0,0:0:0:0:
262,327,45575,5,2,0:0:0:0:
262,299,45671,1,0,0:0:0:0:
160,191,45766,5,10,0:1:0:0:
255,206,45862,1,8,0:0:0:0:
166,208,45957,5,10,0:0:0:0:
258,190,46053,1,8,0:0:0:0:
84,85,46148,6,0,L|81:148,1,60,12|0,0:1|0:0,0:0:0:0:
45,327,46339,6,0,P|89:332|129:313,1,90.0000034332277,2|0,0:0|0:0,0:0:0:0:
216,362,46531,2,0,P|256:343|300:348,1,90.0000034332277,8|0,0:1|0:0,0:0:0:0:
419,384,46722,6,0,L|416:320,1,60,2|0,0:0|0:0,0:0:0:0:
429,188,46913,6,0,P|448:289|346:277,1,240,8|2,0:1|0:0,0:0:0:0:
310,160,47199,1,0,0:0:0:0:
504,117,47295,6,0,L|335:105,1,120,8|0,0:1|0:0,0:0:0:0:
143,245,47486,2,0,L|312:233,1,120,2|0,0:0|0:0,0:0:0:0:
478,364,47677,6,0,P|421:382|362:375,1,120,10|0,0:1|0:0,0:0:0:0:
298,335,47868,6,0,P|253:329|211:343,1,90.0000034332277,2|0,0:0|0:1,0:0:0:0:
147,383,48059,6,0,P|117:380|89:368,1,60,8|0,0:1|0:0,0:0:0:0:
30,322,48250,6,0,P|15:323|1:329,1,30,2|0,0:0|0:0,0:0:0:0:
474,319,48441,6,0,L|477:369,1,45,8|0,0:1|0:0,0:0:0:0:
478,364,48824,6,0,P|421:382|362:375,1,120,8|0,0:1|0:0,0:0:0:0:
298,335,49015,6,0,P|253:329|211:343,1,90.0000034332277,2|0,0:0|0:0,0:0:0:0:
121,381,49206,6,0,L|128:279,1,60,8|0,0:1|0:0,0:0:0:0:
262,196,49397,6,0,L|254:297,1,60,2|0,0:0|0:0,0:0:0:0:
339,174,49588,2,0,L|331:275,1,60,8|0,0:1|0:0,0:0:0:0:
121,381,49779,6,0,L|128:279,1,60,2|0,0:0|0:0,0:0:0:0:
416,152,49970,6,0,L|408:253,1,60,8|0,0:1|0:0,0:0:0:0:
262,196,50352,5,0,0:1:0:0:
339,174,50448,1,0,0:0:0:0:
431,300,50543,5,2,0:0:0:0:
392,289,50639,1,0,0:0:0:0:
495,100,50734,6,0,L|484:237,1,90.0000034332277,10|0,0:1|0:0,0:0:0:0:
255,285,50925,2,0,L|265:147,1,90.0000034332277,2|0,0:0|0:1,0:0:0:0:
411,211,51117,5,8,0:0:0:0:
339,174,51212,1,8,0:0:0:0:
487,189,51308,5,10,0:0:0:0:
262,196,51403,1,8,0:0:0:0:
495,100,51499,6,0,L|474:359,1,240,14|0,0:1|0:0,0:0:0:0:
475,339,51690,6,0,L|458:338,1,15,2|0,0:0|0:0,0:0:0:0:
255,285,51881,6,0,L|276:26,1,240,14|0,0:1|0:0,0:0:0:0:
495,100,52072,2,0,L|474:359,1,240,0|0,0:1|0:0,0:0:0:0:
303,341,52263,6,0,P|247:358|195:330,1,120,12|0,0:1|0:0,0:0:0:0:
261,195,52454,6,0,L|390:184,1,90.0000034332277,2|0,0:0|0:0,0:0:0:0:
81,209,52645,2,0,L|210:198,1,90.0000034332277,8|0,0:1|0:0,0:0:0:0:
413,227,52836,6,0,P|425:185|410:143,1,90.0000034332277,2|0,0:0|0:0,0:0:0:0:
11,183,53027,6,0,P|6:212|14:241,1,60,8|2,0:1|0:0,0:0:0:0:
14,241,53410,6,0,P|46:275|86:282,1,90.0000034332277,8|0,0:1|0:0,0:0:0:0:
219,268,53601,2,0,P|253:236|260:195,1,90.0000034332277,2|0,0:0|0:0,0:0:0:0:
161,82,53792,6,0,L|170:201,1,120,10|0,0:1|0:0,0:0:0:0:
87,282,53983,1,2,0:0:0:0:
255,135,54078,6,0,L|259:194,1,60,2|0,0:1|0:0,0:0:0:0:
91,341,54365,6,0,L|86:281,1,60,2|0,0:0|0:0,0:0:0:0:
236,64,54556,6,0,P|265:62|293:74,1,60,8|0,0:1|0:0,0:0:0:0:
161,82,54747,2,0,P|158:52|170:24,1,60,2|0,0:0|0:0,0:0:0:0:
366,223,54938,6,0,P|307:228|259:195,1,120,8|0,0:1|0:0,0:0:0:0:
443,187,55129,2,0,P|448:245|415:293,1,120,2|0,0:0|0:0,0:0:0:0:
86,100,55320,5,12,0:1:0:0:
86,100,55511,6,0,L|81:159,1,60,2|0,0:0|0:0,0:0:0:0:
38,276,55703,6,0,B|81:285|81:285|122:264,1,90.0000034332277,8|0,0:1|0:0,0:0:0:0:
174,206,55894,2,0,B|215:185|215:185|258:194,1,90.0000034332277,2|0,0:0|0:0,0:0:0:0:
307,257,56085,6,0,L|302:316,1,60,8|2,0:1|0:0,0:0:0:0:
337,183,56371,1,0,0:0:0:0:
223,382,56467,6,0,L|229:292,1,90.0000034332277,8|0,0:1|0:0,0:0:0:0:
464,346,56658,2,0,L|374:339,1,90.0000034332277,2|0,0:0|0:0,0:0:0:0:
426,139,56849,6,0,L|419:228,1,60,10|0,0:1|0:0,0:0:0:0:
302,316,57040,2,0,L|307:257,1,60,2|0,0:0|0:1,0:0:0:0:
238,88,57231,6,0,L|249:243,1,120,8|0,0:1|0:0,0:0:0:0:
490,366,57422,2,0,L|481:247,1,120,2|0,0:0|0:0,0:0:0:0:
174,206,57613,5,10,0:1:0:0:
171,235,57708,1,0,0:0:0:0:
319,179,57804,5,2,0:0:0:0:
322,150,57899,1,0,0:0:0:0:
247,207,57996,5,10,0:1:0:0:
421,198,58091,1,8,0:0:0:0:
307,256,58187,5,8,0:0:0:0:
481,245,58282,1,8,0:0:0:0:
225,353,58378,6,0,L|229:293,1,60,12|0,0:1|0:0,0:0:0:0:
477,68,58569,6,0,P|432:71|392:92,1,90.0000034332277,2|0,0:0|0:0,0:0:0:0:
322,150,58760,2,0,P|277:146|237:125,1,90.0000034332277,8|0,0:1|0:0,0:0:0:0:
149,80,58951,6,0,L|144:139,1,60,2|0,0:0|0:0,0:0:0:0:
28,169,59142,6,0,B|90:167|90:167|184:230|184:230|248:225,1,240,8|2,0:1|0:0,0:0:0:0:
344,218,59429,1,0,0:0:0:0:
149,80,59524,6,0,L|138:222,1,120,8|0,0:1|0:0,0:0:0:0:
19,288,59715,2,0,L|29:145,1,120,2|0,0:0|0:0,0:0:0:0:
344,218,59906,6,0,L|486:228,1,120,10|0,0:1|0:0,0:0:0:0:
415,56,60097,6,0,L|404:198,1,90.0000034332277,2|0,0:0|0:1,0:0:0:0:
275,75,60288,6,0,L|346:80,1,60,8|0,0:1|0:0,0:0:0:0:
265,181,60480,6,0,L|268:134,1,30,2|0,0:0|0:0,0:0:0:0:
463,226,60671,6,0,L|459:272,1,45,8|0,0:1|0:0,0:0:0:0:
459,270,61053,6,0,P|399:264|345:288,1,120,8|0,0:1|0:0,0:0:0:0:
285,347,61244,2,0,P|225:352|171:328,1,120,2|0,0:0|0:0,0:0:0:0:
93,283,61435,6,0,L|86:375,1,60,8|0,0:1|0:0,0:0:0:0:
345,288,61626,6,0,L|338:195,1,60,2|0,0:0|0:0,0:0:0:0:
269,240,61817,2,0,L|262:147,1,60,8|0,0:1|0:0,0:0:0:0:
93,283,62008,6,0,L|86:375,1,60,2|0,0:0|0:0,0:0:0:0:
193,192,62199,6,0,L|186:99,1,60,8|0,0:1|0:0,0:0:0:0:
93,283,62581,5,8,0:1:0:0:
171,328,62677,1,0,0:0:0:0:
193,192,62773,5,2,0:0:0:0:
154,214,62869,1,0,0:0:0:0:
113,87,62964,6,0,P|178:45|252:69,1,160,10|0,0:1|0:0,0:0:0:0:
193,192,63155,6,0,L|186:99,1,60,2|0,0:0|0:1,0:0:0:0:
397,238,63346,6,0,P|331:279|257:255,1,160,8|0,0:1|0:0,0:0:0:0:
317,133,63537,6,0,L|324:226,1,60,2|0,0:0|0:0,0:0:0:0:
466,345,63728,6,0,L|110:371,1,240,14|0,0:1|0:0,0:0:0:0:
131,326,63919,2,0,L|104:-29,1,240,12|0,0:1|0:0,0:0:0:0:
202,50,64110,2,0,L|557:23,1,240,14|0,0:1|0:0,0:0:0:0:
478,121,64301,6,0,L|491:298,1,120,2|0,0:0|0:0,0:0:0:0:
317,133,64492,5,4,0:0:0:0:
256,192,64516,12,0,65830,0:0:0:0:
195,133,66021,5,4,0:0:0:0:
256,192,66045,12,0,67359,0:0:0:0:
195,251,67550,5,4,0:0:0:0:
256,192,67574,12,0,68887,0:0:0:0:
317,251,69078,5,4,0:0:0:0:
317,133,69843,5,4,0:0:0:0:
195,133,70225,5,8,0:0:0:0:
317,251,70416,1,2,0:0:0:0:
75,143,70607,6,0,L|241:128,1,120,14|2,0:1|0:0,0:0:0:0:
256,176,70894,1,0,0:0:0:0:
256,192,70989,1,8,0:0:0:0:
75,143,71180,1,2,0:0:0:0:
436,240,71371,6,0,L|270:255,1,120,8|2,0:1|0:0,0:0:0:0:
256,208,71658,1,0,0:0:0:0:
256,192,71753,1,8,0:0:0:0:
436,240,71945,1,2,0:0:0:0:
197,368,72136,6,0,P|184:309|194:250,1,120,10|2,0:1|0:0,0:0:0:0:
256,176,72422,1,0,0:0:0:0:
256,192,72517,1,8,0:0:0:0:
197,368,72709,1,2,0:0:0:0:
315,16,72900,6,0,P|327:74|317:133,1,120,8|2,0:1|0:0,0:0:0:0:
256,208,73186,1,0,0:0:0:0:
256,192,73281,1,8,0:0:0:0:
315,16,73473,1,2,0:0:0:0:
405,318,73664,5,10,0:1:0:0:
316,133,73855,1,2,0:0:0:0:
321,193,73951,1,0,0:0:0:0:
326,253,74046,1,8,0:0:0:0:
405,318,74238,1,2,0:0:0:0:
105,318,74429,5,8,0:1:0:0:
194,132,74620,1,2,0:0:0:0:
189,192,74716,1,0,0:0:0:0:
184,252,74811,1,8,0:0:0:0:
105,318,75003,1,2,0:0:0:0:
317,133,75193,5,10,0:1:0:0:
194,132,75384,1,2,0:0:0:0:
194,250,75575,1,8,0:0:0:0:
316,250,75766,1,2,0:0:0:0:
120,192,75957,5,8,0:0:0:0:
144,192,76053,1,0,0:0:0:0:
392,192,76148,5,2,0:0:0:0:
368,192,76244,1,0,0:0:0:0:
194,132,76339,5,8,0:0:0:0:
316,250,76435,1,8,0:0:0:0:
194,250,76531,5,8,0:0:0:0:
317,133,76626,1,8,0:0:0:0:
194,132,77486,5,0,0:0:0:0:
194,156,77582,1,0,0:0:0:0:
316,250,77677,5,0,0:0:0:0:
316,226,77773,1,0,0:0:0:0:
256,192,77868,5,2,0:1:0:0:
256,192,78059,1,2,0:1:0:0:
63,174,78250,6,0,B|95:122|95:122|195:131,1,160,14|0,0:1|0:0,0:0:0:0:
152,223,78441,5,2,0:0:0:0:
150,233,78505,1,0,0:0:0:0:
148,243,78569,1,0,0:0:0:0:
146,253,78632,6,0,L|-42:235,1,120,10|0,0:1|0:0,0:0:0:0:
256,192,78824,2,0,L|238:380,1,120,2|0,0:0|0:0,0:0:0:0:
25,270,79015,6,0,L|23:241,1,30,10|0,0:1|0:0,0:0:0:0:
62,143,79110,2,0,L|62:173,1,30
22,270,79206,6,0,L|22:240,1,30,2|0,0:1|0:0,0:0:0:0:
59,143,79301,2,0,L|62:173,1,30
34,357,79397,6,0,P|93:363|147:341,1,120,10|0,0:1|0:0,0:0:0:0:
244,311,79588,2,0,P|303:304|357:326,1,120,2|0,0:0|0:0,0:0:0:0:
455,379,79779,6,0,B|507:347|507:347|498:247,1,160,10|0,0:1|0:0,0:0:0:0:
390,113,79970,5,2,0:0:0:0:
400,111,80034,1,0,0:0:0:0:
410,109,80098,1,0,0:0:0:0:
420,107,80161,6,0,L|402:295,1,120,10|0,0:1|0:0,0:0:0:0:
244,311,80352,2,0,L|262:123,1,120,2|0,0:0|0:0,0:0:0:0:
408,226,80543,6,0,L|378:223,1,30,10|0,0:1|0:0,0:0:0:0:
255,191,80639,2,0,L|284:188,1,30
408,226,80734,6,0,L|378:220,1,30,2|0,0:1|0:0,0:0:0:0:
255,191,80830,2,0,L|283:185,1,30
474,36,80925,6,0,P|500:89|498:147,1,120,10|0,0:1|0:0,0:0:0:0:
432,338,81117,2,0,P|405:284|407:226,1,120,2|0,0:0|0:0,0:0:0:0:
474,36,81308,6,0,B|442:88|442:88|342:79,1,160,10|0,0:1|0:0,0:0:0:0:
212,29,81499,5,2,0:0:0:0:
202,31,81563,1,0,0:0:0:0:
192,33,81627,1,0,0:0:0:0:
182,35,81690,6,0,P|155:88|158:147,1,120,10|0,0:1|0:0,0:0:0:0:
286,186,81881,2,0,P|288:245|262:298,1,120,2|0,0:0|0:0,0:0:0:0:
102,346,82072,6,0,L|104:317,1,30,10|0,0:1|0:0,0:0:0:0:
158,147,82167,2,0,L|156:176,1,30
146,304,82263,6,0,L|144:275,1,30,2|0,0:0|0:0,0:0:0:0:
118,204,82359,2,0,L|120:233,1,30
216,375,82454,6,0,L|373:364,1,120,10|0,0:1|0:0,0:0:0:0:
497,231,82645,2,0,L|339:220,1,120,2|0,0:0|0:0,0:0:0:0:
47,104,82836,6,0,P|54:140|79:113,1,90.0000034332277,10|0,0:1|0:0,0:0:0:0:
3,37,83027,5,2,0:1:0:0:
53,215,83123,1,0,0:0:0:0:
135,38,83218,6,0,P|179:36|220:55,1,90.0000034332277,10|0,0:1|0:0,0:0:0:0:
279,120,83410,2,0,P|323:121|364:102,1,90.0000034332277,2|0,0:1|0:0,0:0:0:0:
444,61,83601,6,0,L|446:90,1,30,10|0,0:1|0:0,0:0:0:0:
462,142,83696,2,0,L|460:113,1,30
434,42,83792,6,0,L|436:71,1,30,2|0,0:1|0:0,0:0:0:0:
472,161,83887,2,0,L|470:132,1,30
424,23,83983,5,10,0:1:0:0:
306,40,84078,1,8,0:0:0:0:
279,120,84174,5,10,0:0:0:0:
171,108,84269,1,8,0:0:0:0:
214,238,84365,6,0,B|162:206|162:206|171:106,1,160,10|0,0:1|0:0,0:0:0:0:
293,312,84556,5,2,0:0:0:0:
283,314,84620,1,0,0:0:0:0:
273,316,84684,1,0,0:0:0:0:
263,318,84747,6,0,P|204:325|149:304,1,120,10|0,0:1|0:0,0:0:0:0:
106,43,84938,2,0,P|161:22|220:29,1,120,2|0,0:0|0:0,0:0:0:0:
411,89,85129,6,0,L|409:118,1,30,10|0,0:1|0:0,0:0:0:0:
335,147,85225,2,0,L|337:118,1,30
431,210,85320,6,0,L|401:208,1,30,2|0,0:1|0:0,0:0:0:0:
315,25,85416,2,0,L|345:27,1,30
509,25,85511,6,0,L|500:144,1,120,10|0,0:1|0:0,0:0:0:0:
327,266,85703,2,0,L|335:146,1,120,2|0,0:0|0:0,0:0:0:0:
11,326,85894,6,0,B|43:378|43:378|143:369,1,160,10|0,0:1|0:0,0:0:0:0:
233,300,86085,5,2,0:0:0:0:
243,302,86149,1,0,0:0:0:0:
253,304,86213,1,0,0:0:0:0:
263,306,86276,6,0,P|322:301|378:321,1,120,10|0,0:1|0:0,0:0:0:0:
482,366,86467,2,0,P|502:309|496:250,1,120,2|0,0:0|0:0,0:0:0:0:
57,106,86658,6,0,L|59:135,1,30,10|0,0:1|0:0,0:0:0:0:
155,246,86754,2,0,L|153:217,1,30
5,186,86849,6,0,L|7:215,1,30,2|0,0:1|0:0,0:0:0:0:
207,166,86945,2,0,L|205:137,1,30
38,13,87040,5,10,0:1:0:0:
38,13,87231,2,0,L|97:8,1,60,2|0,0:0|0:0,0:0:0:0:
497,251,87422,5,10,0:1:0:0:
497,251,87613,2,0,L|381:243,1,90.0000034332277,2|0,0:0|0:0,0:0:0:0:
327,284,87804,2,0,L|333:194,1,90.0000034332277,10|0,0:1|0:0,0:0:0:0:
293,114,87996,2,0,L|382:120,1,90.0000034332277,2|0,0:0|0:0,0:0:0:0:
463,80,88187,6,0,L|456:169,1,90.0000034332277,10|0,0:1|0:0,0:0:0:0:
327,284,88378,2,0,L|333:194,1,90.0000034332277,2|0,0:0|0:0,0:0:0:0:
503,221,88569,5,10,0:1:0:0:
501,231,88633,1,0,0:0:0:0:
499,241,88697,1,0,0:0:0:0:
497,251,88760,6,0,L|381:243,1,90.0000034332277,2|0,0:0|0:0,0:0:0:0:
15,251,88951,6,0,L|131:243,1,90.0000034332277,10|0,0:1|0:0,0:0:0:0:
225,144,89142,5,2,0:1:0:0:
223,134,89206,1,0,0:0:0:0:
221,124,89270,1,0,0:0:0:0:
219,114,89333,6,0,L|129:120,1,90.0000034332277,10|0,0:1|0:0,0:0:0:0:
15,251,89524,2,0,L|131:243,1,90.0000034332277,2|0,0:1|0:0,0:0:0:0:
49,80,89715,5,2,0:1:0:0:
39,82,89779,1,0,0:0:0:0:
29,84,89843,1,0,0:0:0:0:
19,86,89906,6,0,L|25:176,1,90.0000034332277,10|0,0:1|0:0,0:0:0:0:
183,266,90097,2,0,L|176:356,1,90.0000034332277,10|0,0:1|0:0,0:0:0:0:
255,192,90288,6,0,L|284:189,1,30,2|0,0:0|0:0,0:0:0:0:
503,222,90480,6,0,B|471:274|471:274|371:265,1,160,14|0,0:1|0:0,0:0:0:0:
394,60,90671,5,2,0:0:0:0:
404,62,90735,1,0,0:0:0:0:
414,64,90799,1,0,0:0:0:0:
424,66,90862,6,0,L|409:279,1,120,10|0,0:1|0:0,0:0:0:0:
247,311,91053,2,0,L|261:97,1,120,2|0,0:0|0:0,0:0:0:0:
403,267,91244,6,0,L|374:265,1,30,10|0,0:1|0:0,0:0:0:0:
254,191,91339,2,0,L|283:189,1,30
445,187,91435,6,0,L|416:185,1,30,2|0,0:1|0:0,0:0:0:0:
247,311,91531,2,0,L|276:309,1,30
480,335,91626,6,0,P|433:369|374:367,1,120,10|0,0:1|0:0,0:0:0:0:
247,311,91817,2,0,P|188:308|140:343,1,120,2|0,0:0|0:0,0:0:0:0:
60,384,92008,6,0,B|8:352|8:352|16:253,1,160,10|0,0:1|0:0,0:0:0:0:
145,139,92199,5,2,0:0:0:0:
155,141,92263,1,0,0:0:0:0:
165,143,92327,1,0,0:0:0:0:
175,145,92390,6,0,P|233:147|278:110,1,120,10|0,0:1|0:0,0:0:0:0:
104,30,92581,2,0,P|45:27|0:64,1,120,2|0,0:0|0:0,0:0:0:0:
98,234,92773,6,0,L|100:205,1,30,10|0,0:1|0:0,0:0:0:0:
204,42,92868,2,0,L|206:71,1,30
74,130,92964,6,0,L|72:101,1,30,2|0,0:1|0:0,0:0:0:0:
278,108,93059,2,0,L|276:137,1,30
255,308,93155,6,0,L|374:299,1,120,10|0,0:1|0:0,0:0:0:0:
470,136,93346,2,0,L|256:121,1,120,2|0,0:0|0:0,0:0:0:0:
44,287,93537,6,0,P|117:307|170:253,1,160,10|0,0:1|0:0,0:0:0:0:
278,108,93728,2,0,P|330:53|403:74,1,160,2|0,0:0|0:0,0:0:0:0:
439,369,93919,5,10,0:1:0:0:
429,367,93983,1,0,0:0:0:0:
419,365,94047,1,0,0:0:0:0:
409,363,94110,6,0,L|424:150,1,120,2|0,0:0|0:0,0:0:0:0:
103,21,94301,2,0,L|88:234,1,120,10|0,0:1|0:0,0:0:0:0:
350,127,94492,5,2,0:0:0:0:
170,251,94588,1,0,0:0:0:0:
508,276,94683,6,0,L|499:156,1,120,10|0,0:1|0:0,0:0:0:0:
4,108,94874,2,0,L|12:227,1,120,2|0,0:0|0:0,0:0:0:0:
265,335,95066,6,0,P|295:338|325:326,1,60,10|0,0:1|0:0,0:0:0:0:
325,220,95257,1,2,0:1:0:0:
147,325,95352,1,0,0:0:0:0:
389,366,95448,6,0,P|397:321|383:279,1,90.0000034332277,10|0,0:1|0:0,0:0:0:0:
239,214,95639,2,0,P|283:206|325:220,1,90.0000034332277,2|0,0:1|0:0,0:0:0:0:
508,276,95830,6,0,L|504:222,1,30,10|0,0:1|0:0,0:0:0:0:
437,208,95925,2,0,L|440:154,1,30
511,133,96021,6,0,L|507:79,1,30,2|0,0:1|0:0,0:0:0:0:
429,52,96117,2,0,L|432:-2,1,30
512,19,96212,5,10,0:1:0:0:
355,98,96308,1,8,0:0:0:0:
511,133,96403,5,8,3:0:0:0:
335,0,96499,1,8,3:0:0:0:
230,176,96594,6,0,B|266:227|266:227|365:218,1,160,14|0,0:1|0:0,0:0:0:0:
160,73,96785,5,2,0:0:0:0:
150,75,96849,1,0,0:0:0:0:
140,77,96913,1,0,0:0:0:0:
132,78,96976,6,0,L|140:197,1,120,10|0,0:1|0:0,0:0:0:0:
364,218,97167,2,0,L|356:99,1,120,2|0,0:0|0:0,0:0:0:0:
7,235,97359,6,0,L|36:233,1,30,10|0,0:1|0:0,0:0:0:0:
149,330,97454,2,0,L|119:331,1,30
140,197,97550,6,0,L|141:226,1,30,2|0,0:1|0:0,0:0:0:0:
16,368,97645,2,0,L|14:338,1,30
132,78,97741,6,0,P|189:62|246:76,1,120,10|0,0:1|0:0,0:0:0:0:
311,282,97932,2,0,P|368:296|425:280,1,120,2|0,0:0|0:0,0:0:0:0:
284,201,98123,6,0,B|232:233|232:233|241:332,1,160,10|0,0:1|0:0,0:0:0:0:
484,136,98314,5,2,0:0:0:0:
486,126,98378,1,0,0:0:0:0:
488,116,98442,1,0,0:0:0:0:
490,106,98505,6,0,L|277:91,1,120,10|0,0:1|0:0,0:0:0:0:
132,78,98696,6,0,L|147:291,1,120,2|0,0:0|0:0,0:0:0:0:
427,309,98887,6,0,L|423:255,1,30,10|0,0:1|0:0,0:0:0:0:
375,178,98983,2,0,L|378:231,1,30
318,351,99078,6,0,L|372:347,1,30,2|0,0:1|0:0,0:0:0:0:
484,136,99174,2,0,L|430:140,1,30
512,384,99269,5,10,0:1:0:0:
512,384,99460,2,0,L|431:378,1,60,2|0,0:0|0:0,0:0:0:0:
16,296,99652,5,10,0:1:0:0:
16,296,99843,2,0,P|60:297|102:282,1,90.0000034332277,2|0,0:0|0:0,0:0:0:0:
194,264,100034,2,0,P|172:224|138:195,1,90.0000034332277,10|0,0:1|0:0,0:0:0:0:
77,125,100225,2,0,P|53:163|45:207,1,90.0000034332277,2|0,0:0|0:0,0:0:0:0:
496,296,100416,6,0,P|451:297|409:282,1,90.0000034332277,10|0,0:1|0:0,0:0:0:0:
318,264,100607,2,0,P|339:224|373:195,1,90.0000034332277,2|0,0:0|0:0,0:0:0:0:
435,125,100798,6,0,P|458:163|466:207,1,90.0000034332277,10|0,0:1|0:0,0:0:0:0:
45,207,100989,2,0,P|53:163|77:125,1,90.0000034332277,2|0,0:0|0:0,0:0:0:0:
256,192,101180,6,0,L|277:213,1,30,10|0,0:1|0:0,0:0:0:0:
256,192,101276,6,0,L|285:192,1,30,10|0,0:1|0:0,0:0:0:0:
256,192,101371,6,0,L|276:170,1,30,2|0,0:1|0:0,0:0:0:0:
256,192,101467,6,0,L|256:160,1,30,2|0,0:1|0:0,0:0:0:0:
256,192,101562,6,0,L|235:171,1,30,10|0,0:1|0:0,0:0:0:0:
256,192,101658,6,0,L|226:192,1,30,10|0,0:1|0:0,0:0:0:0:
256,192,101753,6,0,L|234:212,1,30,2|0,0:1|0:0,0:0:0:0:
256,192,101849,6,0,L|256:222,1,30,2|0,0:0|0:0,0:0:0:0:
256,384,101945,5,10,0:0:0:0:
256,0,102136,1,2,0:1:0:0:
256,300,102327,5,10,0:0:0:0:
321,96,102422,1,8,0:0:0:0:
149,223,102518,1,8,0:0:0:0:
362,223,102613,1,8,0:0:0:0:
190,98,102709,1,14,0:1:0:0:
203,281,104620,6,8,L|217:386,2,80
112,212,105002,5,8,0:0:0:0:
217,167,105130,1,8,0:0:0:0:
203,281,105257,1,8,0:0:0:0:
112,212,105384,5,8,0:0:0:0:
60,190,105512,1,8,0:0:0:0:
67,247,105639,1,8,0:0:0:0:
217,167,105766,5,12,0:1:0:0:
217,167,108095,5,12,0:1:0:0:
367,87,108301,1,8,0:0:0:0:
367,82,108370,1,8,0:0:0:0:
367,77,108439,1,8,0:0:0:0:
367,72,108508,5,12,0:1:0:0:
367,72,111518,5,8,0:0:0:0:
288,60,111633,1,8,0:0:0:0:
209,48,111748,1,8,0:0:0:0:
130,36,111864,1,8,0:0:0:0:
51,24,111979,1,12,0:1:0:0:
256,192,112104,12,0,119979,0:0:0:0:
