osu file format v14

[General]
AudioFilename: audio.mp3
AudioLeadIn: 0
PreviewTime: 957
Countdown: 1
SampleSet: None
StackLeniency: 0.6
Mode: 0
LetterboxInBreaks: 0
WidescreenStoryboard: 1

[Editor]
Bookmarks: 1053,14046,26276,40034,52263,64492,78250,90480,102709,119991
DistanceSpacing: 1.4
BeatDivisor: 4
GridSize: 8
TimelineZoom: 4.899998

[Metadata]
Title:AsiaN distractive
TitleUnicode:AsiaN distractive
Artist:Nekomata Gekidan
ArtistUnicode:猫叉劇団
Creator:Kaifin
Version:Advanced
Source:beatmania IIDX 24 SINOBUZ
Tags:Pending cup #5 Garden ailv Xilver Xilver15 melloe Elsa Valentine xLolicore- z1085684963
BeatmapID:1588684
BeatmapSetID:667446

[Difficulty]
HPDrainRate:4
CircleSize:3
OverallDifficulty:5
ApproachRate:6.5
SliderMultiplier:1.2
SliderTickRate:1

[Events]
//Background and Video events
0,0,"e.jpg",0,0
//Break Periods
//Storyboard Layer 0 (Background)
//Storyboard Layer 1 (Fail)
//Storyboard Layer 2 (Pass)
//Storyboard Layer 3 (Foreground)
//Storyboard Sound Samples

[TimingPoints]
289,382.165605095541,4,1,1,50,1,0
1053,-100,4,3,1,50,0,0
1626,-100,4,3,1,70,0,0
11753,-100,4,3,1,5,0,0
11945,-100,4,2,1,70,0,0
13282,-100,4,3,1,70,0,0
37645,-100,4,3,1,5,0,0
38410,-100,4,3,1,40,0,0
38505,-100,4,3,1,70,0,0
65830,-100,4,3,1,5,0,0
66021,-100,4,3,1,70,0,0
67359,-100,4,3,1,5,0,0
67550,-100,4,3,1,70,0,0
68887,-100,4,3,1,5,0,0
69078,-100,4,3,1,70,0,0
69652,-100,4,3,1,5,0,0
69843,-100,4,3,1,70,0,0
70129,-100,4,3,1,5,0,0
70225,-100,4,3,1,70,0,0
78250,-100,4,3,1,70,0,1
88951,-100,4,3,1,70,0,0
90480,-100,4,3,1,70,0,1
102709,-100,4,3,1,70,0,0
107295,400,4,3,1,50,1,0
108095,413.793103448276,4,3,1,50,1,0
108508,417.536534446764,4,3,1,50,1,0
108821,-100,4,3,1,5,0,0
110178,428.571428571429,4,3,1,5,1,0
110606,451.127819548872,4,3,1,5,1,0
111057,461.538461538462,4,3,1,5,1,0
111518,461.538461538462,4,3,1,5,1,0
111979,500,4,3,1,50,1,0

[Colours]
Combo1 : 255,224,132
Combo2 : 255,133,74
Combo3 : 255,174,136
Combo4 : 255,159,159

[HitObjects]
312,47,1817,6,0,P|424:52|459:160,2,240,12|0|0,1:1|0:0|0:0,0:0:0:0:
168,134,3728,2,0,L|22:130,2,120,8|8|8,0:0|0:0|0:0,0:0:0:0:
327,187,4874,6,0,B|356:206|359:224|361:240|360:259|358:282|337:297|312:318|276:315|255:309|233:261|206:221|145:226|93:236|58:274|34:323|40:362|67:391,1,480,12|0,1:1|0:0,0:0:0:0:
7,209,6785,1,0,0:0:0:0:
161,131,7167,2,0,L|250:123,1,60,12|8,1:1|0:0,0:0:0:0:
295,165,7550,6,0,P|448:168|401:21,1,360,12|0,1:1|0:0,0:0:0:0:
239,66,9078,2,0,L|150:58,1,60,0|0,0:0|0:0,0:0:0:0:
95,57,9460,2,0,L|87:146,1,60,0|0,0:0|0:0,0:0:0:0:
86,201,9843,2,0,L|175:209,1,60,0|0,0:0|0:0,0:0:0:0:
230,210,10225,2,0,L|238:121,1,60,8|8,0:0|0:0,0:0:0:0:
249,66,10607,6,0,B|324:41|388:67|391:107|401:162|358:212|349:252|351:311|428:354,1,420,12|0,1:1|0:0,0:0:0:0:
495,303,12136,2,0,L|491:243,1,60,0|0,0:0|0:0,0:0:0:0:
487,159,12518,2,0,L|427:162,1,60,0|0,0:0|0:0,0:0:0:0:
343,166,12900,2,0,L|283:169,1,60,0|0,0:0|0:0,0:0:0:0:
199,173,13282,2,0,L|206:305,1,120,8|8,0:1|0:1,0:0:0:0:
57,371,14046,6,0,L|49:238,1,120,14|8,0:0|0:0,0:0:0:0:
38,83,14811,2,0,L|171:74,1,120,8|8,0:0|0:0,0:0:0:0:
325,63,15575,1,10,0:0:0:0:
432,192,15957,1,8,0:0:0:0:
335,329,16339,2,0,L|339:262,1,60,10|0,0:0|0:0,0:0:0:0:
347,185,16722,6,0,L|280:181,1,60,8|2,0:0|0:0,0:0:0:0:
203,173,17104,2,0,L|136:169,1,60,8|2,0:0|0:0,0:0:0:0:
59,161,17486,2,0,L|-7:157,1,60,8|2,0:0|0:0,0:0:0:0:
17,74,17868,6,0,P|67:44|125:52,1,120,8|8,0:0|0:0,0:0:0:0:
205,199,18632,2,0,P|263:206|313:176,1,120,8|8,0:0|0:0,0:0:0:0:
421,45,19397,1,8,0:0:0:0:
254,8,19779,6,0,L|244:153,2,120,10|8|8,0:1|0:0|0:0,0:0:0:0:
421,45,20925,2,0,L|431:190,1,120,10|8,0:1|0:0,0:0:0:0:
443,332,21690,2,0,P|386:350|331:330,1,120,10|8,0:1|0:0,0:0:0:0:
227,199,22454,1,10,0:1:0:0:
164,354,22836,6,0,L|19:344,2,120,8|8|8,0:0|0:0|0:0,0:0:0:0:
331,331,23983,1,10,0:1:0:0:
227,199,24365,1,8,0:1:0:0:
164,354,24747,1,8,0:1:0:0:
331,331,25129,1,8,0:1:0:0:
227,199,25511,2,0,L|154:194,1,60,6|2,0:1|0:0,0:0:0:0:
98,244,25894,2,0,L|25:239,1,60,6|2,0:1|0:0,0:0:0:0:
9,158,26276,6,0,P|36:106|90:85,1,120,2|0,0:1|0:0,0:0:0:0:
172,104,26849,2,0,P|226:82|252:30,1,120,2|0,0:0|0:0,0:0:0:0:
332,4,27422,2,0,L|337:77,1,60,2|0,0:1|0:0,0:0:0:0:
411,100,27804,6,0,L|401:246,1,120,2|2,0:1|0:0,0:0:0:0:
392,303,28378,2,0,L|246:292,1,120,2|0,0:0|0:0,0:0:0:0:
188,286,28951,2,0,L|192:226,1,60,2|0,0:1|0:0,0:0:0:0:
198,141,29333,6,0,P|255:129|308:154,1,120,2|2,0:1|0:0,0:0:0:0:
364,217,29906,2,0,P|421:229|474:204,1,120,2|2,0:0|0:0,0:0:0:0:
506,125,30480,2,0,L|501:65,1,60,10|2,0:1|0:0,0:0:0:0:
429,23,30862,6,0,B|387:38|387:38|344:20,2,90,10|8|6,0:1|0:0|0:1,0:0:0:0:
502,263,32008,1,2,0:1:0:0:
382,380,32390,6,0,L|236:369,1,120,2|2,0:1|0:0,0:0:0:0:
206,308,32964,2,0,L|60:318,1,120,2|2,0:0|0:0,0:0:0:0:
5,339,33537,2,0,L|10:266,1,60,2|2,0:1|0:0,0:0:0:0:
79,233,33919,6,0,L|69:87,1,120,2|2,0:1|0:0,0:0:0:0:
137,62,34492,2,0,L|268:126,1,120,2|2,0:0|0:0,0:0:0:0:
256,197,35066,2,0,L|195:237,1,60,2|0,0:1|0:0,0:0:0:0:
159,299,35448,6,0,L|224:331,1,60,10|2,0:1|0:0,0:0:0:0:
296,333,35830,2,0,L|291:259,1,60,8|2,0:1|0:0,0:0:0:0:
256,197,36212,2,0,L|317:157,1,60,2|0,0:1|0:0,0:0:0:0:
390,165,36594,2,0,L|385:238,1,60,10|2,0:1|0:0,0:0:0:0:
450,279,36976,6,0,L|457:388,2,90,10|8|6,0:1|0:0|0:1,0:0:0:0:
256,192,37741,12,8,39269,0:0:0:0:
37,313,40034,6,0,P|65:304|95:307,1,60,12|2,0:1|0:0,0:0:0:0:
164,355,40416,2,0,P|193:358|222:349,1,60,8|2,0:1|0:0,0:0:0:0:
286,295,40798,2,0,L|276:175,1,120,8|8,0:1|0:1,0:0:0:0:
126,98,41562,6,0,L|36:104,2,90,10|2|2,0:1|0:1|0:0,0:0:0:0:
210,90,42327,2,0,L|215:30,1,60,8|2,0:1|0:0,0:0:0:0:
297,13,42709,2,0,L|301:72,1,60,8|2,0:1|0:0,0:0:0:0:
360,142,43091,5,12,0:1:0:0:
426,193,43282,2,0,L|485:197,2,60,2|8|2,0:0|0:1|0:0,0:0:0:0:
348,226,43855,2,0,P|290:238|239:210,1,120,8|8,0:1|0:1,0:0:0:0:
75,248,44620,6,0,L|70:307,1,60,10|2,0:1|0:0,0:0:0:0:
136,358,45002,2,0,L|195:362,1,60,8|2,0:1|0:0,0:0:0:0:
279,367,45384,2,0,P|341:365|394:319,1,120,8|8,0:0|0:0,0:0:0:0:
432,261,45957,1,0,0:0:0:0:
445,178,46148,6,0,L|386:174,1,60,12|2,0:1|0:0,0:0:0:0:
302,167,46530,2,0,L|243:163,1,60,8|2,0:1|0:0,0:0:0:0:
158,155,46913,2,0,P|134:100|146:43,1,120,8|8,0:1|0:1,0:0:0:0:
313,24,47677,6,0,L|309:83,1,60,10|2,0:1|0:0,0:0:0:0:
302,167,48059,2,0,L|298:226,1,60,8|2,0:1|0:0,0:0:0:0:
292,310,48441,2,0,P|350:313|401:283,1,120,8|8,0:1|0:1,0:0:0:0:
450,213,49015,1,2,0:0:0:0:
492,285,49206,6,0,L|496:344,2,60,8|2|8,0:1|0:0|0:1,0:0:0:0:
450,213,49779,1,2,0:0:0:0:
497,143,49970,2,0,L|488:9,1,120,8|0,0:1|0:1,0:0:0:0:
360,131,50734,6,0,L|301:127,1,60,10|2,0:1|0:0,0:0:0:0:
217,120,51116,2,0,L|158:116,1,60,8|10,0:0|0:0,0:0:0:0:
79,147,51499,2,0,L|75:206,2,60,14|2|14,0:1|0:0|0:1,0:0:0:0:
4,297,52263,6,0,L|63:301,1,60,12|2,0:1|0:0,0:0:0:0:
143,327,52645,2,0,L|202:331,1,60,8|2,0:1|0:0,0:0:0:0:
284,349,53027,2,0,B|342:364|342:364|386:323,1,120,8|8,0:1|0:1,0:0:0:0:
479,183,53792,6,0,L|469:76,2,90,10|2|2,0:1|0:1|0:0,0:0:0:0:
419,242,54556,2,0,L|351:235,1,60,8|2,0:1|0:0,0:0:0:0:
282,201,54938,2,0,L|214:195,1,60,8|2,0:1|0:0,0:0:0:0:
143,166,55320,5,12,0:1:0:0:
62,143,55511,2,0,L|57:83,2,60,2|8|2,0:0|0:1|0:0,0:0:0:0:
14,212,56085,2,0,B|39:251|39:251|114:245,1,120,8|8,0:1|0:1,0:0:0:0:
278,219,56849,6,0,L|273:279,1,60,10|2,0:1|0:0,0:0:0:0:
204,327,57231,2,0,L|144:322,1,60,8|2,0:1|0:0,0:0:0:0:
112,245,57613,2,0,L|117:185,1,60,8|2,0:0|0:0,0:0:0:0:
182,132,57995,2,0,L|242:137,1,60,8|8,0:0|0:0,0:0:0:0:
278,219,58378,6,0,L|273:279,1,60,12|2,0:1|0:0,0:0:0:0:
204,327,58760,2,0,L|144:322,1,60,8|2,0:1|0:0,0:0:0:0:
63,298,59142,2,0,L|53:178,1,120,8|8,0:1|0:1,0:0:0:0:
100,17,59906,6,0,P|132:7|164:14,1,60,10|2,0:1|0:0,0:0:0:0:
232,50,60288,2,0,P|261:54|289:44,1,60,8|2,0:1|0:0,0:0:0:0:
365,8,60671,2,0,P|389:62|384:121,1,120,8|8,0:1|0:1,0:0:0:0:
339,192,61244,1,2,0:0:0:0:
262,156,61435,6,0,L|202:161,2,60,8|2|8,0:1|0:0|0:1,0:0:0:0:
339,192,62008,1,2,0:0:0:0:
268,238,62199,2,0,L|148:248,1,120,8|8,0:1|0:1,0:0:0:0:
86,305,62773,1,2,0:0:0:0:
156,351,62964,6,0,L|216:346,1,60,10|2,0:1|0:0,0:0:0:0:
299,337,63346,2,0,L|359:332,1,60,8|2,0:1|0:0,0:0:0:0:
442,323,63728,2,0,L|437:263,2,60,14|12|14,0:1|0:1|0:1,0:0:0:0:
499,165,64492,6,0,B|446:131|414:128|385:129|356:144|335:170|311:222|279:208|238:213|193:191|175:167|180:132|174:114|183:92|211:60,1,420,4|0,0:0|0:0,0:0:0:0:
266,32,66021,6,0,B|224:-15|171:-16|131:1|114:37|102:62|84:88|83:142|123:189|132:209|114:222|98:267|53:291,1,420,4|0,0:0|0:0,0:0:0:0:
46,359,67550,6,0,P|222:276|190:72,1,420,4|0,0:0|0:0,0:0:0:0:
119,51,69078,6,0,L|101:240,1,180,4|0,0:0|0:0,0:0:0:0:
166,284,69843,2,0,L|285:272,1,120,4|8,0:0|0:0,0:0:0:0:
360,311,70416,1,2,0:0:0:0:
427,260,70607,6,0,L|438:140,2,120,14|8|8,0:1|0:0|0:1,0:0:0:0:
286,351,71753,1,8,0:0:0:0:
140,267,72136,6,0,L|20:255,2,120,10|0|8,0:1|0:0|0:1,0:0:0:0:
286,184,73282,1,8,0:0:0:0:
165,66,73664,6,0,L|153:185,1,120,10|8,0:1|0:0,0:0:0:0:
54,321,74429,2,0,L|42:201,1,120,8|8,0:1|0:0,0:0:0:0:
21,34,75193,5,10,0:1:0:0:
188,44,75575,1,8,0:0:0:0:
355,54,75957,6,0,L|349:113,1,60,8|2,0:0|0:0,0:0:0:0:
427,143,76339,2,0,L|432:83,1,60,8|8,0:0|0:0,0:0:0:0:
432,83,77868,2,0,L|427:143,1,60,2|2,0:1|0:1,0:0:0:0:
412,225,78250,6,0,L|352:219,1,60,14|2,0:1|0:0,0:0:0:0:
270,204,78632,2,0,L|275:144,1,60,10|2,0:1|0:0,0:0:0:0:
291,62,79015,2,0,L|350:67,2,60,10|2|10,0:1|0:1|0:1,0:0:0:0:
207,54,79588,1,2,0:0:0:0:
123,45,79779,6,0,L|117:104,1,60,10|2,0:1|0:0,0:0:0:0:
66,171,80161,2,0,L|60:230,1,60,10|2,0:1|0:0,0:0:0:0:
9,297,80543,2,0,L|3:356,2,60,10|2|10,0:1|0:1|0:1,0:0:0:0:
92,308,81117,1,2,0:0:0:0:
174,323,81308,6,0,L|233:317,1,60,10|2,0:1|0:0,0:0:0:0:
314,341,81690,2,0,L|373:335,1,60,10|2,0:1|0:0,0:0:0:0:
456,350,82072,2,0,L|461:290,2,60,10|2|10,0:1|0:0|0:1,0:0:0:0:
373,335,82645,1,2,0:0:0:0:
386,252,82836,6,0,L|391:192,1,60,10|2,0:1|0:1,0:0:0:0:
468,157,83218,2,0,L|462:97,1,60,10|2,0:1|0:1,0:0:0:0:
405,33,83601,2,0,P|347:31|301:67,1,120,10|10,0:1|0:1,0:0:0:0:
266,143,84174,1,10,0:0:0:0:
218,73,84365,6,0,P|185:63|147:74,1,60,10|2,0:1|0:0,0:0:0:0:
93,117,84747,2,0,P|83:150|94:188,1,60,10|2,0:1|0:0,0:0:0:0:
154,224,85129,2,0,L|213:218,2,60,10|2|10,0:1|0:1|0:1,0:0:0:0:
98,287,85703,1,2,0:0:0:0:
16,265,85894,6,0,L|10:205,1,60,10|2,0:1|0:0,0:0:0:0:
87,174,86276,2,0,L|92:114,1,60,10|2,0:1|0:0,0:0:0:0:
151,54,86658,2,0,B|188:53|188:53|231:63|231:63|269:62,1,120,10|10,0:1|0:1,0:0:0:0:
353,56,87231,1,2,0:0:0:0:
436,45,87422,6,0,L|448:179,1,120,10|10,0:1|0:1,0:0:0:0:
281,181,88187,2,0,L|268:46,1,120,10|10,0:1|0:1,0:0:0:0:
436,45,88951,6,0,L|442:112,1,60,10|2,0:1|0:1,0:0:0:0:
449,188,89333,2,0,L|382:194,1,60,10|2,0:1|0:1,0:0:0:0:
306,201,89715,2,0,L|300:134,1,60,8|10,0:1|0:0,0:0:0:0:
293,58,90097,2,0,L|360:52,1,60,10|2,0:1|0:0,0:0:0:0:
436,45,90480,6,0,L|442:112,1,60,14|2,0:1|0:0,0:0:0:0:
449,188,90862,2,0,L|455:255,1,60,10|2,0:1|0:0,0:0:0:0:
383,293,91244,2,0,L|323:298,2,60,10|2|10,0:1|0:1|0:1,0:0:0:0:
460,326,91817,1,2,0:0:0:0:
393,376,92008,6,0,L|333:381,1,60,10|2,0:1|0:0,0:0:0:0:
256,347,92390,2,0,L|196:342,1,60,10|2,0:1|0:0,0:0:0:0:
113,357,92773,2,0,L|53:362,2,60,10|2|10,0:1|0:1|0:1,0:0:0:0:
196,342,93346,1,2,0:0:0:0:
237,268,93537,6,0,L|232:208,1,60,10|2,0:1|0:0,0:0:0:0:
154,176,93919,2,0,L|149:236,1,60,10|2,0:1|0:0,0:0:0:0:
68,259,94301,2,2,L|63:199,1,60,10|0,0:1|0:0,0:0:0:0:
53,115,94683,2,0,L|48:55,1,60,10|2,0:1|0:0,0:0:0:0:
129,31,95066,6,0,L|189:36,1,60,10|2,0:1|0:1,0:0:0:0:
273,46,95448,2,0,L|333:51,1,60,10|2,0:1|0:1,0:0:0:0:
416,60,95830,2,0,P|438:114|426:172,1,120,10|10,0:1|0:1,0:0:0:0:
359,223,96403,1,8,0:0:0:0:
292,172,96594,6,0,L|232:167,1,60,14|2,0:1|0:0,0:0:0:0:
148,162,96976,2,0,L|143:222,1,60,10|2,0:1|0:0,0:0:0:0:
138,306,97359,2,0,L|198:311,2,60,10|2|10,0:1|0:1|0:1,0:0:0:0:
69,257,97932,1,2,0:0:0:0:
10,196,98123,6,0,L|15:136,1,60,10|2,0:1|0:0,0:0:0:0:
72,75,98505,2,0,L|132:80,1,60,10|2,0:1|0:0,0:0:0:0:
148,162,98887,2,0,L|138:282,1,120,10|10,0:1|0:1,0:0:0:0:
69,330,99460,1,2,0:0:0:0:
146,364,99652,6,0,P|204:370|256:342,1,120,10|10,0:1|0:1,0:0:0:0:
327,190,100416,2,0,P|385:183|437:211,1,120,10|10,0:1|0:1,0:0:0:0:
506,364,101180,6,0,L|446:359,1,60,10|2,0:1|0:1,0:0:0:0:
375,313,101562,2,0,L|315:308,1,60,10|2,0:1|0:1,0:0:0:0:
244,262,101945,2,0,L|184:257,1,60,10|2,0:0|0:1,0:0:0:0:
113,211,102327,2,0,L|53:206,1,60,10|8,0:0|0:0,0:0:0:0:
16,130,102709,6,0,P|80:37|192:59,2,240,14|0|0,0:1|0:0|0:0,0:0:0:0:
154,225,104620,2,0,L|300:221,2,120,8|8|8,0:0|0:0|0:0,0:0:0:0:
53,359,105766,6,0,B|48:341|46:310|70:261|105:223|157:213|218:208|245:248|267:296|288:302|324:305|349:284|370:269|376:250|382:235|380:216|380:199|364:171,1,480,12|0,0:1|0:0,0:0:0:0:
86,38,108095,6,0,L|73:157,1,120,12|12,0:1|0:1,0:0:0:0:
256,192,108716,12,12,111979,0:1:0:0:
