osu file format v14

[General]
AudioFilename: audio.mp3
AudioLeadIn: 0
PreviewTime: -1
Countdown: 1
SampleSet: Soft
StackLeniency: 0.4
Mode: 0
LetterboxInBreaks: 0
WidescreenStoryboard: 1

[Editor]
Bookmarks: 26276,40034,52263,64492,78250,119991
DistanceSpacing: 0.9
BeatDivisor: 4
GridSize: 8
TimelineZoom: 1.2

[Metadata]
Title:AsiaN distractive
TitleUnicode:AsiaN distractive
Artist:Nekomata Gekidan
ArtistUnicode:猫叉劇団
Creator:Ellyu
Version:Normal
Source:beatmania IIDX 24 SINOBUZ
Tags:Pending cup #5
BeatmapID:1434269
BeatmapSetID:667169

[Difficulty]
HPDrainRate:5
CircleSize:3
OverallDifficulty:6
ApproachRate:8
SliderMultiplier:1.2
SliderTickRate:1

[Events]
//Background and Video events
0,0,"60619514_p0.png",0,0
//Break Periods
2,37749,39284
2,64692,69857
//Storyboard Layer 0 (Background)
//Storyboard Layer 1 (Fail)
//Storyboard Layer 2 (Pass)
//Storyboard Layer 3 (Foreground)
//Storyboard Sound Samples

[TimingPoints]
289,382.165605095541,4,2,0,55,1,0
1053,-100,4,2,2,55,0,0
1817,-100,4,2,2,55,0,0
3728,-100,4,2,2,55,0,0
4874,-100,4,2,2,55,0,0
7167,-100,4,2,2,55,0,0
7550,-100,4,2,2,55,0,0
10225,-100,4,2,2,55,0,0
10607,-100,4,2,2,55,0,0
13282,-100,4,2,2,55,0,0
13664,-100,4,2,2,55,0,0
14046,-100,4,2,2,55,0,0
24747,-100,4,2,2,55,0,0
26276,-100,4,2,1,55,0,0
26849,-100,4,2,1,55,0,0
27804,-100,4,2,1,55,0,0
28377,-100,4,2,1,55,0,0
29333,-100,4,2,1,55,0,0
29906,-100,4,2,1,55,0,0
30862,-100,4,2,1,55,0,0
31435,-100,4,2,1,55,0,0
32008,-100,4,2,1,55,0,0
32390,-100,4,2,1,55,0,0
32963,-100,4,2,1,55,0,0
33919,-100,4,2,1,55,0,0
34492,-100,4,2,1,55,0,0
35448,-100,4,2,1,55,0,0
37550,-100,4,2,1,55,0,0
39652,-100,4,2,1,55,0,0
40034,-100,4,2,2,55,0,0
51499,-100,4,2,1,55,0,0
52263,-100,4,2,2,55,0,0
63728,-100,4,2,1,55,0,0
64492,-100,4,2,3,55,0,0
69078,-100,4,2,3,55,0,0
69843,-100,4,2,3,55,0,0
70225,-100,4,2,1,55,0,0
77868,-100,4,2,1,55,0,0
78250,-100,4,1,1,65,0,1
82836,-100,4,2,2,65,0,1
84365,-100,4,1,1,65,0,1
87422,-100,4,2,2,65,0,1
90480,-100,4,1,1,65,0,1
93537,-100,4,2,2,65,0,1
96594,-100,4,1,1,65,0,1
99652,-100,4,2,2,65,0,1
102709,-100,4,2,2,55,0,0
103473,-100,4,2,2,55,0,0
104238,-100,4,2,2,55,0,0
104620,-100,4,2,2,55,0,0
107295,400,4,2,2,55,1,0
108095,428.571428571429,4,2,2,55,1,0
108095,-100,4,2,2,55,0,0
108523,413.793103448276,4,2,2,55,1,0
108523,-100,4,2,2,55,0,0
110178,428.571428571429,4,2,2,55,1,0
110606,444.444444444444,4,2,2,55,1,0
111050,461.538461538462,4,2,2,55,1,0
111511,480,4,2,2,55,1,0
111991,500,4,2,2,55,1,0
111991,-100,4,2,2,45,0,0
115991,-100,4,2,2,40,0,0
116491,-100,4,2,2,35,0,0
116991,-100,4,2,2,30,0,0
117491,-100,4,2,2,25,0,0
117991,-100,4,2,2,20,0,0
118491,-100,4,2,2,15,0,0
118991,-100,4,2,2,10,0,0
119491,-100,4,2,2,5,0,0

[Colours]
Combo1 : 255,217,100
Combo2 : 123,255,123
Combo3 : 121,182,255
Combo4 : 247,113,133

[HitObjects]
104,136,1817,6,0,P|152:112|216:128,1,120
273,217,2581,2,0,L|416:209,1,120
368,315,3346,2,0,L|243:305,1,120
143,329,4110,1,0,0:0:0:0:
82,239,4492,1,0,0:0:0:0:
128,141,4874,6,0,P|205:144|234:108,1,120
307,39,5639,2,0,L|377:31,2,60
320,146,6403,2,0,L|390:140,2,60
336,252,7167,5,0,0:0:0:0:
242,304,7550,1,0,0:0:0:0:
49,115,8505,1,0,0:0:0:0:
49,115,8696,2,0,P|93:141|168:100,1,120
211,28,9460,2,0,L|151:28,2,60
0,45,10225,5,0,0:0:0:0:
17,151,10607,1,0,0:0:0:0:
387,224,11945,2,0,L|308:244,1,60
292,278,12327,2,0,L|224:269,1,60
179,277,12709,2,0,P|156:314|163:353,2,60
157,227,13282,6,0,L|15:238,2,120
284,127,14620,1,0,0:0:0:0:
284,127,14811,1,0,0:0:0:0:
439,173,15384,1,0,0:0:0:0:
439,173,15575,1,0,0:0:0:0:
280,205,16148,1,0,0:0:0:0:
280,205,16339,1,0,0:0:0:0:
377,252,16722,6,0,L|382:376,2,120
349,205,17677,1,0,0:0:0:0:
301,178,17868,2,0,P|255:176|228:184,2,60
235,92,18632,2,0,P|202:97|161:125,2,60
321,27,19397,5,0,0:0:0:0:
339,133,19779,2,0,B|426:127|426:127|468:103,2,120
285,136,20734,1,0,0:0:0:0:
285,136,20925,1,0,0:0:0:0:
172,252,21499,1,0,0:0:0:0:
172,252,21690,1,0,0:0:0:0:
333,236,22263,1,0,0:0:0:0:
333,236,22454,1,0,0:0:0:0:
263,318,22836,6,0,P|213:324|139:278,2,120
299,277,23792,1,0,0:0:0:0:
348,254,23983,2,0,P|393:258|451:324,1,120
447,199,24747,2,0,L|459:127,1,60
411,110,25129,2,0,L|399:38,1,60
355,22,25511,5,0,0:0:0:0:
255,63,25894,1,0,0:0:0:0:
151,32,26276,6,0,P|106:50|82:138,1,120
117,147,26849,2,0,B|101:221|101:221|47:249|45:320,1,180
152,314,27804,6,0,L|279:305,1,120
299,258,28378,2,0,L|477:285,1,180
425,189,29333,6,0,B|420:131|420:131|442:68,1,120
398,38,29906,2,0,P|348:32|300:147,1,180
189,97,30862,6,0,P|154:76|39:147,2,180
153,199,32390,6,0,P|171:228|136:313,1,120
108,342,32964,2,0,L|305:317,1,180
328,219,33919,6,0,P|255:193|206:208,1,120
177,240,34492,2,0,B|110:243|110:243|68:230|68:230|-2:234,1,180
14,126,35448,6,0,L|2:4,1,120
49,33,36021,2,0,P|116:66|223:22,1,180
319,39,36976,6,0,P|371:24|445:116,1,180
203,287,40034,6,0,P|179:248|91:231,1,120
30,154,40798,2,0,L|48:11,1,120
152,33,41562,2,0,P|180:61|309:48,1,180
360,30,42327,2,0,L|490:37,1,120
442,194,43282,6,0,L|519:198,2,60
399,161,43855,2,0,P|359:200|283:203,1,120
206,148,44620,2,0,P|170:169|157:204,1,60
107,179,45002,2,0,P|85:223|89:244,1,60
59,279,45384,2,0,L|203:270,1,120
266,334,46148,6,0,P|317:324|385:269,1,120
471,328,46913,2,0,L|465:191,1,120
395,125,47677,2,0,P|347:132|325:125,1,60
316,79,48059,2,0,P|268:72|246:79,1,60
228,119,48441,2,0,P|185:122|113:96,1,120
46,181,49206,6,0,P|77:206|96:295,1,120
201,312,49970,2,0,L|338:309,1,120
425,283,50734,1,0,0:0:0:0:
452,178,51117,1,0,0:0:0:0:
391,88,51499,1,0,0:0:0:0:
288,53,51881,1,0,0:0:0:0:
180,57,52263,6,0,P|126:66|90:127,1,120
53,218,53027,2,0,L|198:205,1,120
280,196,53792,2,0,P|329:241|294:351,1,180
253,329,54556,2,0,L|117:316,1,120
126,155,55511,6,0,P|96:139|48:138,2,60
153,108,56085,2,0,P|208:110|282:83,1,120
361,34,56849,2,0,L|371:100,1,60
421,109,57231,2,0,L|411:175,1,60
362,188,57613,2,0,P|335:246|367:315,1,120
458,305,58378,6,0,P|478:245|454:186,1,120
446,86,59142,2,0,L|314:74,1,120
228,30,59906,2,0,L|163:47,1,60
138,89,60288,2,0,L|62:73,1,60
39,113,60671,2,0,B|30:163|30:163|53:245,1,120
143,281,61435,6,0,P|188:245|266:248,1,120
318,323,62199,2,0,B|365:333|365:333|448:318,1,120
463,215,62964,1,0,0:0:0:0:
371,157,63346,1,0,0:0:0:0:
317,63,63728,1,0,0:0:0:0:
209,54,64110,1,0,0:0:0:0:
137,134,64492,5,0,0:0:0:0:
119,96,70607,6,0,L|251:84,2,120
63,188,71753,1,0,0:0:0:0:
170,195,72136,6,0,L|302:183,2,120
114,287,73282,1,0,0:0:0:0:
210,335,73664,6,0,P|277:299|333:306,1,120
371,316,74238,1,0,0:0:0:0:
422,333,74429,2,0,L|405:192,1,120
485,139,75193,6,0,L|493:13,1,120
438,23,75766,1,0,0:0:0:0:
385,37,75957,2,0,P|335:56|311:79,1,60
301,105,76339,2,0,P|292:146|299:173,1,60
149,71,78250,6,0,L|282:45,2,120
129,177,79397,2,0,P|141:221|128:250,1,60
91,262,79779,2,0,P|81:315|102:388,2,120
196,287,80925,2,0,L|256:272,1,60
285,228,81308,6,0,L|426:249,2,120
255,124,82454,2,0,P|256:80|269:66,1,60
234,24,82836,2,0,L|371:19,1,120
399,49,83410,1,0,0:0:0:0:
436,88,83601,2,0,P|451:138|415:205,1,120
324,238,84365,6,0,L|183:216,2,120
429,260,85511,2,0,P|413:304|384:327,1,60
366,352,85894,2,0,L|225:330,2,120
321,253,87040,2,0,P|267:191|222:197,1,120
167,275,87804,5,0,0:0:0:0:
60,254,88187,2,0,B|23:206|23:206|42:121,1,120
142,130,88951,5,0,0:0:0:0:
211,47,89333,1,0,0:0:0:0:
316,25,89715,1,0,0:0:0:0:
419,54,90097,2,0,P|440:93|434:114,1,60
405,150,90480,6,0,B|394:202|394:202|399:240|399:240|390:274,2,120
274,155,91626,2,0,P|234:172|212:171,1,60
179,134,92008,2,0,P|136:111|94:24,2,120
159,240,93155,2,0,L|152:306,1,60
113,336,93537,6,0,L|241:327,1,120
275,360,94110,1,0,0:0:0:0:
313,322,94301,2,0,L|448:311,1,120
468,210,95066,2,0,L|465:136,1,60
415,129,95448,2,0,L|412:55,1,60
369,36,95830,2,0,P|312:64|240:46,1,120
205,42,96403,1,0,0:0:0:0:
154,61,96594,6,0,L|110:198,2,120
216,149,97741,2,0,P|220:194|207:206,1,60
204,255,98123,2,0,P|262:242|327:285,2,120
249,353,99269,2,0,L|124:345,1,120
58,263,100034,5,0,0:0:0:0:
51,155,100416,2,0,L|79:27,1,120
184,36,101180,2,0,P|289:26|182:132,1,360
157,243,102709,5,0,0:0:0:0:
316,268,103282,1,0,0:0:0:0:
316,268,103473,1,0,0:0:0:0:
420,144,104046,1,0,0:0:0:0:
420,144,104238,1,0,0:0:0:0:
238,26,105002,2,0,P|185:75|197:128,2,120
395,62,106339,5,0,0:0:0:0:
395,62,106531,2,0,L|320:53,2,60
451,148,107295,2,0,L|526:139,2,60
350,154,108095,6,0,P|322:206|330:275,1,120
66,340,109557,1,0,0:0:0:0:
66,340,109764,1,0,0:0:0:0:
101,241,110178,2,0,L|84:166,1,60
120,142,110606,2,0,L|127:73,1,60
177,74,111050,2,0,L|213:7,1,60
257,24,111511,6,0,L|268:158,1,120
