osu file format v14

[General]
AudioFilename: audio.mp3
AudioLeadIn: 0
PreviewTime: -1
Countdown: 1
SampleSet: Normal
StackLeniency: 0.2
Mode: 1
LetterboxInBreaks: 0
WidescreenStoryboard: 1

[Editor]
Bookmarks: 26276,40034,52263,64492,78250,119991
DistanceSpacing: 1.1
BeatDivisor: 4
GridSize: 8
TimelineZoom: 1.8

[Metadata]
Title:AsiaN distractive
TitleUnicode:AsiaN distractive
Artist:Nekomata Gekidan
ArtistUnicode:猫叉劇団
Creator:Ellyu
Version:Muzukashii
Source:beatmania IIDX 24 SINOBUZ
Tags:Pending cup #5
BeatmapID:1416303
BeatmapSetID:667169

[Difficulty]
HPDrainRate:5
CircleSize:4.5
OverallDifficulty:5
ApproachRate:9.2
SliderMultiplier:1.4
SliderTickRate:1

[Events]
//Background and Video events
0,0,"bg_taiko.jpg",0,0
//Break Periods
//Storyboard Layer 0 (Background)
//Storyboard Layer 1 (Fail)
//Storyboard Layer 2 (Pass)
//Storyboard Layer 3 (Foreground)
//Storyboard Sound Samples

[TimingPoints]
289,382.165605095541,4,1,0,55,1,0
107295,400,4,1,0,55,1,0
108095,428.571428571429,4,1,0,55,1,0
108523,413.793103448276,4,1,0,55,1,0
110178,428.571428571429,4,1,0,55,1,0
110606,444.444444444444,4,1,0,55,1,0
111050,461.538461538462,4,1,0,55,1,0
111511,480,4,1,0,55,1,0
111991,500,4,1,0,55,1,0

[Colours]
Combo1 : 255,217,100
Combo2 : 123,255,123
Combo3 : 121,182,255
Combo4 : 247,113,133

[HitObjects]
248,176,1626,5,0,0:0:0:0:
248,176,1817,1,12,0:0:0:0:
248,176,2390,1,8,0:0:0:0:
248,176,2581,1,8,0:0:0:0:
240,176,3155,1,8,0:0:0:0:
240,176,3346,1,0,0:0:0:0:
240,176,3919,1,0,0:0:0:0:
240,176,4110,1,0,0:0:0:0:
232,168,4492,1,8,0:0:0:0:
240,176,4874,1,4,0:0:0:0:
176,176,5448,1,0,0:0:0:0:
176,176,5639,1,0,0:0:0:0:
184,184,5830,1,0,0:0:0:0:
176,184,6021,1,8,0:0:0:0:
175,182,6212,1,8,0:0:0:0:
184,184,6403,1,0,0:0:0:0:
184,184,6594,1,0,0:0:0:0:
176,184,6785,1,8,0:0:0:0:
184,168,6976,1,8,0:0:0:0:
176,184,7167,1,4,0:0:0:0:
176,184,7550,1,4,0:0:0:0:
280,216,8505,1,0,0:0:0:0:
280,216,8696,1,0,0:0:0:0:
280,216,9078,1,0,0:0:0:0:
304,216,9269,1,8,0:0:0:0:
304,216,9460,1,0,0:0:0:0:
201,201,9652,1,0,0:0:0:0:
304,216,9843,1,8,0:0:0:0:
304,216,10034,1,8,0:0:0:0:
304,216,10225,1,4,0:0:0:0:
304,216,10607,1,12,0:0:0:0:
304,216,11945,1,0,0:0:0:0:
304,216,12136,1,8,0:0:0:0:
304,216,12327,1,0,0:0:0:0:
304,216,12518,1,0,0:0:0:0:
304,216,12709,1,8,0:0:0:0:
304,216,12900,1,8,0:0:0:0:
304,216,13091,1,0,0:0:0:0:
304,216,13282,1,12,0:0:0:0:
304,216,13664,1,4,0:0:0:0:
304,216,14046,1,12,0:0:0:0:
294,216,14429,1,0,0:0:0:0:
312,224,14620,1,0,0:0:0:0:
294,216,14715,1,0,0:0:0:0:
312,216,14811,1,8,0:0:0:0:
312,208,15193,1,0,0:0:0:0:
312,208,15384,1,0,0:0:0:0:
312,208,15480,1,0,0:0:0:0:
312,208,15575,1,0,0:0:0:0:
304,200,15957,1,0,0:0:0:0:
304,200,16148,1,8,0:0:0:0:
304,200,16244,1,8,0:0:0:0:
320,200,16339,1,8,0:0:0:0:
320,200,16722,1,0,0:0:0:0:
328,192,17104,1,8,0:0:0:0:
336,200,17486,1,0,0:0:0:0:
336,208,17677,1,0,0:0:0:0:
336,200,17773,1,0,0:0:0:0:
336,200,17868,1,0,0:0:0:0:
357,202,18059,1,0,0:0:0:0:
344,208,18250,1,8,0:0:0:0:
344,208,18441,1,8,0:0:0:0:
344,200,18632,1,0,0:0:0:0:
352,200,18824,1,8,0:0:0:0:
352,200,19015,1,8,0:0:0:0:
344,200,19207,1,8,0:0:0:0:
368,192,19397,1,4,0:0:0:0:
342,179,19779,1,8,0:0:0:0:
176,160,19970,1,0,0:0:0:0:
342,178,20066,1,0,0:0:0:0:
342,179,20161,1,0,0:0:0:0:
342,179,20543,1,8,0:0:0:0:
176,160,20734,1,0,0:0:0:0:
160,176,20830,1,0,0:0:0:0:
176,160,20925,1,8,0:0:0:0:
176,160,21308,1,8,0:0:0:0:
176,160,21499,1,0,0:0:0:0:
176,160,21594,1,0,0:0:0:0:
176,160,21690,1,8,0:0:0:0:
176,160,22072,1,0,0:0:0:0:
176,160,22263,1,8,0:0:0:0:
176,160,22359,1,8,0:0:0:0:
176,160,22454,1,8,0:0:0:0:
176,160,22836,1,0,0:0:0:0:
176,160,23027,1,0,0:0:0:0:
176,160,23123,1,0,0:0:0:0:
176,160,23218,1,0,0:0:0:0:
176,160,23410,1,0,0:0:0:0:
176,160,23601,1,0,0:0:0:0:
176,160,23792,1,0,0:0:0:0:
176,160,23887,1,0,0:0:0:0:
176,160,23983,1,8,0:0:0:0:
168,168,24365,1,0,0:0:0:0:
168,168,24556,1,0,0:0:0:0:
184,168,24747,1,8,0:0:0:0:
184,168,24938,1,0,0:0:0:0:
184,168,25129,1,8,0:0:0:0:
184,184,25320,1,8,0:0:0:0:
184,184,25511,1,4,0:0:0:0:
184,184,25894,1,4,0:0:0:0:
184,184,26276,1,8,0:0:0:0:
184,184,26562,1,8,0:0:0:0:
184,184,26658,1,8,0:0:0:0:
192,184,26849,1,0,0:0:0:0:
184,184,27136,1,8,0:0:0:0:
184,184,27231,1,8,0:0:0:0:
192,184,27422,1,0,0:0:0:0:
192,184,27613,1,0,0:0:0:0:
192,184,27804,1,8,0:0:0:0:
184,184,28091,1,8,0:0:0:0:
184,184,28187,1,8,0:0:0:0:
184,184,28378,1,0,0:0:0:0:
192,184,28664,1,8,0:0:0:0:
184,184,28760,1,8,0:0:0:0:
192,184,28951,1,0,0:0:0:0:
192,184,29142,1,0,0:0:0:0:
192,184,29333,1,8,0:0:0:0:
184,184,29620,1,8,0:0:0:0:
184,184,29716,1,8,0:0:0:0:
178,192,29906,1,0,0:0:0:0:
184,184,30194,1,8,0:0:0:0:
184,184,30289,1,8,0:0:0:0:
192,184,30480,1,0,0:0:0:0:
192,184,30671,1,0,0:0:0:0:
192,184,30862,1,8,0:0:0:0:
192,184,30957,1,8,0:0:0:0:
192,184,31053,1,8,0:0:0:0:
192,192,31148,1,8,0:0:0:0:
192,192,31244,1,8,0:0:0:0:
192,184,31435,1,4,0:0:0:0:
192,184,31817,1,0,0:0:0:0:
192,184,32008,1,12,0:0:0:0:
192,184,32390,1,8,0:0:0:0:
192,184,32677,1,8,0:0:0:0:
192,184,32773,1,8,0:0:0:0:
192,184,32964,1,0,0:0:0:0:
200,176,33155,1,8,0:0:0:0:
192,184,33250,1,8,0:0:0:0:
201,180,33346,1,8,0:0:0:0:
192,184,33537,1,0,0:0:0:0:
192,184,33728,1,0,0:0:0:0:
192,184,33919,1,8,0:0:0:0:
192,184,34206,1,8,0:0:0:0:
192,184,34301,1,8,0:0:0:0:
192,184,34492,1,0,0:0:0:0:
192,184,34683,1,8,0:0:0:0:
192,184,34779,1,8,0:0:0:0:
192,184,34874,1,8,0:0:0:0:
192,184,35066,1,0,0:0:0:0:
192,184,35257,1,0,0:0:0:0:
192,184,35448,1,8,0:0:0:0:
192,184,35734,1,8,0:0:0:0:
192,184,35830,1,8,0:0:0:0:
192,184,36021,1,0,0:0:0:0:
192,184,36212,1,8,0:0:0:0:
184,176,36308,1,8,0:0:0:0:
200,184,36403,1,8,0:0:0:0:
200,184,36594,1,0,0:0:0:0:
184,176,36785,1,0,0:0:0:0:
184,176,36976,1,8,0:0:0:0:
184,176,37167,1,0,0:0:0:0:
184,176,37263,1,0,0:0:0:0:
184,176,37359,1,0,0:0:0:0:
184,176,37550,1,8,0:0:0:0:
264,184,39652,5,8,0:0:0:0:
264,184,39843,1,8,0:0:0:0:
264,184,40034,1,4,0:0:0:0:
272,184,40225,1,8,0:0:0:0:
288,192,40607,1,0,0:0:0:0:
288,192,40798,1,8,0:0:0:0:
288,192,41180,1,0,0:0:0:0:
288,192,41371,1,0,0:0:0:0:
296,192,41562,1,8,0:0:0:0:
296,192,41753,1,0,0:0:0:0:
296,192,42136,1,8,0:0:0:0:
296,192,42327,1,0,0:0:0:0:
296,192,42518,1,0,0:0:0:0:
296,192,42709,1,8,0:0:0:0:
273,186,42900,1,0,0:0:0:0:
296,192,43282,1,0,0:0:0:0:
296,192,43473,1,8,0:0:0:0:
296,192,43664,1,8,0:0:0:0:
296,200,43855,1,0,0:0:0:0:
296,200,44238,1,0,0:0:0:0:
296,200,44429,1,8,0:0:0:0:
296,200,44620,1,0,0:0:0:0:
296,200,44811,1,0,0:0:0:0:
296,200,45002,1,8,0:0:0:0:
296,200,45193,1,8,0:0:0:0:
296,200,45384,1,0,0:0:0:0:
296,200,45480,1,0,0:0:0:0:
296,200,45575,1,0,0:0:0:0:
296,200,45766,1,8,0:0:0:0:
296,200,45957,1,8,0:0:0:0:
296,200,46148,1,0,0:0:0:0:
296,200,46339,1,8,0:0:0:0:
296,200,46722,1,0,0:0:0:0:
296,200,46913,1,8,0:0:0:0:
290,190,47295,1,0,0:0:0:0:
290,190,47486,1,0,0:0:0:0:
290,190,47677,1,8,0:0:0:0:
290,190,47868,1,0,0:0:0:0:
290,190,48059,1,8,0:0:0:0:
290,190,48250,1,0,0:0:0:0:
290,190,48441,1,8,0:0:0:0:
290,190,48824,1,8,0:0:0:0:
290,190,49015,1,0,0:0:0:0:
290,190,49206,1,0,0:0:0:0:
290,190,49397,1,8,0:0:0:0:
290,190,49492,1,8,0:0:0:0:
290,190,49588,1,8,0:0:0:0:
290,190,49779,1,0,0:0:0:0:
290,190,49970,1,8,0:0:0:0:
287,190,50352,1,0,0:0:0:0:
287,190,50448,1,0,0:0:0:0:
287,190,50543,1,0,0:0:0:0:
290,190,50734,1,0,0:0:0:0:
290,190,50925,1,8,0:0:0:0:
290,190,51117,1,0,0:0:0:0:
287,190,51308,1,8,0:0:0:0:
287,190,51499,1,0,0:0:0:0:
287,190,51881,1,4,0:0:0:0:
290,175,52263,1,4,0:0:0:0:
296,192,52454,1,8,0:0:0:0:
290,190,52645,1,8,0:0:0:0:
296,192,52836,1,0,0:0:0:0:
290,190,53027,1,8,0:0:0:0:
296,192,53410,1,0,0:0:0:0:
290,190,53601,1,0,0:0:0:0:
296,192,53792,1,8,0:0:0:0:
290,190,53983,1,0,0:0:0:0:
296,192,54365,1,8,0:0:0:0:
290,190,54556,1,0,0:0:0:0:
296,192,54747,1,0,0:0:0:0:
290,190,54938,1,8,0:0:0:0:
296,192,55129,1,0,0:0:0:0:
289,184,55511,1,0,0:0:0:0:
292,184,55703,1,8,0:0:0:0:
292,184,55894,1,0,0:0:0:0:
293,184,55989,1,0,0:0:0:0:
293,184,56085,1,0,0:0:0:0:
295,184,56467,1,8,0:0:0:0:
292,184,56658,1,8,0:0:0:0:
292,184,56849,1,0,0:0:0:0:
276,183,57040,1,8,0:0:0:0:
273,182,57231,1,0,0:0:0:0:
276,183,57422,1,8,0:0:0:0:
288,174,57613,1,0,0:0:0:0:
289,174,57709,1,0,0:0:0:0:
296,171,57804,1,0,0:0:0:0:
298,171,57996,1,8,0:0:0:0:
299,171,58187,1,8,0:0:0:0:
302,172,58378,1,0,0:0:0:0:
305,157,58569,1,8,0:0:0:0:
304,160,58951,1,0,0:0:0:0:
304,160,59142,1,8,0:0:0:0:
305,157,59524,1,0,0:0:0:0:
304,160,59715,1,0,0:0:0:0:
304,160,59906,1,8,0:0:0:0:
304,160,60097,1,0,0:0:0:0:
304,160,60288,1,8,0:0:0:0:
305,157,60480,1,0,0:0:0:0:
304,160,60671,1,8,0:0:0:0:
304,160,61053,1,8,0:0:0:0:
304,160,61244,1,0,0:0:0:0:
305,157,61435,1,0,0:0:0:0:
304,160,61626,1,8,0:0:0:0:
304,160,62008,1,8,0:0:0:0:
304,160,62199,1,0,0:0:0:0:
305,157,62390,1,8,0:0:0:0:
304,160,62486,1,8,0:0:0:0:
304,160,62581,1,8,0:0:0:0:
304,160,62773,1,0,0:0:0:0:
296,152,62964,1,0,0:0:0:0:
296,152,63155,1,8,0:0:0:0:
296,152,63346,1,0,0:0:0:0:
296,152,63537,1,8,0:0:0:0:
304,152,63728,1,0,0:0:0:0:
296,152,63919,1,0,0:0:0:0:
296,152,64015,1,0,0:0:0:0:
296,152,64110,1,0,0:0:0:0:
296,152,64301,1,0,0:0:0:0:
296,152,64492,1,12,0:0:0:0:
256,192,64683,12,0,65639,0:0:0:0:
320,160,66021,5,12,0:0:0:0:
256,192,66212,12,0,67168,0:0:0:0:
328,160,67550,5,12,0:0:0:0:
256,192,67741,12,0,68697,0:0:0:0:
336,160,69078,5,4,0:0:0:0:
336,160,69843,1,12,0:0:0:0:
336,160,70225,1,0,0:0:0:0:
336,160,70416,1,8,0:0:0:0:
336,160,70607,1,0,0:0:0:0:
328,152,70989,1,8,0:0:0:0:
336,152,71371,1,0,0:0:0:0:
328,152,71753,1,8,0:0:0:0:
336,152,71944,1,0,0:0:0:0:
328,152,72136,1,8,0:0:0:0:
328,152,72327,1,0,0:0:0:0:
344,152,72518,1,0,0:0:0:0:
336,152,72709,1,0,0:0:0:0:
336,152,72900,1,8,0:0:0:0:
328,152,73282,1,8,0:0:0:0:
328,152,73473,1,8,0:0:0:0:
320,152,73664,1,0,0:0:0:0:
320,152,73855,1,8,0:0:0:0:
320,152,74046,1,8,0:0:0:0:
324,168,74238,1,8,0:0:0:0:
320,152,74429,1,0,0:0:0:0:
320,152,74620,1,8,0:0:0:0:
320,152,74716,1,8,0:0:0:0:
320,152,74811,1,8,0:0:0:0:
320,152,75193,1,8,0:0:0:0:
320,152,75384,1,8,0:0:0:0:
320,152,75575,1,0,0:0:0:0:
320,152,75766,1,0,0:0:0:0:
312,148,75957,1,8,0:0:0:0:
312,148,76148,1,8,0:0:0:0:
288,143,76339,1,8,0:0:0:0:
288,143,76531,1,8,0:0:0:0:
326,148,77868,5,0,0:0:0:0:
312,141,78059,1,0,0:0:0:0:
312,141,78250,1,8,0:0:0:0:
312,141,78441,1,8,0:0:0:0:
312,141,78632,1,0,0:0:0:0:
312,141,78824,1,8,0:0:0:0:
315,152,78919,1,8,0:0:0:0:
312,141,79015,1,8,0:0:0:0:
312,141,79397,1,0,0:0:0:0:
312,141,79588,1,0,0:0:0:0:
312,141,79779,1,8,0:0:0:0:
312,141,79970,1,0,0:0:0:0:
312,141,80161,1,0,0:0:0:0:
312,141,80353,1,8,0:0:0:0:
325,143,80448,1,8,0:0:0:0:
312,141,80544,1,8,0:0:0:0:
312,141,80926,1,0,0:0:0:0:
312,141,81117,1,0,0:0:0:0:
312,141,81308,1,8,0:0:0:0:
312,141,81499,1,0,0:0:0:0:
320,146,81690,1,0,0:0:0:0:
312,141,81881,1,0,0:0:0:0:
264,154,81976,1,0,0:0:0:0:
312,141,82072,1,8,0:0:0:0:
313,133,82263,1,0,0:0:0:0:
312,141,82454,1,8,0:0:0:0:
320,146,82645,1,0,0:0:0:0:
317,150,82836,1,0,0:0:0:0:
317,150,83027,1,8,0:0:0:0:
317,150,83123,1,8,0:0:0:0:
317,150,83218,1,0,0:0:0:0:
317,150,83410,1,0,0:0:0:0:
320,146,83601,1,8,0:0:0:0:
317,150,83983,1,0,0:0:0:0:
317,150,84078,1,0,0:0:0:0:
317,150,84174,1,0,0:0:0:0:
317,150,84269,1,0,0:0:0:0:
317,150,84365,1,8,0:0:0:0:
312,141,84556,1,8,0:0:0:0:
312,141,84747,1,0,0:0:0:0:
312,141,84939,1,0,0:0:0:0:
311,145,85034,1,0,0:0:0:0:
312,141,85130,1,8,0:0:0:0:
312,141,85512,1,0,0:0:0:0:
312,141,85703,1,0,0:0:0:0:
312,141,85894,1,8,0:0:0:0:
312,141,86085,1,0,0:0:0:0:
312,141,86276,1,0,0:0:0:0:
312,141,86467,1,0,0:0:0:0:
312,141,86562,1,0,0:0:0:0:
312,141,86659,1,8,0:0:0:0:
312,141,87041,1,0,0:0:0:0:
322,138,87422,1,0,0:0:0:0:
322,138,87613,1,8,0:0:0:0:
342,135,87709,1,8,0:0:0:0:
322,138,87804,1,8,0:0:0:0:
336,145,87996,1,8,0:0:0:0:
347,170,88187,1,0,0:0:0:0:
336,145,88378,1,8,0:0:0:0:
347,170,88569,1,0,0:0:0:0:
330,151,88760,1,0,0:0:0:0:
329,158,88951,1,8,0:0:0:0:
336,164,89142,1,8,0:0:0:0:
330,151,89238,1,8,0:0:0:0:
335,164,89333,1,0,0:0:0:0:
335,164,89524,1,8,0:0:0:0:
336,164,89715,1,8,0:0:0:0:
335,164,89906,1,0,0:0:0:0:
335,164,90097,1,0,0:0:0:0:
318,177,90288,1,0,0:0:0:0:
335,164,90480,1,8,0:0:0:0:
336,164,90671,1,8,0:0:0:0:
336,168,90862,1,0,0:0:0:0:
336,168,91053,1,0,0:0:0:0:
360,168,91148,1,0,0:0:0:0:
344,168,91244,1,8,0:0:0:0:
344,160,91626,1,0,0:0:0:0:
344,160,91817,1,0,0:0:0:0:
344,160,92008,1,8,0:0:0:0:
344,160,92199,1,0,0:0:0:0:
344,152,92390,1,0,0:0:0:0:
344,152,92581,1,0,0:0:0:0:
352,152,92677,1,0,0:0:0:0:
352,152,92773,1,8,0:0:0:0:
352,152,93155,1,0,0:0:0:0:
352,152,93346,1,8,0:0:0:0:
352,152,93537,1,0,0:0:0:0:
352,152,93728,1,8,0:0:0:0:
352,144,93824,1,8,0:0:0:0:
352,144,93919,1,8,0:0:0:0:
352,144,94110,1,0,0:0:0:0:
360,152,94301,1,0,0:0:0:0:
360,152,94492,1,8,0:0:0:0:
360,152,94588,1,8,0:0:0:0:
360,152,94683,1,8,0:0:0:0:
360,152,94874,1,0,0:0:0:0:
360,152,95066,1,0,0:0:0:0:
360,152,95257,1,8,0:0:0:0:
360,152,95448,1,0,0:0:0:0:
360,152,95639,1,8,0:0:0:0:
360,152,95830,1,8,0:0:0:0:
352,160,96212,1,0,0:0:0:0:
352,160,96308,1,0,0:0:0:0:
352,160,96403,1,0,0:0:0:0:
352,160,96499,1,0,0:0:0:0:
360,168,96594,1,8,0:0:0:0:
360,168,96785,1,8,0:0:0:0:
360,160,96976,1,0,0:0:0:0:
360,160,97167,1,0,0:0:0:0:
368,160,97263,1,0,0:0:0:0:
368,160,97359,1,8,0:0:0:0:
368,160,97741,1,0,0:0:0:0:
368,160,97932,1,8,0:0:0:0:
368,160,98123,1,8,0:0:0:0:
368,160,98314,1,0,0:0:0:0:
368,160,98505,1,0,0:0:0:0:
368,160,98696,1,0,0:0:0:0:
368,168,98792,1,0,0:0:0:0:
368,168,98887,1,8,0:0:0:0:
360,168,99078,1,8,0:0:0:0:
360,168,99269,1,0,0:0:0:0:
368,168,99652,1,0,0:0:0:0:
360,168,99843,1,0,0:0:0:0:
360,168,99938,1,0,0:0:0:0:
360,168,100034,1,0,0:0:0:0:
360,168,100225,1,8,0:0:0:0:
360,168,100416,1,0,0:0:0:0:
368,168,100607,1,8,0:0:0:0:
368,160,100798,1,8,0:0:0:0:
368,160,100989,1,0,0:0:0:0:
368,160,101180,1,8,0:0:0:0:
345,174,101371,1,0,0:0:0:0:
376,176,101562,1,0,0:0:0:0:
376,176,101753,1,0,0:0:0:0:
376,176,101945,1,0,0:0:0:0:
376,176,102136,1,0,0:0:0:0:
376,176,102327,1,8,0:0:0:0:
376,176,102422,1,8,0:0:0:0:
376,176,102518,1,8,0:0:0:0:
376,176,102613,1,8,0:0:0:0:
376,176,102709,1,8,0:0:0:0:
376,176,103282,1,8,0:0:0:0:
376,176,103378,1,8,0:0:0:0:
376,176,103473,1,8,0:0:0:0:
376,176,104046,1,0,0:0:0:0:
376,176,104142,1,0,0:0:0:0:
376,176,104238,1,0,0:0:0:0:
376,176,104811,1,0,0:0:0:0:
376,176,105002,1,8,0:0:0:0:
376,176,105384,1,8,0:0:0:0:
376,176,105766,1,4,0:0:0:0:
376,184,106339,1,0,0:0:0:0:
368,184,106531,1,0,0:0:0:0:
376,184,106722,1,8,0:0:0:0:
368,184,106913,1,8,0:0:0:0:
368,184,107295,1,0,0:0:0:0:
368,184,107495,1,8,0:0:0:0:
368,184,107695,1,8,0:0:0:0:
368,184,107895,1,8,0:0:0:0:
368,184,108095,1,4,0:0:0:0:
368,184,108523,1,4,0:0:0:0:
368,184,109557,1,0,0:0:0:0:
368,184,109764,1,0,0:0:0:0:
336,184,110178,1,0,0:0:0:0:
336,184,110392,1,0,0:0:0:0:
344,184,110606,1,0,0:0:0:0:
344,184,110828,1,8,0:0:0:0:
344,184,111050,1,8,0:0:0:0:
344,184,111280,1,8,0:0:0:0:
344,184,111511,1,4,0:0:0:0:
344,184,111991,1,4,0:0:0:0:
