osu file format v14

[General]
AudioFilename: audio.mp3
AudioLeadIn: 0
PreviewTime: -1
Countdown: 1
SampleSet: Soft
StackLeniency: 0.4
Mode: 0
LetterboxInBreaks: 0
WidescreenStoryboard: 1

[Editor]
Bookmarks: 26276,40034,52263,64492,78250,119991
DistanceSpacing: 0.7
BeatDivisor: 4
GridSize: 8
TimelineZoom: 1.2

[Metadata]
Title:AsiaN distractive
TitleUnicode:AsiaN distractive
Artist:Nekomata Gekidan
ArtistUnicode:猫叉劇団
Creator:Ellyu
Version:Insane
Source:beatmania IIDX 24 SINOBUZ
Tags:Pending cup #5
BeatmapID:1415944
BeatmapSetID:667169

[Difficulty]
HPDrainRate:5
CircleSize:4
OverallDifficulty:7
ApproachRate:9
SliderMultiplier:1.6
SliderTickRate:1

[Events]
//Background and Video events
0,0,"60619514_p0.png",0,0
//Break Periods
//Storyboard Layer 0 (Background)
//Storyboard Layer 1 (Fail)
//Storyboard Layer 2 (Pass)
//Storyboard Layer 3 (Foreground)
//Storyboard Sound Samples

[TimingPoints]
289,382.165605095541,4,2,0,55,1,0
1053,-100,4,2,2,55,0,0
1817,-133.333333333333,4,2,2,55,0,0
3728,-100,4,2,2,55,0,0
4874,-133.333333333333,4,2,2,55,0,0
7167,-66.6666666666667,4,2,2,55,0,0
7550,-133.333333333333,4,2,2,55,0,0
10225,-66.6666666666667,4,2,2,55,0,0
10607,-133.333333333333,4,2,2,55,0,0
13282,-100,4,2,2,55,0,0
13664,-133.333333333333,4,2,2,55,0,0
14046,-90.9090909090909,4,2,2,55,0,0
24747,-66.6666666666667,4,2,2,55,0,0
26276,-76.9230769230769,4,2,1,55,0,0
26849,-100,4,2,1,55,0,0
27804,-76.9230769230769,4,2,1,55,0,0
28377,-100,4,2,1,55,0,0
29333,-76.9230769230769,4,2,1,55,0,0
29906,-100,4,2,1,55,0,0
30862,-76.9230769230769,4,2,1,55,0,0
31435,-133.333333333333,4,2,1,55,0,0
32008,-100,4,2,1,55,0,0
32390,-76.9230769230769,4,2,1,55,0,0
32963,-100,4,2,1,55,0,0
33919,-76.9230769230769,4,2,1,55,0,0
34492,-100,4,2,1,55,0,0
35448,-76.9230769230769,4,2,1,55,0,0
37550,-200,4,2,1,55,0,0
39652,-66.6666666666667,4,2,1,55,0,0
40034,-90.9090909090909,4,2,2,55,0,0
51499,-66.6666666666667,4,2,1,55,0,0
52263,-90.9090909090909,4,2,2,55,0,0
63728,-66.6666666666667,4,2,1,55,0,0
64492,-200,4,2,3,55,0,0
69078,-133.333333333333,4,2,3,55,0,0
69843,-100,4,2,3,55,0,0
70225,-83.3333333333333,4,2,1,55,0,0
78250,-76.9230769230769,4,1,1,65,0,1
82836,-76.9230769230769,4,2,2,65,0,1
84365,-76.9230769230769,4,1,1,65,0,1
87422,-76.9230769230769,4,2,2,65,0,1
90480,-76.9230769230769,4,1,1,65,0,1
93537,-76.9230769230769,4,2,2,65,0,1
96594,-76.9230769230769,4,1,1,65,0,1
99652,-76.9230769230769,4,2,2,65,0,1
102709,-76.9230769230769,4,2,2,55,0,0
103473,-100,4,2,2,55,0,0
104238,-100,4,2,2,55,0,0
104620,-100,4,2,2,55,0,0
107295,400,4,2,2,55,1,0
108095,428.571428571429,4,2,2,55,1,0
108095,-100,4,2,2,55,0,0
108523,413.793103448276,4,2,2,55,1,0
108523,-100,4,2,2,55,0,0
110178,428.571428571429,4,2,2,55,1,0
110606,444.444444444444,4,2,2,55,1,0
111050,461.538461538462,4,2,2,55,1,0
111511,480,4,2,2,55,1,0
111991,500,4,2,2,55,1,0
111991,-100,4,2,2,45,0,0
115991,-100,4,2,2,40,0,0
116491,-100,4,2,2,35,0,0
116991,-100,4,2,2,30,0,0
117491,-100,4,2,2,25,0,0
117991,-100,4,2,2,20,0,0
118491,-100,4,2,2,15,0,0
118991,-100,4,2,2,10,0,0
119491,-100,4,2,2,5,0,0

[Colours]
Combo1 : 255,217,100
Combo2 : 123,255,123
Combo3 : 121,182,255
Combo4 : 247,113,133

[HitObjects]
125,181,1053,6,0,L|117:114,5,40
200,280,1626,2,0,L|204:319,1,40
244,183,1817,6,0,P|288:228|358:214,1,120.000004577637
342,216,2390,2,0,L|394:207,1,30.0000011444092
502,109,2581,2,0,L|364:92,1,120.000004577637
378,88,3155,2,0,L|384:130,1,30.0000011444092
466,186,3346,6,0,P|464:243|456:285,1,90.0000034332277
368,315,3728,2,0,B|362:344|362:344|368:377,2,53.3333333333333
272,241,4110,2,0,B|266:212|266:212|272:179,2,53.3333333333333
168,304,4492,2,0,B|162:333|162:333|168:366,2,53.3333333333333
80,223,4874,6,0,P|149:199|142:140,1,120.000004577637
148,165,5448,2,0,P|157:191|165:199,1,30.0000011444092
292,149,5639,2,0,L|300:74,1,60.0000022888184
155,17,6021,2,0,L|160:84,1,60.0000022888184
298,158,6403,6,0,L|306:83,1,60.0000022888184
145,15,6785,2,0,L|138:74,1,60.0000022888184
157,268,7167,1,0,0:0:0:0:
370,215,7550,2,0,P|440:216|367:298,1,240.000009155274
375,304,8505,1,0,0:0:0:0:
259,349,8696,2,0,P|222:318|136:326,1,120.000004577637
94,370,9269,1,0,0:0:0:0:
6,264,9460,6,0,L|79:276,1,60.0000022888184
203,203,9843,2,0,L|119:211,1,60.0000022888184
7,98,10225,1,0,0:0:0:0:
102,17,10416,1,0,0:0:0:0:
262,144,10607,6,0,P|326:158|240:48,1,360.000013732911
309,83,11945,2,0,L|391:77,1,60.0000022888184
494,163,12327,2,0,L|427:162,1,60.0000022888184
290,251,12709,2,0,L|372:245,2,60.0000022888184
505,353,13282,6,0,P|507:318|436:266,1,120
447,266,13664,2,0,P|409:295|399:353,1,90.0000034332277
396,333,14046,6,0,L|189:312,1,176.000005371094
141,363,14620,1,0,0:0:0:0:
141,363,14715,1,0,0:0:0:0:
141,363,14811,2,0,P|186:306|109:221,1,176.000005371094
113,157,15384,1,0,0:0:0:0:
113,157,15479,1,0,0:0:0:0:
113,157,15575,6,0,P|68:214|145:299,1,176.000005371094
238,208,16148,1,0,0:0:0:0:
238,208,16244,1,0,0:0:0:0:
238,208,16339,2,0,B|354:196|354:196|417:221,1,176.000005371094
512,264,16913,1,0,0:0:0:0:
482,145,17104,6,0,L|465:48,1,88.000002685547
465,137,17486,2,0,L|448:40,1,88.000002685547
354,25,17773,1,0,0:0:0:0:
354,25,17868,5,0,0:0:0:0:
224,62,18059,1,0,0:0:0:0:
323,116,18250,1,0,0:0:0:0:
217,70,18441,1,0,0:0:0:0:
314,152,18632,1,0,0:0:0:0:
208,77,18824,1,0,0:0:0:0:
288,180,19015,1,0,0:0:0:0:
195,81,19206,1,0,0:0:0:0:
193,189,19397,6,0,L|185:354,1,132.00000402832
172,338,19779,6,0,P|222:301|299:331,1,132.00000402832
292,338,20161,2,0,L|405:335,1,88.000002685547
488,235,20543,2,0,L|377:231,1,88.000002685547
336,195,20830,1,0,0:0:0:0:
336,195,20925,2,0,P|321:140|412:66,1,176.000005371094
512,34,21499,1,0,0:0:0:0:
512,34,21594,1,0,0:0:0:0:
512,34,21690,6,0,L|312:37,1,176.000005371094
189,14,22263,1,0,0:0:0:0:
189,14,22359,1,0,0:0:0:0:
189,14,22454,2,0,P|146:61|163:143,1,132.00000402832
150,125,22836,6,0,L|245:117,1,88.000002685547
72,279,23218,2,0,L|-43:264,1,88.000002685547
53,93,23601,1,0,0:0:0:0:
164,239,23792,1,0,0:0:0:0:
164,239,23887,1,0,0:0:0:0:
164,239,23983,2,0,P|207:286|266:282,2,88.000002685547
298,190,24556,2,0,L|335:185,2,29.3333342285157
408,187,24747,6,0,L|289:178,1,120.000004577637
207,350,25129,2,0,L|342:339,1,120.000004577637
512,282,25511,2,0,P|449:309|387:277,1,120.000004577637
239,91,25894,2,0,P|302:64|364:96,1,120.000004577637
208,298,26276,6,0,P|135:325|57:255,1,155.999992858887
71,288,26658,1,0,0:0:0:0:
187,169,26849,1,0,0:0:0:0:
286,219,27040,2,0,L|289:260,3,40
279,137,27422,2,0,L|273:40,1,80
362,240,27804,6,0,P|435:267|513:197,1,155.999992858887
499,230,28186,1,0,0:0:0:0:
383,111,28377,1,0,0:0:0:0:
284,161,28568,2,0,L|281:202,3,40
291,79,28950,2,0,L|297:-18,1,80
165,112,29333,6,0,B|127:97|127:97|88:108|56:112|56:112|19:153,1,155.999992858887
27,143,29715,1,0,0:0:0:0:
47,276,29906,1,0,0:0:0:0:
122,329,30097,2,0,P|139:273|129:239,1,80
132,237,30384,1,0,0:0:0:0:
124,225,30480,2,0,L|217:230,1,80
310,217,30862,5,0,0:0:0:0:
335,242,30957,1,0,0:0:0:0:
334,278,31053,1,0,0:0:0:0:
311,306,31148,1,0,0:0:0:0:
276,318,31244,2,0,L|197:310,1,51.999997619629
387,177,31435,2,0,L|506:159,1,120.000004577637
317,89,32008,2,0,L|206:77,1,80
138,214,32390,6,0,P|160:147|94:67,1,155.999992858887
96,74,32773,1,0,0:0:0:0:
22,227,32964,1,0,0:0:0:0:
184,285,33155,2,0,L|235:276,3,40
147,291,33537,2,0,P|138:329|158:365,1,80
329,196,33919,6,0,P|351:263|285:343,1,155.999992858887
287,336,34302,1,0,0:0:0:0:
213,183,34493,1,0,0:0:0:0:
375,125,34684,2,0,L|426:134,3,40
338,119,35066,2,0,P|329:81|349:45,1,80
473,205,35448,6,0,L|465:315,1,103.999995239258
435,336,35734,1,0,0:0:0:0:
435,336,35830,2,0,P|375:345|315:306,1,103.999995239258
320,290,36117,1,0,0:0:0:0:
320,290,36212,2,0,L|325:221,3,51.999997619629
219,338,36594,1,0,0:0:0:0:
188,345,36690,1,0,0:0:0:0:
157,342,36785,1,0,0:0:0:0:
129,326,36881,1,0,0:0:0:0:
109,301,36976,6,0,L|101:210,1,51.999997619629
193,185,37167,2,0,L|197:236,1,51.999997619629
99,168,37359,2,0,L|94:116,1,51.999997619629
190,69,37550,6,0,P|243:98|300:77,1,120
296,80,38505,2,0,L|292:56,17,13.3333333333333
393,133,39652,6,0,L|383:279,1,120.000004577637
299,295,40034,5,0,0:0:0:0:
299,295,40225,2,0,P|228:269|162:333,1,176.000005371094
388,345,40798,2,0,P|429:331|482:365,1,88.000002685547
243,353,41180,1,0,0:0:0:0:
243,184,41371,1,0,0:0:0:0:
99,264,41562,6,0,P|60:270|16:143,1,176.000005371094
43,71,42136,1,0,0:0:0:0:
213,101,42327,2,0,L|319:93,1,88.000002685547
157,198,42709,2,0,L|263:189,1,88.000002685547
382,230,43091,5,0,0:0:0:0:
223,347,43282,1,0,0:0:0:0:
223,347,43473,2,0,P|213:300|229:265,1,88.000002685547
467,334,43855,2,0,L|279:311,1,176.000005371094
120,288,44429,1,0,0:0:0:0:
292,178,44620,6,0,L|391:163,1,88.000002685547
173,111,45002,2,0,L|74:96,1,88.000002685547
267,58,45384,2,0,P|278:36|280:7,3,44.0000013427735
182,107,45766,2,0,L|125:98,1,44.0000013427735
288,173,45957,2,0,L|345:164,1,44.0000013427735
177,225,46148,5,0,0:0:0:0:
96,280,46339,2,0,P|151:320|255:282,1,176.000005371094
54,206,46913,2,0,P|15:253|50:355,1,176.000005371094
96,280,47486,1,0,0:0:0:0:
150,122,47677,6,0,L|47:130,1,88.000002685547
220,190,48059,1,0,0:0:0:0:
231,19,48250,1,0,0:0:0:0:
153,237,48441,2,0,P|206:269|298:189,1,176.000005371094
310,113,49015,1,0,0:0:0:0:
479,216,49206,5,0,0:0:0:0:
479,216,49397,2,0,B|485:268|485:268|456:317|456:317|448:396,1,176.000005371094
315,257,49970,2,0,P|372:240|421:272,1,88.000002685547
182,347,50352,2,0,P|139:356|100:338,1,88.000002685547
29,239,50734,6,0,L|15:147,1,88.000002685547
10,126,51021,1,0,0:0:0:0:
8,110,51117,1,0,0:0:0:0:
129,150,51308,1,0,0:0:0:0:
206,29,51499,2,0,L|277:25,1,60.0000022888184
333,70,51690,2,0,L|393:67,1,60.0000022888184
391,144,51881,2,0,L|331:147,1,60.0000022888184
263,102,52072,2,0,L|204:106,1,60.0000022888184
173,205,52263,5,0,0:0:0:0:
173,205,52454,2,0,B|214:247|214:247|366:235,1,176.000005371094
112,154,53027,2,0,P|97:183|113:254,1,88.000002685547
213,333,53410,1,0,0:0:0:0:
245,171,53601,1,0,0:0:0:0:
94,79,53792,6,0,L|290:86,1,176.000005371094
375,34,54365,1,0,0:0:0:0:
450,167,54556,2,0,P|460:216|450:271,1,88.000002685547
337,322,54938,1,0,0:0:0:0:
337,322,55129,1,0,0:0:0:0:
307,198,55320,5,0,0:0:0:0:
216,287,55511,1,0,0:0:0:0:
216,287,55607,1,0,0:0:0:0:
216,287,55703,2,0,L|101:292,1,88.000002685547
48,210,56085,2,0,P|105:211|159:97,1,176.000005371094
96,51,56658,1,0,0:0:0:0:
261,18,56849,6,0,L|377:15,1,88.000002685547
429,165,57231,1,0,0:0:0:0:
298,121,57422,1,0,0:0:0:0:
208,265,57613,1,0,0:0:0:0:
232,275,57709,1,0,0:0:0:0:
258,278,57804,1,0,0:0:0:0:
284,274,57900,1,0,0:0:0:0:
307,261,57996,2,0,P|336:258|366:267,1,44.0000013427735
346,360,58187,2,0,P|317:363|287:354,1,44.0000013427735
208,265,58378,5,0,0:0:0:0:
107,323,58569,2,0,P|27:330|-16:246,1,176.000005371094
115,129,59142,2,0,P|134:187|123:224,1,88.000002685547
9,125,59524,1,0,0:0:0:0:
175,64,59715,1,0,0:0:0:0:
316,205,59906,6,0,L|216:187,1,88.000002685547
398,112,60288,1,0,0:0:0:0:
411,265,60480,1,0,0:0:0:0:
182,249,60671,2,0,P|154:204|174:139,1,88.000002685547
276,67,61053,1,0,0:0:0:0:
276,67,61244,1,0,0:0:0:0:
277,233,61435,5,0,0:0:0:0:
353,138,61626,2,0,B|473:121|473:121|513:159,1,176.000005371094
364,244,62199,2,0,L|266:231,1,88.000002685547
431,344,62581,2,0,L|479:331,2,44.0000013427735
313,342,62964,6,0,P|258:303|202:309,1,88.000002685547
215,317,63250,1,0,0:0:0:0:
217,316,63346,2,0,L|127:319,1,88.000002685547
26,287,63728,2,0,P|40:255|66:238,1,60.0000022888184
1,189,63919,2,0,P|23:172|58:164,1,60.0000022888184
95,96,64110,2,0,P|66:87|37:86,1,60.0000022888184
163,58,64301,2,0,P|142:37|116:23,1,60.0000022888184
175,205,64492,6,0,B|212:159|267:159|301:185|301:185|344:221|401:226|441:212,1,280
426,139,66021,6,0,P|324:77|416:0,1,280
397,71,67550,6,0,B|360:86|360:86|321:72|321:72|272:89|272:89|223:77|223:77|184:92|184:92|132:74,1,280
55,81,69078,6,0,P|12:99|104:135,1,240.000009155274
104,144,70225,2,0,L|104:225,1,47.9999985351563
104,275,70416,2,0,L|104:356,1,47.9999985351563
176,212,70607,6,0,P|221:187|323:230,1,143.999995605469
306,209,70989,2,0,L|314:325,1,95.9999970703126
425,360,71371,2,0,L|412:193,1,143.999995605469
413,216,71753,2,0,P|476:237|513:222,1,95.9999970703126
470,93,72136,6,0,B|401:80|401:80|295:124,1,143.999995605469
332,108,72518,2,0,P|281:114|231:79,1,95.9999970703126
84,165,72900,2,0,P|131:150|218:190,1,143.999995605469
214,185,73282,2,0,B|256:205|256:205|309:194,1,95.9999970703126
336,320,73664,6,0,P|347:261|392:231,1,95.9999970703126
421,215,73951,1,0,0:0:0:0:
448,214,74046,1,0,0:0:0:0:
429,312,74238,1,0,0:0:0:0:
512,148,74429,6,0,P|501:89|456:59,1,95.9999970703126
427,43,74716,1,0,0:0:0:0:
400,42,74811,1,0,0:0:0:0:
419,140,75003,1,0,0:0:0:0:
269,82,75193,6,0,L|263:27,3,47.9999985351563
164,153,75575,2,0,L|169:200,3,47.9999985351563
263,78,75957,6,0,L|257:30,1,47.9999985351563
157,149,76148,2,0,L|162:196,1,47.9999985351563
256,74,76339,6,0,L|250:26,1,47.9999985351563
150,145,76530,2,0,L|155:192,1,47.9999985351563
352,233,77868,6,0,P|368:190|365:132,1,95.9999970703126
298,49,78250,5,0,0:0:0:0:
223,185,78441,2,0,L|225:226,2,34.6666650797527
218,132,78632,2,0,P|186:150|101:138,1,103.999995239258
23,263,79015,1,0,0:0:0:0:
56,248,79110,1,0,0:0:0:0:
91,255,79206,1,0,0:0:0:0:
116,280,79301,1,0,0:0:0:0:
88,304,79397,2,0,L|203:289,1,103.999995239258
379,333,79779,5,0,0:0:0:0:
300,249,79970,2,0,L|254:238,2,34.6666650797527
334,232,80161,2,0,P|386:239|446:216,1,103.999995239258
426,58,80543,1,0,0:0:0:0:
391,70,80639,1,0,0:0:0:0:
373,101,80734,1,0,0:0:0:0:
375,137,80830,1,0,0:0:0:0:
404,116,80925,2,0,L|517:103,1,103.999995239258
304,32,81308,5,0,0:0:0:0:
190,112,81499,2,0,P|170:93|166:80,2,34.6666650797527
225,106,81690,2,0,P|243:154|235:207,1,103.999995239258
101,205,82072,1,0,0:0:0:0:
107,240,82167,1,0,0:0:0:0:
114,275,82263,1,0,0:0:0:0:
121,310,82359,1,0,0:0:0:0:
103,341,82454,2,0,P|134:302|207:310,1,103.999995239258
328,360,82836,5,0,0:0:0:0:
401,232,83027,1,0,0:0:0:0:
401,232,83123,1,0,0:0:0:0:
401,232,83218,1,0,0:0:0:0:
333,352,83410,1,0,0:0:0:0:
292,222,83601,2,0,P|289:157|379:110,1,155.999992858887
392,131,83983,1,0,0:0:0:0:
364,154,84078,1,0,0:0:0:0:
328,163,84174,1,0,0:0:0:0:
292,155,84269,1,0,0:0:0:0:
266,128,84365,6,0,P|212:116|147:111,1,103.999995239258
93,164,84620,2,0,L|85:220,1,34.6666650797527
96,210,84747,2,0,L|82:319,1,103.999995239258
233,277,85129,1,0,0:0:0:0:
267,263,85225,1,0,0:0:0:0:
301,272,85320,1,0,0:0:0:0:
325,299,85416,1,0,0:0:0:0:
302,326,85511,2,0,P|353:289|408:312,1,103.999995239258
503,168,85894,6,0,L|377:188,1,103.999995239258
329,129,86148,2,0,P|321:106|322:87,1,34.6666650797527
314,91,86276,2,0,P|335:50|410:24,1,103.999995239258
224,56,86658,1,0,0:0:0:0:
191,72,86753,1,0,0:0:0:0:
173,103,86849,1,0,0:0:0:0:
168,139,86945,1,0,0:0:0:0:
131,136,87040,2,0,L|14:139,1,103.999995239258
186,243,87422,5,0,0:0:0:0:
186,243,87613,1,0,0:0:0:0:
50,221,87804,1,0,0:0:0:0:
151,347,87996,1,0,0:0:0:0:
273,247,88187,2,0,L|285:198,3,34.6666650797527
158,360,88569,1,0,0:0:0:0:
57,242,88760,1,0,0:0:0:0:
163,368,88951,5,0,0:0:0:0:
160,227,89142,2,0,L|162:170,3,34.6666650797527
165,374,89524,1,0,0:0:0:0:
176,209,89715,2,0,L|186:174,3,34.6666650797527
171,381,90097,1,0,0:0:0:0:
198,192,90288,1,0,0:0:0:0:
389,298,90480,5,0,0:0:0:0:
439,125,90671,2,0,P|454:114|484:109,2,34.6666650797527
344,120,90862,2,0,P|308:129|244:92,1,103.999995239258
328,259,91244,1,0,0:0:0:0:
352,232,91339,1,0,0:0:0:0:
387,224,91435,1,0,0:0:0:0:
422,231,91531,1,0,0:0:0:0:
456,219,91626,2,0,P|463:251|465:287,1,51.999997619629
375,370,91817,2,0,P|378:344|376:313,1,51.999997619629
236,234,92008,5,0,0:0:0:0:
72,315,92199,2,0,L|70:363,2,34.6666650797527
118,232,92390,2,0,B|125:205|125:205|120:122,1,103.999995239258
233,9,92773,1,0,0:0:0:0:
221,43,92868,1,0,0:0:0:0:
223,79,92964,1,0,0:0:0:0:
240,110,93059,1,0,0:0:0:0:
273,94,93155,2,0,P|280:127|313:153,1,51.999997619629
389,35,93346,2,0,P|355:23|328:23,1,51.999997619629
388,163,93537,5,0,0:0:0:0:
277,342,93728,1,0,0:0:0:0:
251,209,93919,1,0,0:0:0:0:
407,330,94110,1,0,0:0:0:0:
156,299,94301,5,0,0:0:0:0:
340,251,94492,1,0,0:0:0:0:
340,251,94588,1,0,0:0:0:0:
340,251,94683,1,0,0:0:0:0:
203,193,94874,1,0,0:0:0:0:
219,376,95066,5,0,0:0:0:0:
251,273,95257,1,0,0:0:0:0:
251,273,95352,1,0,0:0:0:0:
251,273,95448,1,0,0:0:0:0:
133,236,95639,1,0,0:0:0:0:
301,171,95830,6,0,L|297:104,3,51.999997619629
408,182,96212,1,0,0:0:0:0:
437,218,96308,1,0,0:0:0:0:
419,260,96403,1,0,0:0:0:0:
445,298,96499,1,0,0:0:0:0:
428,341,96594,6,0,P|376:356|323:332,1,103.999995239258
270,263,96849,2,0,P|239:254|222:261,1,34.6666650797527
211,191,96976,2,0,P|180:216|181:289,1,103.999995239258
45,353,97359,1,0,0:0:0:0:
67,324,97454,1,0,0:0:0:0:
78,289,97550,1,0,0:0:0:0:
70,253,97645,1,0,0:0:0:0:
39,232,97741,2,0,P|31:200|34:168,1,51.999997619629
89,85,97932,2,0,P|110:69|138:61,1,51.999997619629
279,151,98123,6,0,P|262:96|272:45,1,103.999995239258
391,53,98378,2,0,L|358:47,1,34.6666650797527
456,16,98505,2,0,B|464:56|464:56|449:120,1,103.999995239258
335,216,98887,1,0,0:0:0:0:
339,252,98983,1,0,0:0:0:0:
343,287,99078,1,0,0:0:0:0:
347,323,99174,1,0,0:0:0:0:
371,349,99269,2,0,P|392:359|424:351,1,51.999997619629
474,215,99460,2,0,P|437:209|408:214,1,51.999997619629
238,286,99652,5,0,0:0:0:0:
238,286,99843,1,0,0:0:0:0:
119,184,100034,1,0,0:0:0:0:
302,139,100225,1,0,0:0:0:0:
142,264,100416,2,0,P|118:270|100:273,3,34.6666650797527
282,122,100798,1,0,0:0:0:0:
212,301,100989,1,0,0:0:0:0:
184,98,101180,6,0,L|182:26,11,51.999997619629
241,163,102327,5,0,0:0:0:0:
285,198,102422,1,0,0:0:0:0:
342,192,102518,1,0,0:0:0:0:
385,154,102613,1,0,0:0:0:0:
397,74,102709,6,0,B|405:119|405:119|364:179|366:222|403:291,1,207.999990478516
388,265,103282,2,0,P|390:318|383:330,1,51.999997619629
269,327,103473,2,0,P|230:279|110:323,1,160
111,329,104046,2,0,P|129:287|130:274,1,51.999997619629
86,171,104238,6,0,B|119:167|119:167|160:178|160:178|206:171,1,106.666666666667
279,106,104620,2,0,L|327:77,2,53.3333333333333
286,227,105002,2,0,L|356:250,2,53.3333333333333
271,96,105384,2,0,L|325:67,2,53.3333333333333
190,173,105766,6,0,P|145:248|220:310,1,160
170,311,106339,2,0,L|236:306,1,40
377,357,106531,2,0,L|276:347,1,80
311,220,106913,2,0,L|395:229,1,80
386,349,107295,6,0,L|297:342,1,80
321,212,107695,2,0,L|401:222,1,80
490,289,108095,5,0,0:0:0:0:
117,304,108523,2,0,P|144:243|8:289,1,320
73,249,109557,1,0,0:0:0:0:
73,249,109764,1,0,0:0:0:0:
252,104,110178,5,0,0:0:0:0:
336,126,110392,1,0,0:0:0:0:
419,109,110606,1,0,0:0:0:0:
477,43,110828,1,0,0:0:0:0:
417,103,111050,5,0,0:0:0:0:
432,189,111280,1,0,0:0:0:0:
486,254,111511,2,0,P|414:277|352:227,1,160
256,192,112241,12,0,119991,0:0:0:0:
