osu file format v14

[General]
AudioFilename: audio.mp3
AudioLeadIn: 0
PreviewTime: 87375
Countdown: 0
SampleSet: Normal
StackLeniency: 0.7
Mode: 1
LetterboxInBreaks: 0
WidescreenStoryboard: 0

[Editor]
DistanceSpacing: 0.8
BeatDivisor: 4
GridSize: 4
TimelineZoom: 2.299999

[Metadata]
Title:Koiuta Shippuu! Karuta Queen Iroha
TitleUnicode:恋歌疾風!かるたクイーンいろは
Artist:Nekomanma Team!
ArtistUnicode:ねこまんまチーム!
Creator:Nanatsu
Version:Muzukashii
Source:pop'n music éclale
Tags:NU-KO NUKO bemani japanese rhythm video game Konami ポップン ミュージック エクラル BeatStream アニムトライヴ SDVX IV
BeatmapID:1225171
BeatmapSetID:578160

[Difficulty]
HPDrainRate:6
CircleSize:2
OverallDifficulty:5
ApproachRate:5
SliderMultiplier:1.4
SliderTickRate:1

[Events]
//Background and Video events
0,0,"602106_japanese-anime-wallpapers-by-greatace07-on-deviantart_2000x1000_h.jpg",0,0
//Break Periods
//Storyboard Layer 0 (Background)
//Storyboard Layer 1 (Fail)
//Storyboard Layer 2 (Pass)
//Storyboard Layer 3 (Foreground)
//Storyboard Layer 4 (Overlay)
//Storyboard Sound Samples

[TimingPoints]
2037,500,4,1,0,40,1,0
18037,500,4,1,0,40,1,8
18492,-100,4,1,0,80,0,8
18537,357.142857142857,4,1,0,80,1,8
18849,-100,4,1,0,50,0,8
18894,357.142857142857,4,1,0,50,1,0
19563,-100,4,1,0,52,0,0
19652,-100,4,1,0,55,0,0
19742,-100,4,1,0,57,0,0
19831,-100,4,1,0,60,0,0
19920,-100,4,1,0,62,0,0
20010,-100,4,1,0,65,0,0
20099,-100,4,1,0,67,0,0
20277,-100,4,1,0,70,0,0
20322,357.142857142857,4,1,0,70,1,0
25991,-100,4,1,0,80,0,0
31705,-100,4,1,0,60,0,0
36705,-100,4,1,0,57,0,0
36884,-100,4,1,0,55,0,0
36973,-100,4,1,0,52,0,0
37063,-100,4,1,0,50,0,0
37420,-100,4,1,0,70,0,0
43134,-100,4,1,0,75,0,0
48848,-100,4,1,0,80,0,0
60277,-100,4,1,0,90,0,0
60321,-100,4,1,0,90,0,1
71705,-100,4,1,0,60,0,1
71750,-100,4,1,0,60,0,0
75991,-100,4,1,0,70,0,0
81705,-100,4,1,0,80,0,0
82375,-100,4,1,0,90,0,0
82911,-100,4,1,0,80,0,0
83804,-100,4,1,0,90,0,0
84339,-100,4,1,0,80,0,0
86125,-100,4,1,0,77,0,0
86304,-100,4,1,0,75,0,0
86482,-100,4,1,0,72,0,0
86661,-100,4,1,0,70,0,0
86839,-100,4,1,0,67,0,0
87018,-100,4,1,0,65,0,0
87196,-100,4,1,0,62,0,0
87420,-100,4,1,0,100,0,0
87464,-100,4,1,0,100,0,1
98134,-100,4,1,0,99,0,1
98313,-100,4,1,0,98,0,1
98402,-100,4,1,0,97,0,1
98491,-100,4,1,0,96,0,1
98670,-100,4,1,0,95,0,1
98893,-100,4,1,0,95,0,0
107420,-100,4,1,0,90,0,0

[HitObjects]
216,208,2037,5,8,0:0:0:0:
328,192,2537,1,0,0:0:0:0:
264,196,3037,1,8,0:0:0:0:
184,176,4037,1,8,0:0:0:0:
296,200,4537,1,8,0:0:0:0:
348,224,5037,1,0,0:0:0:0:
216,196,5537,1,8,0:0:0:0:
216,196,6037,1,0,0:0:0:0:
276,200,7037,1,0,0:0:0:0:
287,155,7537,1,0,0:0:0:0:
280,192,8037,1,8,0:0:0:0:
216,228,9537,1,8,0:0:0:0:
216,228,10037,1,8,0:0:0:0:
358,192,10537,1,0,0:0:0:0:
256,184,11037,1,8,0:0:0:0:
224,204,12037,1,8,0:0:0:0:
336,216,12537,1,0,0:0:0:0:
232,188,13037,1,0,0:0:0:0:
124,157,13537,1,8,0:0:0:0:
264,224,14037,1,0,0:0:0:0:
276,220,15037,1,8,0:0:0:0:
248,152,16037,1,8,0:0:0:0:
288,188,16287,1,8,0:0:0:0:
152,164,16537,1,0,0:0:0:0:
288,188,16787,1,0,0:0:0:0:
256,192,17037,12,0,18099,0:0:0:0:
112,172,18537,5,8,0:0:0:0:
140,188,18715,1,8,0:0:0:0:
120,184,18894,1,0,0:0:0:0:
232,240,19608,1,8,0:0:0:0:
256,232,19786,1,0,0:0:0:0:
256,232,19965,1,8,0:0:0:0:
232,216,20054,1,8,0:0:0:0:
260,176,20144,1,8,0:0:0:0:
160,196,20322,1,4,0:0:0:0:
180,208,20500,1,0,0:0:0:0:
180,208,20679,1,8,0:0:0:0:
288,164,21036,1,0,0:0:0:0:
284,172,21214,1,0,0:0:0:0:
272,180,21393,1,8,0:0:0:0:
288,164,21750,1,0,0:0:0:0:
284,172,21929,1,0,0:0:0:0:
272,180,22107,1,8,0:0:0:0:
236,180,22464,1,0,0:0:0:0:
236,180,22643,1,0,0:0:0:0:
236,180,22822,1,8,0:0:0:0:
268,180,23179,1,8,0:0:0:0:
272,184,23357,1,8,0:0:0:0:
272,192,23536,1,0,0:0:0:0:
268,180,23893,1,8,0:0:0:0:
272,184,24072,1,8,0:0:0:0:
272,192,24250,1,0,0:0:0:0:
268,180,24607,1,8,0:0:0:0:
272,184,24786,1,8,0:0:0:0:
272,192,24964,1,0,0:0:0:0:
180,144,25322,1,8,0:0:0:0:
152,152,25411,1,8,0:0:0:0:
180,144,25500,1,8,0:0:0:0:
180,144,25679,1,0,0:0:0:0:
312,224,26214,1,8,0:0:0:0:
312,224,26393,1,0,0:0:0:0:
312,224,26571,1,8,0:0:0:0:
312,224,26929,1,8,0:0:0:0:
296,200,27107,1,0,0:0:0:0:
312,224,27286,1,8,0:0:0:0:
312,224,27643,1,8,0:0:0:0:
312,224,27821,1,0,0:0:0:0:
312,224,28000,1,8,0:0:0:0:
324,120,28357,1,8,0:0:0:0:
240,172,28536,1,0,0:0:0:0:
232,188,28625,1,0,0:0:0:0:
232,188,28714,1,0,0:0:0:0:
276,92,29071,1,8,0:0:0:0:
276,92,29250,1,0,0:0:0:0:
276,92,29429,1,8,0:0:0:0:
123,213,29786,1,8,0:0:0:0:
145,195,29964,1,0,0:0:0:0:
276,92,30143,1,8,0:0:0:0:
276,92,30500,1,8,0:0:0:0:
276,92,30679,1,0,0:0:0:0:
276,92,30857,1,8,0:0:0:0:
276,92,31214,1,8,0:0:0:0:
280,208,31393,1,8,0:0:0:0:
276,240,31750,1,8,0:0:0:0:
110,78,33179,1,0,0:0:0:0:
409,211,33893,1,8,0:0:0:0:
264,208,34607,1,0,0:0:0:0:
264,208,34964,1,0,0:0:0:0:
252,176,35321,1,8,0:0:0:0:
252,176,35679,1,8,0:0:0:0:
252,176,36036,1,0,0:0:0:0:
344,200,36929,1,8,0:0:0:0:
289,186,37107,1,0,0:0:0:0:
288,212,37464,1,0,0:0:0:0:
364,200,38179,1,8,0:0:0:0:
380,228,38536,1,0,0:0:0:0:
392,240,38893,1,8,0:0:0:0:
232,208,39607,1,0,0:0:0:0:
344,220,40321,1,8,0:0:0:0:
344,220,40500,1,0,0:0:0:0:
328,224,40679,1,8,0:0:0:0:
192,192,41036,1,0,0:0:0:0:
201,247,41214,1,0,0:0:0:0:
192,200,41393,1,8,0:0:0:0:
303,208,41750,1,8,0:0:0:0:
321,126,42018,1,0,0:0:0:0:
191,195,42107,1,0,0:0:0:0:
246,189,42286,1,8,0:0:0:0:
79,180,42464,1,8,0:0:0:0:
272,212,42821,1,12,0:0:0:0:
392,216,43357,1,8,0:0:0:0:
364,216,43536,1,0,0:0:0:0:
392,216,43714,1,8,0:0:0:0:
392,216,44071,1,8,0:0:0:0:
308,201,44250,1,0,0:0:0:0:
392,216,44429,1,8,0:0:0:0:
252,184,44786,1,8,0:0:0:0:
252,192,44964,1,0,0:0:0:0:
196,184,45143,1,8,0:0:0:0:
316,264,45500,1,8,0:0:0:0:
316,236,45679,1,0,0:0:0:0:
348,228,46036,1,0,0:0:0:0:
376,240,46214,1,8,0:0:0:0:
376,240,46393,1,0,0:0:0:0:
376,240,46571,1,8,0:0:0:0:
312,208,46929,1,8,0:0:0:0:
188,196,47107,1,0,0:0:0:0:
188,196,47286,1,8,0:0:0:0:
216,236,47464,1,8,0:0:0:0:
320,240,48179,1,8,0:0:0:0:
320,240,48357,1,8,0:0:0:0:
320,240,48536,1,0,0:0:0:0:
208,172,48893,1,4,0:0:0:0:
192,208,49071,1,0,0:0:0:0:
216,192,49429,1,8,0:0:0:0:
220,192,49607,1,8,0:0:0:0:
204,208,49964,1,0,0:0:0:0:
344,216,50321,1,8,0:0:0:0:
300,232,50500,1,0,0:0:0:0:
248,216,50857,1,0,0:0:0:0:
316,152,51036,1,8,0:0:0:0:
204,137,51393,1,0,0:0:0:0:
264,144,51750,1,8,0:0:0:0:
196,184,52107,1,0,0:0:0:0:
244,224,52464,1,8,0:0:0:0:
232,208,52821,1,0,0:0:0:0:
191,169,53000,1,0,0:0:0:0:
272,220,53179,1,8,0:0:0:0:
352,256,53536,1,8,0:0:0:0:
432,264,54071,1,12,0:0:0:0:
424,272,54250,1,12,0:0:0:0:
144,196,54607,1,8,0:0:0:0:
144,196,54786,1,0,0:0:0:0:
188,192,55143,1,0,0:0:0:0:
192,212,55321,1,0,0:0:0:0:
316,164,55679,1,8,0:0:0:0:
344,292,56036,1,8,0:0:0:0:
344,292,56214,1,0,0:0:0:0:
344,228,56571,1,0,0:0:0:0:
344,228,56750,1,8,0:0:0:0:
316,180,57464,1,8,0:0:0:0:
316,184,57643,1,0,0:0:0:0:
288,192,57821,1,8,0:0:0:0:
256,300,58179,1,8,0:0:0:0:
304,200,58536,1,0,0:0:0:0:
248,200,58714,1,0,0:0:0:0:
192,204,58893,1,8,0:0:0:0:
277,204,59071,1,0,0:0:0:0:
192,316,59250,1,8,0:0:0:0:
248,200,59607,1,0,0:0:0:0:
192,180,59786,1,0,0:0:0:0:
328,120,59964,1,12,0:0:0:0:
248,200,60321,1,0,0:0:0:0:
248,200,60500,1,0,0:0:0:0:
248,200,60679,1,8,0:0:0:0:
248,200,60857,1,0,0:0:0:0:
148,248,61214,1,4,0:0:0:0:
200,232,61393,1,12,0:0:0:0:
312,224,61750,1,8,0:0:0:0:
284,220,61839,1,8,0:0:0:0:
288,240,61929,1,8,0:0:0:0:
268,188,62107,1,0,0:0:0:0:
268,188,62286,1,8,0:0:0:0:
360,252,62643,1,12,0:0:0:0:
316,220,62821,1,4,0:0:0:0:
316,220,63179,1,8,0:0:0:0:
316,220,63357,1,0,0:0:0:0:
368,196,63536,1,8,0:0:0:0:
340,192,63625,1,8,0:0:0:0:
312,188,63714,1,8,0:0:0:0:
392,212,63893,1,0,0:0:0:0:
304,168,64250,1,8,0:0:0:0:
392,236,64607,1,0,0:0:0:0:
436,272,64786,1,0,0:0:0:0:
380,260,64964,1,8,0:0:0:0:
272,228,65321,1,4,0:0:0:0:
217,216,65500,1,4,0:0:0:0:
224,200,65679,1,12,0:0:0:0:
224,200,66036,1,8,0:0:0:0:
224,200,66125,1,8,0:0:0:0:
224,200,66214,1,8,0:0:0:0:
224,200,66393,1,0,0:0:0:0:
264,160,66571,1,8,0:0:0:0:
264,160,66929,1,4,0:0:0:0:
264,160,67107,1,12,0:0:0:0:
160,208,67464,1,0,0:0:0:0:
204,172,67643,1,0,0:0:0:0:
184,188,67821,1,8,0:0:0:0:
132,168,68000,1,0,0:0:0:0:
244,156,68357,1,12,0:0:0:0:
300,148,68536,1,4,0:0:0:0:
412,164,68893,1,0,0:0:0:0:
356,172,69071,1,8,0:0:0:0:
304,196,69250,1,0,0:0:0:0:
329,192,69339,1,0,0:0:0:0:
136,208,69429,1,0,0:0:0:0:
360,188,69607,1,0,0:0:0:0:
360,188,69964,1,0,0:0:0:0:
248,188,70321,1,8,0:0:0:0:
192,196,70500,1,0,0:0:0:0:
192,196,70679,1,8,0:0:0:0:
304,200,71036,1,0,0:0:0:0:
276,196,71214,1,8,0:0:0:0:
192,192,71393,1,0,0:0:0:0:
88,236,71750,1,12,0:0:0:0:
224,136,72464,1,0,0:0:0:0:
88,236,72821,1,8,0:0:0:0:
200,232,73179,1,0,0:0:0:0:
224,136,73893,1,0,0:0:0:0:
88,236,74607,1,0,0:0:0:0:
224,136,75321,1,0,0:0:0:0:
172,235,75679,1,8,0:0:0:0:
4,180,76036,1,8,0:0:0:0:
88,172,76214,1,0,0:0:0:0:
116,168,76393,1,8,0:0:0:0:
184,132,76571,1,8,0:0:0:0:
116,164,76750,1,0,0:0:0:0:
184,76,77107,1,8,0:0:0:0:
152,120,77286,1,0,0:0:0:0:
184,76,77464,1,8,0:0:0:0:
248,168,77821,1,0,0:0:0:0:
352,208,78179,1,8,0:0:0:0:
300,192,78357,1,8,0:0:0:0:
300,192,78536,1,0,0:0:0:0:
188,204,78893,1,8,0:0:0:0:
188,204,79071,1,8,0:0:0:0:
188,204,79250,1,0,0:0:0:0:
172,152,79429,1,8,0:0:0:0:
188,204,79607,1,0,0:0:0:0:
264,124,79964,1,8,0:0:0:0:
224,164,80143,1,0,0:0:0:0:
268,128,80321,1,8,0:0:0:0:
288,184,80857,1,8,0:0:0:0:
296,156,81036,1,0,0:0:0:0:
339,190,81214,1,0,0:0:0:0:
212,144,81393,1,8,0:0:0:0:
296,156,81750,1,8,0:0:0:0:
318,139,81839,1,8,0:0:0:0:
296,156,81929,1,8,0:0:0:0:
296,156,82107,1,0,0:0:0:0:
296,156,82464,1,8,0:0:0:0:
273,172,82554,1,8,0:0:0:0:
296,156,82643,1,8,0:0:0:0:
296,156,82821,1,0,0:0:0:0:
264,264,83179,1,8,0:0:0:0:
280,212,83357,1,0,0:0:0:0:
252,210,83446,1,0,0:0:0:0:
288,184,83536,1,0,0:0:0:0:
264,264,83893,1,8,0:0:0:0:
280,212,84071,1,0,0:0:0:0:
252,210,84161,1,0,0:0:0:0:
288,184,84250,1,0,0:0:0:0:
312,104,84607,1,0,0:0:0:0:
308,160,84786,1,0,0:0:0:0:
248,196,84964,1,8,0:0:0:0:
356,172,85321,1,8,0:0:0:0:
296,168,85500,1,0,0:0:0:0:
272,244,85679,1,8,0:0:0:0:
344,208,86214,1,0,0:0:0:0:
348,148,86393,1,8,0:0:0:0:
348,148,86750,1,0,0:0:0:0:
228,200,87107,1,8,0:0:0:0:
396,220,87464,1,4,0:0:0:0:
312,112,87732,1,0,0:0:0:0:
344,172,88000,1,0,0:0:0:0:
208,176,88357,1,8,0:0:0:0:
272,200,88536,1,0,0:0:0:0:
208,176,88893,1,0,0:0:0:0:
241,220,89071,1,8,0:0:0:0:
276,176,89161,1,8,0:0:0:0:
267,202,89250,1,8,0:0:0:0:
276,176,89429,1,0,0:0:0:0:
208,176,89607,1,8,0:0:0:0:
208,176,89786,1,0,0:0:0:0:
176,168,89964,1,8,0:0:0:0:
208,176,90321,1,8,0:0:0:0:
272,196,90500,1,0,0:0:0:0:
272,196,90679,1,8,0:0:0:0:
140,224,91036,1,0,0:0:0:0:
102,182,91214,1,0,0:0:0:0:
276,196,91393,1,8,0:0:0:0:
276,196,91750,1,8,0:0:0:0:
250,185,91839,1,8,0:0:0:0:
276,196,91929,1,8,0:0:0:0:
256,260,92107,1,0,0:0:0:0:
156,208,92464,1,0,0:0:0:0:
55,174,92643,1,0,0:0:0:0:
257,230,92821,1,8,0:0:0:0:
188,252,93179,1,4,0:0:0:0:
256,136,93536,1,12,0:0:0:0:
344,124,94071,1,8,0:0:0:0:
372,100,94250,1,0,0:0:0:0:
316,140,94429,1,8,0:0:0:0:
260,176,94607,1,0,0:0:0:0:
232,180,94696,1,0,0:0:0:0:
232,180,94786,1,0,0:0:0:0:
260,176,94964,1,8,0:0:0:0:
204,216,95143,1,0,0:0:0:0:
252,168,95500,1,8,0:0:0:0:
264,304,95679,1,8,0:0:0:0:
264,168,96036,1,0,0:0:0:0:
292,224,96125,1,0,0:0:0:0:
232,172,96214,1,0,0:0:0:0:
168,196,96393,1,8,0:0:0:0:
264,168,96750,1,0,0:0:0:0:
288,181,96840,1,0,0:0:0:0:
320,232,96929,1,0,0:0:0:0:
168,192,97108,1,0,0:0:0:0:
292,248,97464,1,0,0:0:0:0:
320,232,97554,1,0,0:0:0:0:
348,212,97643,1,0,0:0:0:0:
348,212,97821,1,8,0:0:0:0:
248,36,98357,1,8,0:0:0:0:
224,100,98536,1,0,0:0:0:0:
280,136,98714,1,8,0:0:0:0:
232,172,98893,1,4,0:0:0:0:
244,124,99250,1,8,0:0:0:0:
272,128,99607,1,0,0:0:0:0:
272,128,99696,1,0,0:0:0:0:
228,164,99786,1,0,0:0:0:0:
272,128,99964,1,8,0:0:0:0:
280,160,100321,1,0,0:0:0:0:
272,128,100500,1,0,0:0:0:0:
272,128,100679,1,8,0:0:0:0:
160,144,101036,1,8,0:0:0:0:
214,130,101214,1,8,0:0:0:0:
216,136,101393,1,0,0:0:0:0:
160,144,101750,1,8,0:0:0:0:
188,152,101839,1,8,0:0:0:0:
188,152,101929,1,8,0:0:0:0:
188,152,102107,1,0,0:0:0:0:
160,144,102464,1,8,0:0:0:0:
188,152,102643,1,8,0:0:0:0:
188,152,102821,1,0,0:0:0:0:
160,144,103179,1,8,0:0:0:0:
200,140,103268,1,8,0:0:0:0:
188,152,103357,1,8,0:0:0:0:
188,152,103536,1,0,0:0:0:0:
296,184,103893,1,8,0:0:0:0:
240,183,104071,1,8,0:0:0:0:
324,204,104250,1,0,0:0:0:0:
296,184,104786,1,8,0:0:0:0:
296,184,104875,1,8,0:0:0:0:
296,184,104964,1,8,0:0:0:0:
348,168,105143,1,8,0:0:0:0:
296,184,105500,1,8,0:0:0:0:
296,184,105589,1,8,0:0:0:0:
296,184,105679,1,8,0:0:0:0:
348,168,105857,1,0,0:0:0:0:
296,184,106214,1,8,0:0:0:0:
296,184,106304,1,8,0:0:0:0:
296,184,106393,1,8,0:0:0:0:
348,168,106571,1,8,0:0:0:0:
240,172,106929,1,12,0:0:0:0:
184,172,107107,1,12,0:0:0:0:
244,216,107464,1,8,0:0:0:0:
244,216,108000,1,8,0:0:0:0:
244,216,108357,1,8,0:0:0:0:
244,216,108536,1,0,0:0:0:0:
196,116,108893,1,8,0:0:0:0:
268,160,109250,1,0,0:0:0:0:
268,160,109429,1,8,0:0:0:0:
156,152,109964,1,8,0:0:0:0:
228,236,110321,1,8,0:0:0:0:
248,216,110411,1,8,0:0:0:0:
228,236,110589,1,8,0:0:0:0:
228,236,110679,1,8,0:0:0:0:
278,227,110857,1,8,0:0:0:0:
139,205,111214,1,0,0:0:0:0:
216,196,111393,1,0,0:0:0:0:
228,236,111750,1,8,0:0:0:0:
205,219,111839,1,8,0:0:0:0:
228,236,112018,1,8,0:0:0:0:
207,217,112107,1,8,0:0:0:0:
228,236,112286,1,8,0:0:0:0:
132,180,112643,1,0,0:0:0:0:
216,196,112821,1,8,0:0:0:0:
328,188,113179,1,0,0:0:0:0:
188,180,113893,1,8,0:0:0:0:
136,164,114071,1,8,0:0:0:0:
136,164,114161,1,8,0:0:0:0:
188,180,114250,1,8,0:0:0:0:
292,136,114607,1,0,0:0:0:0:
236,144,114786,1,0,0:0:0:0:
268,148,114964,1,8,0:0:0:0:
228,108,115143,1,0,0:0:0:0:
308,188,115321,1,8,0:0:0:0:
308,188,115411,1,8,0:0:0:0:
308,188,115500,1,8,0:0:0:0:
252,184,115679,1,8,0:0:0:0:
140,172,116036,1,0,0:0:0:0:
140,172,116125,1,0,0:0:0:0:
140,172,116304,1,0,0:0:0:0:
162,188,116393,1,0,0:0:0:0:
140,172,116571,1,0,0:0:0:0:
176,132,116929,1,8,0:0:0:0:
176,132,117107,1,8,0:0:0:0:
140,172,117464,1,0,0:0:0:0:
140,172,117554,1,0,0:0:0:0:
195,176,117732,1,0,0:0:0:0:
215,157,117821,1,0,0:0:0:0:
140,172,118000,1,0,0:0:0:0:
208,84,118357,1,8,0:0:0:0:
176,132,118536,1,8,0:0:0:0:
276,188,118893,1,8,0:0:0:0:
324,216,119071,1,0,0:0:0:0:
272,196,119250,1,8,0:0:0:0:
268,196,119607,1,0,0:0:0:0:
212,188,119786,1,0,0:0:0:0:
184,184,119875,1,0,0:0:0:0:
156,184,119964,1,0,0:0:0:0:
268,172,120321,1,8,0:0:0:0:
171,228,120679,1,0,0:0:0:0:
204,112,120857,5,0,0:0:0:0:
324,200,121036,1,8,0:0:0:0:
436,204,121304,1,8,0:0:0:0:
352,200,121482,1,8,0:0:0:0:
232,204,121750,1,4,0:0:0:0:
