osu file format v14

[General]
AudioFilename: audio.mp3
AudioLeadIn: 0
PreviewTime: 87375
Countdown: 0
SampleSet: Normal
StackLeniency: 0.7
Mode: 1
LetterboxInBreaks: 0
WidescreenStoryboard: 0

[Editor]
DistanceSpacing: 0.8
BeatDivisor: 1
GridSize: 16
TimelineZoom: 1.399999

[Metadata]
Title:Koiuta Shippuu! Karuta Queen Iroha
TitleUnicode:恋歌疾風!かるたクイーンいろは
Artist:Nekomanma Team!
ArtistUnicode:ねこまんまチーム!
Creator:Nanatsu
Version:Kantan
Source:pop'n music éclale
Tags:NU-KO NUKO bemani japanese rhythm video game Konami ポップン ミュージック エクラル BeatStream アニムトライヴ SDVX IV
BeatmapID:1225061
BeatmapSetID:578160

[Difficulty]
HPDrainRate:8
CircleSize:5
OverallDifficulty:3
ApproachRate:5
SliderMultiplier:1.4
SliderTickRate:1

[Events]
//Background and Video events
0,0,"602106_japanese-anime-wallpapers-by-greatace07-on-deviantart_2000x1000_h.jpg",0,0
//Break Periods
//Storyboard Layer 0 (Background)
//Storyboard Layer 1 (Fail)
//Storyboard Layer 2 (Pass)
//Storyboard Layer 3 (Foreground)
//Storyboard Layer 4 (Overlay)
//Storyboard Sound Samples

[TimingPoints]
2037,500,4,1,0,40,1,0
18037,500,4,1,0,40,1,8
18492,-100,4,1,0,80,0,8
18537,357.142857142857,4,1,0,80,1,8
18894,357.142857142857,4,1,0,50,1,0
20277,-100,4,1,0,70,0,0
20322,357.142857142857,4,1,0,70,1,0
25991,-100,4,1,0,80,0,0
31705,-100,4,1,0,60,0,0
37420,-100,4,1,0,70,0,0
43134,-100,4,1,0,75,0,0
48848,-100,4,1,0,80,0,0
60277,-100,4,1,0,90,0,0
60321,-100,4,1,0,90,0,1
71705,-100,4,1,0,60,0,1
71750,-100,4,1,0,60,0,0
75991,-100,4,1,0,70,0,0
81705,-100,4,1,0,80,0,0
82375,-100,4,1,0,90,0,0
82911,-100,4,1,0,80,0,0
83804,-100,4,1,0,90,0,0
84339,-100,4,1,0,80,0,0
86125,-100,4,1,0,77,0,0
86304,-100,4,1,0,75,0,0
86482,-100,4,1,0,72,0,0
86661,-100,4,1,0,70,0,0
86839,-100,4,1,0,67,0,0
87018,-100,4,1,0,65,0,0
87196,-100,4,1,0,62,0,0
87420,-100,4,1,0,100,0,0
87464,-100,4,1,0,100,0,1
98491,-100,4,1,0,97,0,1
98848,-100,4,1,0,95,0,1
98893,-100,4,1,0,95,0,0
107420,-100,4,1,0,90,0,0

[HitObjects]
240,192,2037,5,8,0:0:0:0:
272,192,4037,1,0,0:0:0:0:
296,176,6037,1,0,0:0:0:0:
195,145,6537,1,0,0:0:0:0:
296,176,7037,1,0,0:0:0:0:
296,176,8037,1,8,0:0:0:0:
252,184,10037,1,8,0:0:0:0:
320,184,12037,1,0,0:0:0:0:
288,216,14037,1,0,0:0:0:0:
332,196,15037,1,8,0:0:0:0:
296,188,16037,1,8,0:0:0:0:
213,139,16537,1,8,0:0:0:0:
256,192,17037,12,0,17537,0:0:0:0:
268,192,18537,5,8,0:0:0:0:
260,216,20322,1,4,0:0:0:0:
260,216,21036,1,0,0:0:0:0:
272,216,21750,1,0,0:0:0:0:
203,2,22464,1,0,0:0:0:0:
272,216,23179,1,8,0:0:0:0:
272,216,23893,1,8,0:0:0:0:
312,176,24607,1,8,0:0:0:0:
276,224,25679,1,8,0:0:0:0:
348,188,26036,1,0,0:0:0:0:
208,108,26750,1,0,0:0:0:0:
348,188,27464,1,0,0:0:0:0:
264,224,28179,1,0,0:0:0:0:
208,156,28536,1,8,0:0:0:0:
280,196,28893,1,0,0:0:0:0:
240,212,29607,1,0,0:0:0:0:
129,16,30321,1,8,0:0:0:0:
253,202,31036,1,0,0:0:0:0:
253,202,31393,1,0,0:0:0:0:
264,228,31750,1,8,0:0:0:0:
192,176,33179,1,0,0:0:0:0:
232,156,34607,1,0,0:0:0:0:
224,120,35321,1,8,0:0:0:0:
224,120,36036,1,0,0:0:0:0:
236,236,37464,1,0,0:0:0:0:
268,180,38179,1,8,0:0:0:0:
264,164,38893,1,0,0:0:0:0:
188,216,40321,1,0,0:0:0:0:
248,160,41036,1,8,0:0:0:0:
200,184,41750,1,0,0:0:0:0:
208,184,42107,1,0,0:0:0:0:
208,192,42464,1,8,0:0:0:0:
108,207,43179,1,8,0:0:0:0:
152,172,43893,1,8,0:0:0:0:
336,168,44607,1,8,0:0:0:0:
336,168,45321,1,8,0:0:0:0:
336,168,45679,1,8,0:0:0:0:
236,72,46036,1,0,0:0:0:0:
224,196,46750,1,0,0:0:0:0:
276,97,47464,1,8,0:0:0:0:
224,204,48179,1,8,0:0:0:0:
220,208,48893,1,4,0:0:0:0:
252,212,49607,1,0,0:0:0:0:
284,236,50321,1,8,0:0:0:0:
300,244,51750,1,8,0:0:0:0:
244,176,52107,1,0,0:0:0:0:
256,212,52464,1,8,0:0:0:0:
224,224,53179,1,0,0:0:0:0:
184,236,54250,1,12,0:0:0:0:
232,216,54607,1,0,0:0:0:0:
292,216,55321,1,0,0:0:0:0:
272,220,56036,1,8,0:0:0:0:
288,212,56750,1,0,0:0:0:0:
280,228,57464,1,8,0:0:0:0:
280,228,58179,1,8,0:0:0:0:
272,216,58893,1,0,0:0:0:0:
272,216,59250,1,8,0:0:0:0:
260,212,59607,1,0,0:0:0:0:
208,188,60321,1,0,0:0:0:0:
256,228,61393,1,12,0:0:0:0:
240,176,61750,1,8,0:0:0:0:
180,136,62821,1,12,0:0:0:0:
336,220,63179,1,0,0:0:0:0:
191,197,63893,1,0,0:0:0:0:
340,232,64250,1,0,0:0:0:0:
316,220,64607,1,8,0:0:0:0:
162,198,64964,1,0,0:0:0:0:
300,216,65321,1,4,0:0:0:0:
216,212,66036,1,8,0:0:0:0:
280,200,67107,1,4,0:0:0:0:
216,212,67464,1,8,0:0:0:0:
280,200,68536,1,12,0:0:0:0:
240,248,68893,1,0,0:0:0:0:
232,200,69607,1,8,0:0:0:0:
360,166,69964,1,0,0:0:0:0:
272,168,70321,1,8,0:0:0:0:
224,215,70679,1,0,0:0:0:0:
272,168,71036,1,0,0:0:0:0:
272,176,71750,1,12,0:0:0:0:
208,180,73179,1,0,0:0:0:0:
200,184,74607,1,0,0:0:0:0:
204,184,76036,1,8,0:0:0:0:
236,172,76750,1,8,0:0:0:0:
260,152,77107,1,8,0:0:0:0:
260,152,77464,1,0,0:0:0:0:
264,180,78179,1,8,0:0:0:0:
264,180,78893,1,0,0:0:0:0:
264,180,79250,1,8,0:0:0:0:
248,188,79607,1,0,0:0:0:0:
264,204,80321,1,8,0:0:0:0:
393,181,81036,1,0,0:0:0:0:
393,181,81393,1,0,0:0:0:0:
260,172,81750,1,8,0:0:0:0:
260,172,82464,1,12,0:0:0:0:
156,164,83179,1,8,0:0:0:0:
156,164,83893,1,12,0:0:0:0:
380,180,84607,1,0,0:0:0:0:
308,172,85321,1,0,0:0:0:0:
228,160,85679,1,8,0:0:0:0:
256,192,86036,12,0,86750,0:0:0:0:
332,216,87464,5,4,0:0:0:0:
112,176,88179,1,0,0:0:0:0:
392,212,88536,1,8,0:0:0:0:
224,180,88893,1,0,0:0:0:0:
256,204,89607,1,8,0:0:0:0:
312,184,90321,1,0,0:0:0:0:
316,184,91036,1,8,0:0:0:0:
312,184,91393,1,0,0:0:0:0:
304,184,91750,1,0,0:0:0:0:
304,154,92464,1,0,0:0:0:0:
268,216,93179,1,4,0:0:0:0:
316,212,94250,1,0,0:0:0:0:
392,168,94607,1,8,0:0:0:0:
190,175,95321,1,0,0:0:0:0:
288,188,96036,1,0,0:0:0:0:
288,192,96393,1,0,0:0:0:0:
288,188,96750,1,8,0:0:0:0:
180,212,97107,1,8,0:0:0:0:
216,200,97464,1,0,0:0:0:0:
216,200,97821,1,8,0:0:0:0:
232,236,98536,1,0,0:0:0:0:
232,232,98893,1,4,0:0:0:0:
292,184,99607,1,0,0:0:0:0:
304,192,100321,1,0,0:0:0:0:
304,192,100679,1,8,0:0:0:0:
304,192,101036,1,0,0:0:0:0:
264,156,101750,1,8,0:0:0:0:
208,136,103179,1,8,0:0:0:0:
200,184,103893,1,8,0:0:0:0:
208,136,104250,1,8,0:0:0:0:
156,184,104607,1,0,0:0:0:0:
208,192,105321,1,8,0:0:0:0:
244,156,106036,1,0,0:0:0:0:
256,248,107107,1,12,0:0:0:0:
264,228,107464,1,8,0:0:0:0:
211,160,108536,1,0,0:0:0:0:
243,172,108893,1,8,0:0:0:0:
205,61,109964,1,8,0:0:0:0:
248,92,110321,1,8,0:0:0:0:
196,168,111393,1,0,0:0:0:0:
196,168,111750,1,8,0:0:0:0:
276,184,112821,1,8,0:0:0:0:
248,200,113179,1,0,0:0:0:0:
216,208,113893,1,8,0:0:0:0:
284,152,114607,1,0,0:0:0:0:
284,160,114964,1,8,0:0:0:0:
288,160,115321,1,8,0:0:0:0:
280,184,116036,1,0,0:0:0:0:
244,232,117107,1,8,0:0:0:0:
252,224,117464,1,0,0:0:0:0:
208,204,118536,1,8,0:0:0:0:
192,196,118893,1,8,0:0:0:0:
252,212,119607,1,0,0:0:0:0:
208,72,120321,1,8,0:0:0:0:
320,164,120679,1,0,0:0:0:0:
208,192,121036,1,8,0:0:0:0:
220,148,121750,1,4,0:0:0:0:
